#TITLE:IF YOU CAN SAY GOODBYE;
#SUBTITLE:;
#ARTIST:KATE PROJECT;
#TITLETRANSLIT:;
#SUBTITLETRANSLIT:;
#ARTISTTRANSLIT:;
#GENRE:;
#CREDIT:;
#BANNER:IF YOU CAN SAY GOODBYE.png;
#BACKGROUND:IF YOU CAN SAY GOODBYE-bg.png;
#LYRICSPATH:;
#CDTITLE:;
#MUSIC:IF YOU CAN SAY GOODBYE.ogg;
#OFFSET:0.000000;
#SAMPLESTART:40.887001;
#SAMPLELENGTH:15.000000;
#SELECTABLE:YES;
#DISPLAYBPM:132.000000;
#BPMS:0.000000=132.000000
;
#STOPS:
;
#BGCHANGES:;
#KEYSOUNDS:;
#ATTACKS:;

//---------------dance-single - ----------------
#NOTES:
     dance-single:
     :
     Easy:
     6:
     0.285426,0.342912,0.145920,0.000000,0.000000,178.000000,165.000000,13.000000,0.000000,0.000000,0.000000,0.285426,0.342912,0.145920,0.000000,0.000000,178.000000,165.000000,13.000000,0.000000,0.000000,0.000000:
0000
0000
0000
0000
,
0000
0000
0000
0000
,
0000
0000
0000
0000
,
0000
0000
0000
0000
,
0000
0000
0000
0000
,
1001
1001
0001
0100
,
1001
1001
1000
0100
,
0001
1000
0001
0100
,
1000
0001
1000
0100
,
0001
1000
0001
0100
,
1000
0001
1000
0100
,
0001
0100
1000
0100
,
0010
0001
0010
1000
,
0001
0010
0010
0100
,
1000
0010
0010
0100
,
0001
0010
0010
0010
,
1000
0001
0001
0001
,
0010
0100
0100
0100
,
0001
0010
0100
1000
,
0001
1000
0010
0100
,
0001
0001
1000
1000
,
0001
1000
0100
0010
,
0001
1000
0010
0010
,
1000
0001
1001
0100
,
0001
0001
1000
1000
,
0100
1000
0001
0100
,
0100
0001
1000
0100
,
0001
1000
1001
0100
,
0010
1000
0001
0100
,
0000
0100
0000
0100
,
0000
0100
0010
0010
,
1000
0001
1001
0100
,
0001
0001
1000
1000
,
0100
1000
0001
0100
,
0100
0010
1000
0100
,
1001
1000
0001
0100
,
0001
1000
0001
0100
,
0000
0100
0000
0100
,
0000
0100
0001
1000
,
0001
0001
1000
0001
,
1000
1000
0001
1000
,
1001
0000
1001
0000
0001
0000
1000
1000
,
1000
1000
0001
1000
,
0001
0001
1000
0001
,
1000
1000
0001
1000
,
1001
0000
1001
0000
0001
0000
0001
0001
,
0001
1000
1000
1000
,
1001
0000
0000
0000
;

//---------------dance-single - ----------------
#NOTES:
     dance-single:
     :
     Medium:
     8:
     0.333531,0.395667,0.235717,0.000000,0.000000,208.000000,187.000000,21.000000,0.000000,0.000000,0.000000,0.333531,0.395667,0.235717,0.000000,0.000000,208.000000,187.000000,21.000000,0.000000,0.000000,0.000000:
0000
0000
0000
0000
,
0000
0000
0000
0000
,
0000
0000
0000
0000
,
0000
0000
0000
0000
,
0000
0000
0000
0000
,
0011
0011
1000
0100
,
1010
1010
0001
0100
,
0001
1000
0100
0000
0001
0000
0001
0000
,
0001
1000
0100
0000
0001
0000
0001
0000
,
1000
0001
0100
0000
1000
0000
1000
0000
,
1000
0001
0100
0000
1000
0000
1000
0000
,
0010
1000
0100
0000
0010
0000
0010
0000
,
0010
0001
0100
0000
0010
0000
0010
0000
,
0010
1000
0001
0000
0010
0000
0010
0000
,
0100
0100
0100
0100
,
0001
0010
0100
0000
1000
0000
1000
0000
,
1000
0010
0100
0000
0001
0000
0001
0000
,
1000
0001
0100
0000
0010
0000
0010
0000
,
0010
1000
0100
0000
0010
0000
0010
0000
,
0001
1000
0010
0000
1000
0000
1000
0000
,
0001
0010
1000
0000
0001
0000
0001
0000
,
0001
1000
0001
0100
,
0001
1000
0100
0100
,
1001
0000
1100
0000
1001
0000
0000
0001
,
0000
0100
1000
0000
,
0001
0010
0001
0000
1000
0100
1000
0000
,
0010
0100
0010
0000
1000
0001
1000
0000
,
1001
0000
0101
0000
1001
0000
0000
0010
,
0000
0000
1000
0000
0001
0000
0010
0100
,
0000
0000
0010
0100
0000
0000
0010
0000
,
0000
0000
0001
0100
,
1010
0000
1100
0000
1010
0000
0000
1000
,
0000
0100
0001
0000
,
0010
0001
0010
0000
0100
1000
0100
0000
,
1000
0010
1000
0000
0001
0100
0001
0000
,
0011
0000
0101
0000
0011
0000
0000
0010
,
0000
0000
1000
0000
0001
0000
0010
0100
,
0000
0000
0010
0100
0000
0000
0010
0000
,
0000
0100
0000
0000
,
0001
0000
0001
0000
0001
0100
1000
0000
,
1000
0000
1000
0000
1000
0100
0001
0000
,
1001
0000
1001
0000
0001
0010
0100
0000
,
1000
0000
1000
0000
1000
0100
0001
0000
,
0001
0000
0001
0000
0001
0100
1000
0000
,
0010
0000
0010
0000
0100
0001
0010
0000
,
1001
0000
1001
0000
0001
1000
0100
0000
,
0010
0000
0010
0000
0010
0100
0010
0000
,
1001
0000
0000
0000
;

//---------------dance-single - ----------------
#NOTES:
     dance-single:
     :
     Hard:
     10:
     0.424931,0.448423,0.168369,0.000000,0.000000,265.000000,250.000000,15.000000,0.000000,0.000000,0.000000,0.424931,0.448423,0.168369,0.000000,0.000000,265.000000,250.000000,15.000000,0.000000,0.000000,0.000000:
0000
0000
0000
0000
,
0000
0000
0000
0000
,
0000
0000
0000
0000
,
0000
0000
0000
0000
,
0000
0000
0000
0000
,
1001
0000
1001
0000
0001
1000
0100
0001
,
1001
0000
1001
0000
1000
0001
0100
0010
,
0001
0000
0001
0000
0001
1000
0100
0000
,
0001
1000
0100
0000
0001
1000
0100
0000
,
0001
0001
1000
0000
0001
1000
1000
0000
,
1000
0001
0100
0000
1000
0001
0100
0000
,
0010
1000
0100
0000
0010
1000
0100
0000
,
0010
0010
0001
0000
1000
0010
0010
0000
,
0010
1000
0001
0000
0010
1000
0001
0000
,
0100
0001
1000
0100
0010
0001
1000
0000
,
0001
0010
0100
0000
0001
0010
0100
0000
,
0001
0001
1000
0000
0001
1000
1000
0000
,
1000
0001
0100
0000
1000
0001
0100
0000
,
0010
1000
0100
0000
0010
1000
0100
0000
,
0001
1000
1000
0000
1000
0001
0001
0000
,
0010
0001
0100
0000
0010
0001
0100
0000
,
1000
0010
0001
0000
1000
0010
0001
0000
,
0001
1000
0010
0100
0001
1000
0010
0000
,
1010
0001
0100
0010
1000
0000
0000
1010
,
0100
0001
1000
0010
0100
0100
0100
0000
,
0001
0010
0100
0010
0001
0100
0100
0000
,
0001
1000
0100
0010
0000
0010
0001
0000
,
1010
0001
0100
0010
1000
0000
0000
0010
,
0001
1000
0100
0010
0001
0000
0010
0100
,
0000
0000
0010
0100
0000
0000
0001
1000
,
0000
0000
0000
0000
0001
1000
0010
0000
,
0011
1000
0100
0010
0001
0000
0000
0011
,
0100
1000
0001
0010
0100
0100
0100
0000
,
1000
0010
0100
0010
1000
0100
0100
0000
,
1000
0001
0100
0010
0000
0010
1000
0000
,
0011
1000
0100
0010
0001
0000
0000
0010
,
1000
0001
0100
0010
1000
0000
0010
0100
,
0000
0000
0010
0100
0000
0000
0010
0010
,
0000
1000
0100
0100
,
0001
0000
0001
0000
1000
0100
0001
1000
,
1000
0000
1000
0000
0001
0100
1000
0001
,
1001
0000
1001
0000
0001
0100
1000
0001
,
0010
0000
0010
0000
0001
0100
1000
0010
,
0100
0000
0100
0000
1000
0010
0001
0100
,
0001
0000
0001
0000
0010
0100
1000
0100
,
1001
0000
1001
0000
0010
1000
0001
0100
,
0010
0000
0010
0000
0010
1000
0010
0001
,
1001
0000
0000
0000
;

//---------------dance-couple - ----------------
#NOTES:
     dance-couple:
     :
     Medium:
     6:
     0.258166,0.422045,0.112246,0.000000,0.000000,161.000000,151.000000,10.000000,0.000000,0.000000,0.000000,0.258166,0.422045,0.112246,0.000000,0.000000,161.000000,151.000000,10.000000,0.000000,0.000000,0.000000:
00000000
00000000
00000000
00000000
,
00000000
00000000
00000000
00000000
,
00000000
00000000
00000000
00000000
,
00000000
00000000
00000000
00000000
,
00000000
00000000
00000000
00000000
,
11000000
00000000
01010000
00000000
00100000
10000000
01000000
00000000
,
00000101
00000000
00001100
00000000
00000010
00000001
00000100
00000000
,
10000000
10000001
00010000
00010001
,
00010000
00100000
01000001
00000000
00010000
01000000
10000001
00000000
,
00001000
10001000
00000001
10000001
,
00000001
00000010
10000100
00000000
00000001
00000100
10001000
00000000
,
00100000
10000000
01000000
00010000
,
00100000
10000000
01000000
00010000
01000000
10000000
00010000
00000000
,
00000010
00001000
00000100
00000001
,
00000010
00001000
00000100
00000001
00000100
00001000
00000001
00000000
,
10100000
10100000
00010000
00000000
00110000
00110000
10000000
00000000
,
00010000
00000000
01000000
00000000
00100000
10000000
01000000
00000000
,
00000011
00000011
00001000
00000000
00001010
00001010
00000001
00000000
,
00001000
00000000
00000100
00000000
00000010
00000001
00000100
00000000
,
10001000
00000000
01000100
00000000
,
00010001
00000000
01000100
00000000
,
10001000
01000100
00010001
01000100
,
00010001
10001000
01000100
10001000
00010001
01000100
00010001
00000000
,
10001000
00000000
10000001
00000000
10000100
00000001
10000001
00000000
,
10000001
00000000
10001000
00000000
10000100
00001000
10001000
00000000
,
00000001
00000010
10000100
00000010
00000001
00000100
10000100
00000000
,
00001000
00000010
10000100
00000010
00001000
00000100
10000100
00000000
,
00011010
00000001
00010100
00000010
00011000
00000000
00010000
00000010
,
00010001
00001000
00010100
00000010
00010001
00000000
00010010
00000100
,
00000000
00000000
00010010
00000100
00000000
00000000
00010001
00001000
,
00000000
00000000
00010000
00000100
00001000
00000000
00010000
00000000
,
10001000
00000000
00011000
00000000
01001000
00010000
00011000
00000000
,
00011000
00000000
10001000
00000000
01001000
10000000
10001000
00000000
,
00010000
00100000
01001000
00100000
00010000
01000000
01001000
00000000
,
10000000
00100000
01001000
00100000
10000000
01000000
01001000
00000000
,
10100001
00010000
01000001
00100000
10000001
00000000
00000001
00100000
,
00010001
10000000
01000001
00100000
00010001
00000000
00100001
01000000
,
00000000
00000000
00100001
01000000
00000000
00000000
00010001
10000000
,
00000000
00000000
00000001
01000000
10000000
00000000
00000001
00000000
,
00000001
00000000
00000001
00000000
00001000
00000100
10001001
00001000
,
00001000
00000000
00001000
00000000
00000001
00000100
10001000
00000001
,
00001001
00000000
00001001
00000000
00000001
00000100
10001000
00000001
,
00000010
00000000
00000010
00000000
00000001
00000100
10001000
00000000
,
10000000
00000000
10000000
00000000
00010000
01000000
10001000
00010000
,
00010000
00000000
00010000
00000000
10000000
01000000
00011000
10000000
,
10010000
00000000
10010000
00000000
10000000
01000000
00011000
10000000
,
00100000
00000000
00100000
00000000
10000000
01000000
00011000
00000000
,
10011000
00000000
00000000
00000000
;

//---------------dance-double - ----------------
#NOTES:
     dance-double:
     :
     Easy:
     4:
     0.295047,0.369289,0.235717,0.000000,0.000000,184.000000,163.000000,21.000000,0.000000,0.000000,0.000000,0.295047,0.369289,0.235717,0.000000,0.000000,184.000000,163.000000,21.000000,0.000000,0.000000,0.000000:
00000000
00000000
00000000
00000000
,
00000000
00000000
00000000
00000000
,
00000000
00000000
00000000
00000000
,
00000000
00000000
00000000
00000000
,
00000000
00000000
00000000
00000000
,
10010000
10010000
10000000
00010000
,
00011000
00011000
00010000
00000100
,
00000001
00000100
00000010
00000000
,
00010000
00001000
01000000
00000000
,
00100000
10000000
01000000
00000000
,
00100000
00010000
01000000
00000000
,
00001000
00000010
00000001
00000000
,
00000100
00010000
00100000
00000000
,
10000000
01000000
00100000
00000000
,
00010000
01000000
00001000
00000000
,
00010000
00001000
00001000
00001000
,
00000100
00010000
00010000
00010000
,
00000010
00000100
00000100
00000100
,
00000001
00000100
00010000
10000000
,
00100000
00010000
01000000
00100000
,
00010000
00010000
01000000
01000000
,
00010000
00001000
00000010
00000100
,
00000001
00001000
00010000
01000000
,
10100000
01000000
10010000
01000000
,
00100000
01000000
00010000
00001000
,
00000100
00000011
00000100
00001000
,
00010000
10100000
01000000
00010000
,
00011000
00000100
00001001
00000100
,
00010000
00100000
01000000
10000000
,
00000000
10000000
00000000
10000000
,
00000000
10000000
00010000
00000100
,
00001001
00000100
00001001
00000010
,
00000100
00000010
00010000
00000010
,
00000100
00000011
00000100
00001000
,
00010000
10100000
01000000
00010000
,
00011000
00000100
00001001
00000100
,
00000001
00000010
00000100
00010000
,
00000000
00010000
00000000
00010000
,
00000000
00010000
00001000
00000100
,
00000001
00000000
00000001
00000000
00000010
00000010
00000010
00000000
,
00000100
00000000
00000100
00000000
00010000
00010000
00010000
00000000
,
01001000
00000000
01001000
00000000
00100000
00100000
00100000
00000000
,
01000000
00000000
01000000
00000000
10000000
10000000
10000000
00000000
,
01000000
00000000
00010000
00000000
00001000
00001000
00001000
00000000
,
00000100
00000000
00000010
00000000
00000001
00000001
00000001
00000000
,
00000010
00000000
00001001
00000000
00000100
00000100
00000100
00000000
,
00000001
00000000
00000101
00000000
00000010
00000010
00000010
00000000
,
00001001
00000000
00000000
00000000
;

//---------------dance-double - ----------------
#NOTES:
     dance-double:
     :
     Medium:
     5:
     0.351170,0.342912,0.022449,0.000000,0.000000,219.000000,217.000000,2.000000,0.000000,0.000000,0.000000,0.351170,0.342912,0.022449,0.000000,0.000000,219.000000,217.000000,2.000000,0.000000,0.000000,0.000000:
00000000
00000000
00000000
00000000
,
00000000
00000000
00000000
00000000
,
00000000
00000000
00000000
00000000
,
00000000
00000000
00000000
00000000
,
00000000
00000000
00000000
00000000
,
00011000
00000000
00001000
00000000
00000001
00001000
00000100
00000000
,
00011000
00000000
00010000
00000000
00010000
10000000
01000000
00000000
,
00100000
00000000
10000000
00000000
00100000
10000000
01000000
00000000
,
00100000
00000000
00010000
00000000
01000000
00001000
00010000
00000000
,
00000100
00000000
00000010
00000000
00000001
00000100
00000010
00000000
,
00001000
00000100
00010000
00000000
00010000
00001000
01000000
00000000
,
00010000
00000000
10000000
00000000
00100000
10000000
01000000
00000000
,
00100000
00000000
00010000
00000000
01000000
00001000
00010000
00000000
,
00000100
00000010
00000001
00000000
00000100
00000010
00001000
00000000
,
00000100
00010000
00001000
00010000
,
00100000
00000000
10000000
00000000
01000000
10000000
00100000
00000000
,
01000000
00000000
00010000
00000000
00100000
00001000
00010000
00000000
,
00000010
00000000
00000100
00000000
00000001
00000010
00000100
00000000
,
00001000
00000001
00000100
00000000
00001000
00010000
01000000
00000000
,
10000000
00000000
10000000
00000000
01000000
10000000
00100000
00000000
,
01000000
00000000
00010000
00000000
00100000
00001000
00010000
00000000
,
00000010
00001000
00000100
00000000
00000010
00000001
00000100
00000000
,
00000010
00010000
00100000
10000000
,
00010000
10000000
01000000
10000000
01000000
00000000
00000000
00010000
,
00000000
00000000
00001000
00000000
00000100
00000001
00000001
00000000
,
00001000
00000000
00000100
00000000
00010000
00001000
00010000
00000000
,
00100000
00000000
00010000
00000000
10000000
00100000
10000000
00000000
,
00010000
00100000
01000000
00100000
01000000
00000000
00000000
00100000
,
00000000
00000000
00001000
00000000
00010000
00001000
00001000
00000000
,
00010000
01000000
00001000
00000100
,
00001000
00000100
00000001
00001000
,
00000010
00001000
00000100
00001000
00000100
00000000
00000000
00000010
,
00000000
00000000
00000001
00000000
00000100
00001000
00001000
00000000
,
00001000
00000000
00000100
00000000
00010000
00001000
00010000
00000000
,
00100000
00000000
00010000
00000000
10000000
00100000
10000000
00000000
,
00010000
00100000
01000000
00100000
01000000
00000000
00000000
00100000
,
00000000
00000000
00001000
00000000
00010000
00001000
00001000
00000000
,
00010000
01000000
00001000
00000100
,
00001000
00000100
00000001
00001000
,
00000010
00000000
00000010
00000000
00010000
00001000
01000000
00010000
,
10000000
00000000
10000000
00000000
00100000
00010000
10000000
01000000
,
00010000
00000000
00010000
00000000
00001000
00000100
00000001
00001000
,
00000010
00000000
00000010
00000000
00010000
00001000
01000000
00100000
,
10000000
00000000
10000000
00000000
00100000
10000000
00010000
01000000
,
00010000
00000000
00010000
00000000
00100000
00010000
01000000
00100000
,
01000000
00000000
01000000
00000000
00010000
01000000
00001000
00010000
,
00000010
00000000
00000010
00000000
00000010
00001000
00000010
00001000
,
00000100
00000000
00000000
00000000
;

//---------------dance-double - ----------------
#NOTES:
     dance-double:
     :
     Hard:
     7:
     0.465019,0.474801,0.314289,0.000000,0.000000,290.000000,262.000000,28.000000,0.000000,0.000000,0.000000,0.465019,0.474801,0.314289,0.000000,0.000000,290.000000,262.000000,28.000000,0.000000,0.000000,0.000000:
00000000
00000000
00000000
00000000
,
00000000
00000000
00000000
00000000
,
00000000
00000000
00000000
00000000
,
00000000
00000000
00000000
00000000
,
00000000
00000000
00000000
00000000
,
01010000
00000000
00011000
00000000
00100000
00001000
00010000
00000100
,
00001100
00000000
00011000
00000000
00000010
00010000
00001000
01000000
,
00010000
00000000
00010000
00000000
10000000
00010000
01000000
00000000
,
00100000
00001000
00010000
00010000
00000010
00000100
00000001
00000000
,
00000001
00000001
00001000
00000000
00001000
00001000
00000001
00000000
,
00001000
00000100
00000010
00000001
00000100
00001000
00000100
00000000
,
00000001
00001000
00000100
00000100
00000100
00010000
00001000
00001000
,
00001000
00100000
00010000
00010000
00010000
10000000
01000000
00000000
,
10000000
00010000
01000000
00000000
00100000
00001000
00010000
00000000
,
00000100
00001000
00000001
00000010
00000100
00001000
00000001
00000000
,
00000001
00001000
00000100
00000100
00000100
00010000
00001000
00001000
,
00001000
00100000
00010000
00010000
00010000
10000000
01000000
00000000
,
10000000
00010000
01000000
00000000
00100000
00001000
00010000
00000000
,
00010000
00000010
00001000
00000100
00001000
00000001
00000100
00000000
,
00001000
00000100
00000010
00000001
00000100
00001000
00000100
00000000
,
00000001
00001000
00000100
00000000
00000010
00010000
00001000
00000000
,
00100000
00010000
01000000
00000000
00010000
00000010
00000100
00000000
,
00000001
00001000
00000100
00010000
00001000
00100000
01000000
00000000
,
10100000
00010000
01000000
00100000
10000000
00000000
00000000
00101000
,
00010000
00000100
00001000
00000010
00000100
00000100
00000001
00000000
,
00010000
00000010
00001000
00000010
00010000
00000100
00000100
00000000
,
00000010
00001000
00010000
01000000
00000000
01000000
01000000
00000000
,
10100000
00010000
01000000
00100000
10000000
00000000
00000000
00101000
,
00010000
00000100
00001000
00000010
00000100
00000100
00000001
00001000
,
00000000
00000000
00000010
00000100
00000000
00000000
00010000
00001000
,
00000000
00000010
00000100
00000100
,
00000011
00001000
00000100
00000001
00001000
00000000
00000000
00001010
,
00001000
00000100
00010000
00001000
01000000
01000000
00010000
00000000
,
00001000
00100000
00010000
01000000
00001000
00010000
00010000
00000000
,
00100000
00010000
00001000
00000100
00000000
00000100
00000100
00000000
,
00000011
00001000
00000100
00000001
00001000
00000000
00000000
00001010
,
00001000
00000100
00010000
00001000
01000000
01000000
00010000
01000000
,
00000000
00000000
00100000
01000000
00000000
00000000
10000000
10000000
,
00000000
00010000
01000000
01000000
,
10010000
00000000
10010000
00000000
00100000
01000000
00010000
00100000
,
00011000
00000000
00011000
00000000
00100000
00001000
00010000
00000100
,
00001001
00000000
00001001
00000000
00000001
00000100
00001000
00000100
,
00011000
00000000
00011000
00000000
00010000
00100000
10000000
01000000
,
11000000
00000000
01010000
00000000
10000000
00100000
01000000
00010000
,
00110000
00000000
00011000
00000000
00001000
00010000
00000100
00000010
,
00001001
00000000
00000101
00000000
00001000
00010000
00001000
01000000
,
01100000
00000000
01010000
00000000
00100000
10000000
01000000
00010000
,
00001000
00000000
00000000
00000000
;

//---------------dance-solo - ----------------
#NOTES:
     dance-solo:
     :
     Easy:
     4:
     0.269391,0.342912,0.056123,0.000000,0.000000,168.000000,163.000000,5.000000,0.000000,0.000000,0.000000,0.269391,0.342912,0.056123,0.000000,0.000000,168.000000,163.000000,5.000000,0.000000,0.000000,0.000000:
000000
000000
000000
000000
,
000000
000000
000000
000000
,
000000
000000
000000
000000
,
000000
000000
000000
000000
,
000000
000000
000000
000000
,
100001
100001
010000
010000
,
100001
100001
000010
000010
,
001000
000100
001000
000001
,
100000
000001
100000
001000
,
000100
001000
000100
100000
,
000001
100000
000001
000100
,
001000
000001
010000
000100
,
001000
000010
100000
001000
,
010000
001000
001000
000010
,
100000
000100
000100
001000
,
000001
010000
010000
010000
,
100000
000010
000010
000010
,
001000
000100
000100
000100
,
000001
001000
100000
000100
,
000001
001000
000100
100000
,
000001
000001
100000
100000
,
000010
001000
010000
010000
,
000010
001000
000001
000001
,
000001
010000
010000
000001
,
001000
001000
000100
000100
,
001000
000010
010000
001000
,
001000
000001
100000
001000
,
000010
100000
100000
000010
,
001000
000001
010000
000100
,
000000
001000
000000
001000
,
000000
000100
000100
000100
,
100000
000001
010000
000100
,
001000
001000
000010
000010
,
001000
000001
100000
000100
,
000100
001000
000001
100000
,
000100
001000
000001
001000
,
000100
100000
001000
100000
,
000000
001000
000000
001000
,
000000
001000
000010
000010
,
100000
100000
000001
100000
,
010000
010000
000001
010000
,
000100
000100
001000
000010
,
000010
100000
100000
000001
,
010000
010000
000001
100000
,
000100
000100
001000
000100
,
010000
000010
001000
001000
,
100000
000001
000001
000001
,
100001
000000
000000
000000
;

//---------------dance-solo - ----------------
#NOTES:
     dance-solo:
     :
     Medium:
     5:
     0.333531,0.395667,0.235717,0.000000,0.000000,208.000000,187.000000,21.000000,0.000000,0.000000,0.000000,0.333531,0.395667,0.235717,0.000000,0.000000,208.000000,187.000000,21.000000,0.000000,0.000000,0.000000:
000000
000000
000000
000000
,
000000
000000
000000
000000
,
000000
000000
000000
000000
,
000000
000000
000000
000000
,
000000
000000
000000
000000
,
000011
000011
001000
000100
,
110000
110000
000100
001000
,
000001
100000
000001
000000
010000
000000
010000
000000
,
100000
000001
100000
000000
000010
000000
000010
000000
,
100000
001000
100000
000000
000010
000000
000010
000000
,
000001
001000
000001
000000
010000
000000
010000
000000
,
000100
100000
001000
000000
010000
000000
010000
000000
,
000100
000001
001000
000000
000010
000000
000010
000000
,
001000
100000
000001
000000
000100
000000
000100
000000
,
001000
001000
001000
001000
,
000001
000100
000010
000000
100000
000000
100000
000000
,
100000
000100
010000
000000
000001
000000
000001
000000
,
001000
000100
100000
000000
000100
000000
000100
000000
,
001000
000100
000001
000000
000100
000000
000100
000000
,
100000
001000
010000
000000
000001
000000
000001
000000
,
000001
001000
000010
000000
100000
000000
100000
000000
,
000100
001000
000001
001000
,
000001
100000
000100
000100
,
010001
000000
100010
000000
010010
000000
000000
001000
,
000000
000001
100000
000000
,
000010
000001
000010
000000
010000
100000
010000
000000
,
000100
001000
000100
000000
100000
000001
100000
000000
,
010001
000000
100010
000000
001100
000000
000000
001000
,
000000
000000
000001
000000
100000
000000
000100
001000
,
000000
000000
000100
001000
000000
000000
000100
000000
,
000000
000000
000001
100000
,
000101
000000
010001
000000
000101
000000
000000
100000
,
000000
000100
001000
000000
,
000100
000010
000100
000000
010000
000100
010000
000000
,
100000
010000
100000
000000
000001
000010
000001
000000
,
000110
000000
010100
000000
000110
000000
000000
000010
,
000000
000000
100000
000000
000001
000000
001000
000100
,
000000
000000
001000
000100
000000
000000
001000
000000
,
000000
000100
000000
000000
,
100000
000000
100000
000000
100000
000010
100000
000000
,
000001
000000
000001
000000
000001
010000
000001
000000
,
001100
000000
001100
000000
001000
000010
001000
000000
,
100000
000000
100000
000000
100000
001000
000010
000000
,
000001
000000
000001
000000
000001
001000
010000
000000
,
000010
000000
000010
000000
100000
000001
001000
000000
,
010001
000000
010001
000000
100000
000010
001000
000000
,
000100
000000
000100
000000
000100
100000
000100
000000
,
100001
000000
000000
000000
;

//---------------dance-solo - ----------------
#NOTES:
     dance-solo:
     :
     Hard:
     6:
     0.412103,0.448423,0.078572,0.000000,0.000000,257.000000,250.000000,7.000000,0.000000,0.000000,0.000000,0.412103,0.448423,0.078572,0.000000,0.000000,257.000000,250.000000,7.000000,0.000000,0.000000,0.000000:
000000
000000
000000
000000
,
000000
000000
000000
000000
,
000000
000000
000000
000000
,
000000
000000
000000
000000
,
000000
000000
000000
000000
,
100001
000000
100001
000000
000001
000100
001000
100000
,
100001
000000
100001
000000
100000
001000
000100
001000
,
010000
000000
000010
000000
000010
010000
001000
000000
,
000001
010000
001000
000000
000001
010000
001000
000000
,
000010
000010
100000
000000
000010
100000
000001
000000
,
001000
000010
000100
000000
001000
000010
000100
000000
,
100000
001000
010000
000000
100000
001000
010000
000000
,
000001
000001
100000
000000
000010
001000
001000
000000
,
001000
100000
000001
000000
001000
100000
000010
000000
,
001000
000100
100000
001000
000100
000001
100000
000000
,
000010
001000
000010
000000
010000
000001
010000
000000
,
000100
100000
000010
000000
100000
000100
010000
000000
,
000100
100000
000001
000000
000100
100000
000001
000000
,
001000
100000
000010
000000
001000
100000
000010
000000
,
100000
001000
001000
000000
001000
000001
000001
000000
,
000100
000010
001000
000000
000100
000010
001000
000000
,
100000
001000
000100
000000
100000
001000
000100
000000
,
000001
000001
100000
001000
100000
000100
001000
000000
,
000001
000001
100000
001000
100000
000000
000000
000100
,
001000
000001
100000
000010
001000
001000
001000
000000
,
000010
001000
000100
001000
000001
000100
000100
000000
,
000001
100000
000100
001000
000000
001000
000010
000000
,
010000
000010
010000
000001
100000
000000
000000
000100
,
000001
100000
001000
000100
000001
000000
001000
000100
,
000000
000000
001000
000100
000000
000000
100000
000001
,
000000
000000
000000
000000
100000
000001
000100
000000
,
000010
100000
001000
010000
000001
000000
000000
000100
,
001000
000010
100000
001000
100000
100000
100000
000000
,
000001
000100
000010
000100
000001
001000
001000
000000
,
100000
000010
001000
000001
000000
000001
100000
000000
,
100000
000010
001000
000100
100000
000000
000000
001000
,
000100
100000
000100
001000
000001
000000
010000
010000
,
000000
000000
000010
000010
000000
000000
010000
010000
,
000000
000001
001000
001000
,
000001
000000
000001
000000
100000
000010
010000
001000
,
100000
000000
100000
000000
000001
001000
100000
001000
,
000001
000000
100001
000000
000001
001000
100000
001000
,
000100
000000
000100
000000
000001
010000
000001
010000
,
001000
000000
001000
000000
100000
000001
000100
001000
,
010000
000000
000010
000000
001000
000010
100000
000010
,
100000
000000
100001
000000
000100
001000
000100
001000
,
000010
000000
000010
000000
010000
001000
010000
000010
,
010010
000000
000000
000000
;

//---------------dance-single - ----------------
#NOTES:
     dance-single:
     :
     Beginner:
     1:
     0.118660,0.184645,0.011225,0.000000,0.000000,74.000000,73.000000,1.000000,0.000000,0.000000,0.000000,0.118660,0.184645,0.011225,0.000000,0.000000,74.000000,73.000000,1.000000,0.000000,0.000000,0.000000:
0000
0000
0000
0000
,
0000
0000
0000
0000
,
0000
0000
0000
0000
,
0000
0000
0000
0000
,
0000
0000
0000
0000
,
0100
0000
0000
0000
,
0100
0000
0000
0000
,
1000
0000
0000
0000
,
1000
0000
0000
0000
,
0001
0000
0000
0000
,
0001
0000
0000
0000
,
0010
0000
0000
0000
,
0010
0000
0000
0000
,
0100
0000
0000
0000
,
0100
0000
0000
0000
,
1000
0000
0000
0000
,
1000
0000
0000
0000
,
0001
0000
0000
0000
,
0001
0000
0000
0000
,
0100
0000
0000
0000
,
0100
0000
0000
0000
,
0010
0000
0000
0000
,
0010
0000
0000
0000
,
1000
0001
1000
0000
,
0001
1000
0001
0000
,
0100
0010
0100
0000
,
0010
0100
0010
0000
,
1000
0010
1000
0000
,
0001
0010
0001
0000
,
0001
0100
0001
0000
,
1000
0100
1000
0000
,
1000
0010
0001
0000
,
0001
0100
1000
0000
,
1000
0010
0100
0000
,
0001
0100
0010
0000
,
1000
0100
0001
0000
,
0001
0010
1000
0000
,
0100
0000
0100
0000
,
1000
0000
1000
0000
,
0001
0000
0000
0000
,
0001
0000
0000
0000
,
0100
0000
0000
0000
,
0100
0000
0000
0000
,
1000
0000
0000
0000
,
1000
0000
0000
0000
,
0010
0000
0000
0000
,
1000
0000
0000
0000
,
1001
0000
0000
0000
;

//---------------dance-single - ----------------
#NOTES:
     dance-single:
     :
     Challenge:
     12:
     0.559627,0.636435,0.303064,0.067348,0.376024,349.000000,322.000000,27.000000,6.000000,0.000000,0.000000,0.559627,0.636435,0.303064,0.067348,0.376024,349.000000,322.000000,27.000000,6.000000,0.000000,0.000000:
// measure 0
0000
0000
0000
0000
,  // measure 1
0000
0000
0000
0000
,  // measure 2
0000
0000
0000
0000
,  // measure 3
0000
0000
0000
0000
,  // measure 4
0000
0000
0000
0000
,  // measure 5
1001
0000
0001
0010
0000
1000
0010
0000
0001
0010
0000
1000
0010
0000
0100
0000
,  // measure 6
1001
0000
1000
0100
0000
0001
0100
0000
1000
0100
0000
0001
0100
0000
0010
0000
,  // measure 7
2000
0000
3100
0000
1000
0001
0100
0001
,  // measure 8
0010
0001
0100
0001
1000
0001
0010
0100
,  // measure 9
0002
0000
0013
0000
1000
0001
1000
0010
,  // measure 10
1000
0100
1000
0010
1000
0001
1000
0100
,  // measure 11
0020
0000
0130
0000
0010
1000
0010
0100
,  // measure 12
0010
0001
0010
0100
0010
1000
0010
0100
,  // measure 13
0200
0000
0310
0100
0000
1000
0000
0001
,  // measure 14
0000
0000
0100
0000
0000
0000
0010
0000
0000
0000
0100
0010
0100
0000
0100
0000
,  // measure 15
0100
1000
0100
0000
0010
0000
0100
0000
0001
0010
0001
0000
0100
0000
1000
0000
,  // measure 16
0001
0000
0010
0100
0010
0000
0100
1000
0100
0000
1000
0000
0001
0000
1000
0000
,  // measure 17
0010
1000
0010
0000
0100
0000
0001
0000
1000
0100
1000
0000
0010
0000
0001
0000
,  // measure 18
1000
0000
0010
1000
0010
0000
0100
0001
0100
0000
0010
0000
1000
0000
0001
0000
,  // measure 19
0101
0000
0000
0000
0000
0000
0000
0000
0000
0110
0000
0000
0000
0000
0000
0000
0000
0000
1010
0000
0000
0000
0000
0000
0000
0000
0000
0000
1100
0000
0000
0000
0000
0000
0000
0000
0100
0000
0000
0000
0000
0000
0020
0000
0000
0000
0000
0000
,  // measure 20
1000
0000
0030
1000
0001
0000
0100
0000
0000
0000
0100
0000
1000
0000
0001
0000
,  // measure 21
1000
0100
0010
0001
0010
0100
1000
0001
,  // measure 22
0100
0000
0100
0000
0010
0000
0010
0000
1000
0000
0001
1000
0001
0000
1000
0000
,  // measure 23
1010
0000
0000
1000
0100
0000
0000
0010
0001
0000
0000
0000
0000
0000
1001
0000
,  // measure 24
0000
0001
0100
1000
0001
1001
0000
0000
,  // measure 25
1000
0000
0100
0000
0010
0000
0001
0000
0100
0000
0000
0110
0000
0000
0000
0000
,  // measure 26
0001
0010
1000
0100
0000
0100
0010
0000
,  // measure 27
0101
0000
0000
0100
1000
0000
0000
1000
0010
0000
0000
0000
0000
0000
0110
0000
,  // measure 28
0000
0010
1000
0001
0100
0000
1000
0100
,  // measure 29
0000
0100
0001
0100
0000
0100
1000
0100
,  // measure 30
0000
0000
0110
0000
0000
0000
1001
0000
0001
0000
0010
0100
0010
0000
0100
0000
,  // measure 31
1100
0000
0000
0100
0010
0000
0000
0010
0001
0000
0000
0000
0000
0000
1001
0000
,  // measure 32
0000
0001
0010
1000
0010
0001
0001
0000
,  // measure 33
1000
0000
0010
0000
0001
0000
0100
0000
1000
0000
0000
1100
0000
0000
0000
0000
,  // measure 34
1000
0100
0001
0010
0000
0010
0100
0000
,  // measure 35
0110
0000
0000
0100
0001
0000
0000
0001
1000
0000
0000
0000
0000
0000
1010
0000
,  // measure 36
0000
0010
1000
0001
0100
0000
0010
0001
,  // measure 37
0000
0001
0010
0001
0000
0001
0100
0001
,  // measure 38
1000
0000
0000
1000
0100
0000
0000
0100
0001
0000
0000
0001
0010
0000
0010
0000
,  // measure 39
0110
0000
1000
0100
0000
0001
0100
0000
1000
0100
0000
0001
0100
0000
0010
0000
,  // measure 40
0101
0000
1000
0100
0000
0001
0100
0000
1000
0100
0000
0001
0100
0000
0010
0000
,  // measure 41
0011
0000
0100
0001
0000
1000
0100
0000
0001
0100
0000
1000
0100
0000
0010
0000
,  // measure 42
1001
0000
0100
0001
0000
0100
1000
0000
0001
0100
0000
1000
0100
0000
0010
0000
,  // measure 43
1100
0000
0010
0001
0000
0010
1000
0000
0001
0010
0000
1000
0010
0000
0100
0000
,  // measure 44
1010
0000
0001
0010
0000
1000
0010
0000
1000
0010
0000
0001
0010
0000
0100
0000
,  // measure 45
0110
0000
0010
1000
0000
0001
0010
0000
0010
0001
0000
0010
1000
0000
0100
0000
,  // measure 46
1001
0000
0001
0010
0000
1000
0010
0000
1000
0010
0000
0010
0001
0000
0200
0000
,  // measure 47
0010
0300
0000
0000
;
