#TITLE:ICE ICE BABY;
#SUBTITLE:;
#ARTIST:VANILLA ICE;
#TITLETRANSLIT:;
#SUBTITLETRANSLIT:;
#ARTISTTRANSLIT:;
#GENRE:;
#CREDIT:;
#BANNER:ICE ICE BABY.png;
#BACKGROUND:ICE ICE BABY-bg.png;
#LYRICSPATH:;
#CDTITLE:;
#MUSIC:ICE ICE BABY.ogg;
#OFFSET:0.000000;
#SAMPLESTART:51.860001;
#SAMPLELENGTH:15.000000;
#SELECTABLE:YES;
#DISPLAYBPM:116.000000;
#BPMS:0.000000=115.755997
,4.000000=115.728996
,60.000000=120.000000
,66.000000=104.045998
,68.000000=115.724998
;
#STOPS:
;
#BGCHANGES:;
#KEYSOUNDS:;
#ATTACKS:;

//---------------dance-single - ----------------
#NOTES:
     dance-single:
     :
     Beginner:
     2:
     0.096938,0.139284,0.026785,0.000000,0.000000,76.000000,73.000000,3.000000,0.000000,0.000000,0.000000,0.096938,0.139284,0.026785,0.000000,0.000000,76.000000,73.000000,3.000000,0.000000,0.000000,0.000000:
0000
0000
0000
0000
,
0000
0000
0000
0000
,
0000
0000
0000
0000
,
0000
0000
0000
0000
,
0000
0000
0000
0000
,
0010
0000
0000
0000
,
0010
0000
0000
0000
,
0010
0000
0000
0000
,
0010
0000
0000
0000
,
1001
0000
0000
0000
,
0010
0000
0000
0000
,
1001
0000
0000
0000
,
0010
0000
0000
0000
,
1001
0000
0000
0000
,
1000
0000
0001
0000
,
1000
0000
0000
0000
,
0000
0000
0000
0000
,
1000
0000
0000
0000
,
0100
0000
0000
0000
,
0100
0000
0000
0000
,
1000
0000
0000
0000
,
0001
0000
0000
0000
,
0100
0000
0000
0000
,
0100
0000
0000
0000
,
0001
0000
0000
0000
,
1000
0000
1000
0000
,
1000
0000
0000
0000
,
0001
0000
0001
0000
,
0001
0000
0000
0000
,
1000
0000
1000
0000
,
1000
0000
0000
0000
,
0001
0000
0001
0000
,
0001
0000
0000
0000
,
0010
0000
0000
0000
,
0010
0000
0000
0000
,
0010
0000
0000
0000
,
0100
0000
0000
0000
,
1000
1000
1000
0000
,
1000
0000
1000
0000
,
0001
0001
0001
0000
,
0001
0000
0001
0000
,
1000
1000
1000
0000
,
1000
0000
1000
0000
,
0001
0001
0001
0000
,
0001
0000
0001
0000
,
1000
1000
1000
0000
,
1000
0000
1000
0000
,
0001
0001
0001
0000
,
0001
0000
0001
0000
,
0010
0010
0010
0000
,
0010
0000
0010
0000
,
0010
0000
0000
0000
,
0010
0000
0000
0000
,
0000
0000
0000
0000
;

//---------------dance-single - ----------------
#NOTES:
     dance-single:
     :
     Easy:
     4:
     0.155611,0.187498,0.026785,0.053571,0.000000,122.000000,119.000000,3.000000,6.000000,0.000000,0.000000,0.155611,0.187498,0.026785,0.053571,0.000000,122.000000,119.000000,3.000000,6.000000,0.000000,0.000000:
0000
0000
0000
0000
,
0000
0000
0000
0000
,
0000
0000
0000
0000
,
0000
0000
0000
0000
,
0000
0000
0000
0000
,
0100
0010
0100
0000
,
0010
0100
0010
0000
,
0100
0010
0100
0000
,
0010
0100
0010
0000
,
1001
0000
0000
0000
,
0100
0000
1000
0100
,
0110
0000
0000
0000
,
0010
0000
0010
0100
,
1001
0000
0010
0000
,
1000
0100
0001
0100
,
0010
0000
0000
0000
,
0000
0000
0000
0000
,
1000
0000
0100
0000
,
0100
0010
0001
1000
,
0010
0000
0100
0000
,
0001
0100
1000
0010
,
0001
0000
0100
0000
,
0100
0010
1000
0001
,
0010
0000
0100
0000
,
1000
0100
0001
0010
,
0000
1000
0000
0010
,
0000
0100
0000
0001
,
0000
1000
0000
0001
,
0000
0010
0000
0100
,
0001
0000
0010
0000
,
0100
0000
1000
0000
,
0001
0000
1000
0000
,
0010
0000
0100
0000
,
0200
0000
0300
0100
,
0200
0000
0300
0100
,
0200
0000
0300
0100
,
0200
0000
0300
0000
,
1000
0100
1000
0100
,
0000
0100
0000
0100
,
0001
0010
0001
0010
,
0000
0010
0000
0010
,
0001
0100
0001
0100
,
0000
0100
0000
0100
,
1000
0010
1000
0010
,
0000
0010
0000
0010
,
1000
0010
1000
0010
,
0000
0010
0000
0010
,
0001
0100
0001
0100
,
0000
0100
0000
0100
,
0001
0010
0001
0010
,
0000
0010
0000
0010
,
0020
0000
0030
0010
,
0020
0000
0030
0000
,
0000
0000
0000
0000
;

//---------------dance-single - ----------------
#NOTES:
     dance-single:
     :
     Medium:
     6:
     0.237243,0.304685,0.071428,0.053571,0.000000,186.000000,178.000000,8.000000,6.000000,0.000000,0.000000,0.237243,0.304685,0.071428,0.053571,0.000000,186.000000,178.000000,8.000000,6.000000,0.000000,0.000000:
0000
0000
0000
0000
,
0000
0000
0000
0000
,
0000
0000
0000
0000
,
0000
0000
0000
0000
,
0000
0000
0000
0000
,
0100
0000
0100
0000
0000
0010
0100
0000
,
0100
0010
0100
0010
,
0100
0000
0100
0000
0000
0010
0100
0000
,
0100
0010
0100
0010
,
0011
0000
0100
0110
,
1000
0000
0100
1000
0100
1000
0100
0000
,
0101
0100
0010
0100
,
0001
0000
0100
0010
0100
0010
1000
0000
,
1010
0100
0010
0100
,
0001
0000
0100
0000
1000
0001
1000
0000
,
0100
0000
0000
0000
,
0000
0000
0000
0000
,
1100
0000
0100
0000
,
0100
0000
1000
0000
0100
0100
1000
0000
,
0011
0000
0000
0100
0100
0000
0000
0000
,
0100
0000
0001
0000
0100
0000
0010
0010
,
0011
0000
0010
0000
,
0010
0000
0001
0000
0010
0010
0001
0000
,
1100
0000
0000
0010
0010
0000
0000
0000
,
0010
0000
1000
0000
0010
0000
0100
0100
,
0001
0000
0100
0000
0010
1000
0100
0000
,
0010
0000
0001
0000
1000
0100
0001
0000
,
0100
0000
0010
0000
1000
0010
1000
0000
,
0001
0000
1000
0000
0100
0010
0001
0000
,
1000
0000
0100
0000
0010
0001
0100
0000
,
0010
0000
1000
0000
0001
0100
1000
0000
,
0100
0000
0010
0000
0001
0010
0001
0000
,
1000
0000
0001
0000
0100
0010
1000
0000
,
0002
0000
0000
0103
,
0200
0000
0000
0310
,
0020
0000
0000
0000
0000
0000
1030
0001
,
2000
0000
0000
3000
,
0001
0000
0010
0000
0000
0100
0010
0000
,
0001
0000
0100
0000
0000
0010
0100
0000
,
0000
0100
0000
0100
,
0000
0000
0100
0000
1000
0100
1000
0000
,
1000
0000
0010
0000
0000
0100
0010
0000
,
1000
0000
0100
0000
0000
0010
0100
0000
,
0000
0100
0000
0100
,
0000
0000
0100
0000
0001
0100
0001
0000
,
1000
0000
0100
0000
0000
0010
0100
0000
,
1000
0000
0010
0000
0000
0100
0010
0000
,
0000
0010
0000
0010
,
0000
0000
0010
0000
0001
0010
0001
0000
,
1000
0000
0100
0000
0000
0010
0100
0000
,
1000
0000
0010
0000
0000
0100
0010
0000
,
0200
0000
0000
0000
0300
0100
0010
0100
,
0020
0000
0030
0000
,
0000
0000
0000
0000
;

//---------------dance-single - ----------------
#NOTES:
     dance-single:
     :
     Hard:
     8:
     0.285712,0.328122,0.062499,0.241069,0.004464,224.000000,217.000000,7.000000,27.000000,0.000000,0.000000,0.285712,0.328122,0.062499,0.241069,0.004464,224.000000,217.000000,7.000000,27.000000,0.000000,0.000000:
0000
0000
0000
0000
,
0000
0000
0000
0000
,
0000
0000
0000
0000
,
0000
0000
0000
0000
,
0000
0000
0000
0000
,
0100
0000
0010
0000
0000
0100
0010
0000
,
0100
0010
0100
0000
0000
0010
0100
0000
,
0100
0000
0010
0000
0000
0100
0010
0000
,
0100
0010
0100
0000
0000
0010
0100
0000
,
0002
0000
0003
0001
0010
0000
0100
0110
,
2000
0000
3000
1000
0010
1000
0100
0110
,
2000
0000
3000
0010
0001
0000
0100
0000
,
0002
0000
0003
0001
0010
0001
0100
0110
,
2000
0000
3100
0000
0000
1000
0100
0000
,
0002
0000
0003
0001
0010
0100
0010
1000
,
0001
0000
0000
0000
,
0000
0000
0000
0000
0000
0000
0000
0000
0000
0000
0100
0010
0100
0000
0010
0000
,
1100
0000
1000
0000
0100
0000
1000
1000
,
0100
0000
1000
0000
0100
0100
1000
0100
,
0011
0001
0100
0010
,
1000
0010
0100
0001
,
0101
0000
0001
0000
0100
0000
0001
0001
,
0100
0000
0001
0000
0100
0100
0001
0100
,
1010
1000
0100
0010
,
0001
0010
0100
0001
,
1000
0100
0010
0000
0001
0100
0010
0000
,
1000
0010
0100
0000
0001
0010
0100
0000
,
1000
0100
0001
0000
0100
0010
1000
0000
,
1000
0010
0100
0000
0001
0010
1000
0000
,
0001
0100
0010
0000
1000
0100
0010
0000
,
0001
0010
0100
0000
1000
0010
0100
0000
,
0001
0100
1000
0000
0100
0010
0001
0000
,
0001
0010
0100
0000
1000
0010
0001
0000
,
2000
0000
0000
0000
0000
0000
3001
1000
,
2000
0000
0000
0000
0000
0000
3010
1000
,
2000
0000
0000
0000
0000
0010
3100
1000
,
2000
0000
0000
3000
,
0002
0000
1000
0000
0000
1000
1003
0001
,
0002
0000
0010
0000
0000
0010
0013
0001
,
0002
0000
0010
0000
0000
0010
0103
0001
,
0002
0000
0010
0000
0000
0100
0103
0000
,
2000
0000
0001
0000
0000
0001
3001
1000
,
2000
0000
0010
0000
0000
0010
3010
1000
,
2000
0000
0010
0000
0000
0010
3100
1000
,
2000
0010
0200
3300
,
0000
0002
0000
1000
0000
0000
1003
1000
,
0000
0002
0000
0010
0000
0000
0010
0013
,
0000
0002
0000
0010
0000
0000
0010
0103
,
0000
0002
0000
0010
0000
0000
0100
0103
,
0000
2000
0000
0001
0000
0000
0001
3001
,
0000
2000
0000
0010
0000
0000
0010
3010
,
0200
0000
0000
0000
0000
0010
0310
0100
,
0020
0000
0030
0000
,
0000
0000
0000
0000
;

//---------------dance-single - ----------------
#NOTES:
     dance-single:
     :
     Challenge:
     4:
     0.145407,0.187498,0.026785,0.053571,0.000000,114.000000,111.000000,3.000000,6.000000,92.000000,0.000000,0.145407,0.187498,0.026785,0.053571,0.000000,114.000000,111.000000,3.000000,6.000000,92.000000,0.000000:
0000
0000
0000
0000
,
0000
0000
0000
0000
,
0000
0000
0000
0000
,
0000
0000
0000
0000
,
0000
0000
0000
0000
,
0100
0010
0100
0000
,
0010
0100
0010
MMMM
,
0100
0010
0100
0000
,
0010
0100
0010
MMMM
,
1001
0000
MMMM
0000
,
0100
0000
1000
0100
,
0110
0000
MMMM
0000
,
0010
0000
0010
0100
,
1001
0000
MMMM
0000
,
1000
0100
0001
0100
,
0010
0000
0000
0000
,
MMMM
0000
0000
0000
,
1000
0000
0100
0000
,
0100
0010
0001
MMMM
,
0010
0000
0100
0000
,
0001
0100
1000
MMMM
,
0001
0000
0100
0000
,
0100
0010
1000
MMMM
,
0010
0000
0100
0000
,
1000
0100
0001
MMMM
,
0000
1000
0000
0010
,
0000
0100
0000
MMMM
,
0000
1000
0000
0001
,
0000
0010
0000
MMMM
,
0001
0000
0010
0000
,
0100
0000
1000
MMMM
,
0001
0000
1000
0000
,
0010
0000
0100
MMMM
,
0200
0000
0300
0100
,
0200
0000
0300
MMMM
,
0200
0000
0300
0100
,
0200
0000
0300
MMMM
,
1000
0100
1000
0100
,
MMMM
0100
0000
0100
,
0001
0010
0001
0010
,
MMMM
0010
0000
0010
,
0001
0100
0001
0100
,
MMMM
0100
0000
0100
,
1000
0010
1000
0010
,
MMMM
0010
0000
0010
,
1000
0010
1000
0010
,
MMMM
0010
0000
0010
,
0001
0100
0001
0100
,
MMMM
0100
0000
0100
,
0001
0010
0001
0010
,
MMMM
0010
0000
0010
,
0020
0000
0030
0010
,
0020
0000
0030
0000
,
0000
0000
0000
0000
;

//---------------dance-double - ----------------
#NOTES:
     dance-double:
     :
     Easy:
     4:
     0.158162,0.187498,0.026785,0.080356,0.000000,124.000000,121.000000,3.000000,9.000000,0.000000,0.000000,0.158162,0.187498,0.026785,0.080356,0.000000,124.000000,121.000000,3.000000,9.000000,0.000000,0.000000:
00000000
00000000
00000000
00000000
,
00000000
00000000
00000000
00000000
,
00000000
00000000
00000000
00000000
,
00000000
00000000
00000000
00000000
,
00000000
00000000
00000000
00000000
,
00001000
00010000
00001000
00000000
,
00010000
00001000
00010000
00000000
,
00001000
00010000
00001000
00000000
,
00010000
00001000
00010000
00000000
,
00011000
00000000
00010000
00000000
,
01000000
00000000
10000000
01000000
,
01100000
00000000
00010000
00000000
,
00001000
00000000
00000100
00000010
,
00001001
00000000
00001000
00000000
,
00010000
01000000
00100000
10000000
,
00010000
00000000
00000000
00000000
,
00000000
00000000
00000000
00000000
,
00000001
00000000
00000100
00000000
,
00001000
00100000
00010000
10000000
,
00100000
00000000
00010000
00000000
,
00001000
00000010
00010000
00100000
,
10000000
00000000
01000000
00000000
,
00010000
00000010
00001000
00000001
,
00000010
00000000
00001000
00000000
,
00010000
00100000
00001000
00000010
,
00000000
00000010
00000000
00001000
,
00000000
00010000
00000000
00100000
,
00000000
01000000
00000000
00010000
,
00000000
00001000
00000000
00000100
,
00000000
00010000
00000000
01000000
,
00000000
00010000
00000000
00000100
,
00000000
00001000
00000000
00100000
,
00000000
00010000
00000000
00000010
,
00000200
00000000
00000300
00001000
,
00020000
00000000
00030000
00100000
,
02000000
00000000
03000000
00010000
,
00002000
00000000
00003000
00000000
,
00000001
00000100
00000010
00001000
,
00000000
00010000
00000000
01000000
,
00100000
10000000
01000000
00010000
,
00000000
00001000
00000000
00000100
,
00000001
00000010
00000100
00001000
,
00000000
00010000
00000000
00100000
,
10000000
01000000
00100000
00010000
,
00000000
00001000
00000000
00000010
,
00000002
00000100
00000013
00000001
,
00000000
00000100
00000000
00001000
,
00020000
00000100
00031000
00010000
,
00000000
00100000
00000000
01000000
,
20000000
01000000
30100000
10000000
,
00000000
01000000
00000000
00010000
,
00002000
00000000
00003000
00010000
,
00002000
00000000
00003000
00000000
,
00000000
00000000
00000000
00000000
;

//---------------dance-double - ----------------
#NOTES:
     dance-double:
     :
     Medium:
     6:
     0.234692,0.304685,0.071428,0.089285,0.000000,184.000000,176.000000,8.000000,10.000000,0.000000,0.000000,0.234692,0.304685,0.071428,0.089285,0.000000,184.000000,176.000000,8.000000,10.000000,0.000000,0.000000:
00000000
00000000
00000000
00000000
,
00000000
00000000
00000000
00000000
,
00000000
00000000
00000000
00000000
,
00000000
00000000
00000000
00000000
,
00000000
00000000
00000000
00000000
,
00001000
00000000
00001000
00000000
00000000
00010000
00001000
00000000
,
00010000
00001000
00010000
00001000
,
00010000
00000000
00010000
00000000
00000000
00001000
00010000
00000000
,
00001000
00010000
00001000
00010000
,
00001100
00000000
00000001
00000011
,
00000001
00000000
00000100
00001000
00000100
00001000
00000100
00000000
,
00011000
00010000
01000000
10000000
,
00010000
00000000
01000000
00100000
01000000
00100000
00010000
00000000
,
00011000
00001000
00000100
00000001
,
00000100
00000000
00001000
00000000
00010000
01000000
10000000
00000000
,
00010000
00000000
00000000
00000000
,
00000000
00000000
00000000
00000000
,
00000101
00000000
00000100
00000000
,
00001000
00000000
00010000
00000000
01000000
01000000
10000000
00000000
,
10100000
00000000
00000000
01000000
01000000
00000000
00000000
00000000
,
00010000
00000000
00001000
00000000
00000100
00000000
00000010
00000010
,
00000011
00000000
00000010
00000000
,
00001000
00000000
00010000
00000000
00100000
00100000
10000000
00000000
,
11000000
00000000
00000000
00100000
00100000
00000000
00000000
00000000
,
00010000
00000000
00001000
00000000
00000010
00000000
00000100
00000100
,
00000001
00000000
00000100
00000000
00000100
00001000
00010000
00000000
,
00100000
00000000
10000000
00000000
10000000
01000000
00010000
00000000
,
00001000
00000000
00000010
00000000
00000010
00000001
00000100
00000000
,
00000100
00000000
00000010
00000000
00001000
00010000
01000000
00000000
,
10000000
00000000
01000000
00000000
01000000
00010000
00001000
00000000
,
00000010
00000000
00000001
00000000
00000001
00000100
00001000
00000000
,
00010000
00000000
00100000
00000000
00100000
10000000
01000000
00000000
,
01000000
00000000
00100000
00000000
00010000
00001000
00000100
00000000
,
00000002
00000000
00000000
00000103
,
00002000
00000000
00000000
00013000
,
02000000
00000000
00000000
00000000
00000000
10000000
03000000
00010000
,
20000000
00000000
00000000
30000000
,
00010000
00000000
00100000
00000000
00000000
01000000
00100000
00000000
,
00010000
00000000
00001000
00000000
00000000
00000100
00000010
00000000
,
00000000
00000001
00000000
00001000
,
00000000
00000000
00010000
00000000
10000000
01000000
10000000
00000000
,
00010000
00000000
01000000
00000000
00000000
00100000
01000000
00000000
,
00010000
00000000
00001000
00000000
00000000
00000010
00000100
00000000
,
00000000
00000001
00000000
00001000
,
00000000
00000000
00010000
00000000
10000000
00100000
10000000
00000000
,
00020000
00000000
01000000
00000000
00030000
00100000
00010000
00000000
,
00002000
00000000
00000100
00000000
00003000
00000010
00001000
00000000
,
00000000
00010000
00000000
00100000
,
00000000
00000000
00001000
00000000
00000010
00000001
00000010
00000000
,
00002000
00000000
00000100
00000000
00003000
00000010
00001000
00000000
,
00020000
00000000
01000000
00000000
00030000
00100000
00010000
00000000
,
00000000
00002000
00000001
00003000
,
00000002
00000000
00000003
00000000
,
00000000
00000000
00000000
00000000
;

//---------------dance-double - ----------------
#NOTES:
     dance-double:
     :
     Hard:
     8:
     0.286987,0.328122,0.017857,0.276783,0.004464,225.000000,223.000000,2.000000,31.000000,0.000000,0.000000,0.286987,0.328122,0.017857,0.276783,0.004464,225.000000,223.000000,2.000000,31.000000,0.000000,0.000000:
00000000
00000000
00000000
00000000
,
00000000
00000000
00000000
00000000
,
00000000
00000000
00000000
00000000
,
00000000
00000000
00000000
00000000
,
00000000
00000000
00000000
00000000
,
00020000
00000000
00000100
00000000
00000000
00031000
00010000
00000000
,
00010000
00002000
01000000
00000000
00000000
00013000
00001000
00000000
,
00020000
00000000
00000100
00000000
00000000
00031000
00010000
00000000
,
00010000
00002000
01000000
00000000
00000000
00013000
00001000
00000000
,
00000200
00000000
00000300
00000001
00001000
00000000
00000100
00000010
,
00002000
00000000
00003000
00010000
00100000
00100000
01000000
01000000
,
00020000
00000000
00030000
10000000
00010000
00000000
01000000
00000000
,
00002000
00000000
00003000
00010000
00100000
00100000
01000000
01000000
,
00020000
00000000
10030000
00000000
00000000
00100000
01000000
00000000
,
00020000
00000000
00030000
00001000
00000100
00000001
00000100
00001000
,
00000010
00000000
00000000
00000000
,
00000000
00000000
00000000
00000000
00000000
00000000
00000000
00000000
00000000
00000000
10000000
01000000
10000000
00000000
00100000
00000000
,
11000000
00000000
10000000
00000000
01000000
00000000
00010000
00001000
,
00000010
00000000
00000001
00000000
00000100
00000100
00001000
00010000
,
00100000
10000000
01000000
00100000
,
00010000
00001000
00000001
00000100
,
00000101
00000000
00000001
00000000
00000100
00000000
00001000
00010000
,
00100000
00000000
10000000
00000000
01000000
01000000
00010000
00001000
,
00000010
00000001
00000100
00000010
,
00001000
00010000
10000000
01000000
,
10000000
01000000
00100000
00000000
00010000
00001000
00000100
00000000
,
00000010
00000001
00000100
00000000
00000010
00001000
00000100
00000000
,
00000001
00000100
00001000
00000000
00010000
00100000
01000000
00000000
,
10000000
00010000
01000000
00000000
00010000
00100000
01000000
00000000
,
10000000
00100000
01000000
00000000
00010000
00001000
00000010
00000000
,
00000100
00000001
00000010
00000000
00000100
00001000
00000010
00000000
,
00000001
00000010
00001000
00000000
00010000
01000000
00100000
00000000
,
10000000
00010000
00100000
00000000
00010000
01000000
00100000
00000000
,
20000000
00000000
00000000
00000000
00000000
00000000
30010000
00001000
,
00000002
00000000
00000000
00000000
00000000
00000000
00001003
00010000
,
20000000
00000000
00000000
00000000
00000000
01000000
30010000
00001000
,
00000002
00000000
00000000
00000003
,
00000200
00000000
00001000
00000000
00000000
00001000
00001300
00010000
,
02000000
00000000
00100000
00000000
00000000
00100000
03100000
00001000
,
00000200
00000000
00001000
00000000
00000000
00001000
00001300
00010000
,
02000000
00000000
00100000
00000000
00000000
00010000
03010000
00000000
,
00002000
00000000
00010000
00000000
00000000
01000000
01000000
00103000
,
20000000
00000000
00100000
00000000
00000000
00010000
30010000
01000000
,
00002000
00000000
00100000
00000000
00000000
00010000
00010000
01003000
,
00200000
01000000
02000000
03300000
,
00020000
00000000
00001000
00000000
00000000
00000100
00000100
00030010
,
00000002
00000000
00000010
00000000
00000000
00001000
00001003
00000100
,
00020000
00000000
00000010
00000000
00000000
00001000
00001000
00030100
,
00000020
00000000
00001000
00000000
00000000
00001000
00001030
00010000
,
00200000
00000000
01000000
00000000
00000000
01000000
01300000
00001000
,
00000020
00000000
00001000
00000000
00000000
00001000
00001030
00010000
,
02000000
00000000
00000000
00000000
00000000
00100000
03100000
00010000
,
00002000
00000000
00003000
00000000
,
00000000
00000000
00000000
00000000
;

//---------------dance-double - ----------------
#NOTES:
     dance-double:
     :
     Challenge:
     4:
     0.142856,0.187498,0.026785,0.080356,0.000000,112.000000,109.000000,3.000000,9.000000,168.000000,0.000000,0.142856,0.187498,0.026785,0.080356,0.000000,112.000000,109.000000,3.000000,9.000000,168.000000,0.000000:
00000000
00000000
00000000
00000000
,
00000000
00000000
00000000
00000000
,
00000000
00000000
00000000
00000000
,
00000000
00000000
00000000
00000000
,
00000000
00000000
00000000
00000000
,
00001000
00010000
00001000
00000000
,
00010000
00001000
00010000
MMMMMMMM
,
00001000
00010000
00001000
00000000
,
00010000
00001000
00010000
MMMMMMMM
,
00011000
00000000
00010000
00000000
,
01000000
00000000
10000000
MMMMMMMM
,
01100000
00000000
00010000
00000000
,
00001000
00000000
00000100
MMMMMMMM
,
00001001
00000000
00001000
00000000
,
00010000
01000000
00100000
MMMMMMMM
,
00010000
00000000
00000000
00000000
,
00000000
00000000
00000000
00000000
,
00000001
00000000
MMMMMMMM
00000000
,
00001000
00100000
00010000
10000000
,
00100000
00000000
MMMMMMMM
00000000
,
00001000
00000010
00010000
00100000
,
10000000
00000000
MMMMMMMM
00000000
,
00010000
00000010
00001000
00000001
,
00000010
00000000
MMMMMMMM
00000000
,
00010000
00100000
00001000
00000010
,
00000000
00000010
00000000
00001000
,
00000000
00010000
00000000
MMMMMMMM
,
00000000
01000000
00000000
00010000
,
00000000
00001000
00000000
MMMMMMMM
,
00000000
00010000
00000000
01000000
,
00000000
00010000
00000000
MMMMMMMM
,
00000000
00001000
00000000
00100000
,
00000000
00010000
00000000
MMMMMMMM
,
00000200
00000000
00000300
00001000
,
00020000
00000000
00030000
MMMMMMMM
,
02000000
00000000
03000000
00010000
,
00002000
00000000
00003000
00000000
,
00000001
00000100
00000010
00001000
,
MMMMMMMM
00010000
00000000
01000000
,
00100000
10000000
01000000
00010000
,
MMMMMMMM
00001000
00000000
00000100
,
00000001
00000010
00000100
00001000
,
MMMMMMMM
00010000
00000000
00100000
,
10000000
01000000
00100000
00010000
,
MMMMMMMM
00001000
00000000
00000010
,
00000002
00000100
00000013
00000001
,
MMMMMMMM
00000100
00000000
00001000
,
00020000
00000100
00031000
00010000
,
MMMMMMMM
00100000
00000000
01000000
,
20000000
01000000
30100000
10000000
,
MMMMMMMM
01000000
00000000
00010000
,
00002000
00000000
00003000
00010000
,
00002000
00000000
00003000
00000000
,
00000000
00000000
00000000
00000000
;

//---------------dance-single - Edit----------------
#NOTES:
     dance-single:
     :
     Edit:
     13:
     0.595658,0.703119,0.473210,0.455353,0.513388,467.000000,414.000000,53.000000,51.000000,0.000000,0.000000,0.595658,0.703119,0.473210,0.455353,0.513388,467.000000,414.000000,53.000000,51.000000,0.000000,0.000000:
// measure 0
0000
0000
0000
0000
,  // measure 1
0000
0000
0000
0000
,  // measure 2
0000
0000
0000
0000
,  // measure 3
0000
0000
0000
0000
,  // measure 4
0000
0000
0000
0000
,  // measure 5
0001
0000
0010
0100
1000
0000
1010
0000
0010
0000
1000
0100
0010
0000
0011
0000
,  // measure 6
0002
0000
0203
0000
0001
2300
0010
3100
,  // measure 7
0001
0010
1000
0000
1010
0000
0010
0000
1000
0100
0010
0000
0011
0000
0001
0000
,  // measure 8
2000
0000
0000
0000
3020
0000
0000
0000
1000
0000
0032
0000
0100
0000
0013
0100
,  // measure 9
0001
0000
0000
0000
0000
0000
0100
0001
1000
0000
0010
0000
0110
0000
0110
0000
,  // measure 10
0010
0000
1000
0001
0100
0000
0010
0000
1000
0010
0100
0000
1100
0000
1010
0000
,  // measure 11
0010
0100
0001
1000
0100
0000
0010
0100
0001
1000
0100
0000
0110
0000
0110
0000
,  // measure 12
0010
0001
0100
0010
1000
0000
1010
0000
0010
1000
0100
0010
0001
0000
0011
0000
,  // measure 13
0001
0010
0001
0010
2000
0000
0020
0000
3000
1030
0010
0000
0202
0000
0303
0000
,  // measure 14
1000
0100
1000
0100
0020
0000
0002
0000
0033
0001
0010
0000
2200
0000
3300
0000
,  // measure 15
0100
0000
0000
0000
,  // measure 16
0000
0000
0000
0000
,  // measure 17
1001
0000
1000
0001
0100
0000
1000
0100
0010
0001
1000
0000
1001
0000
0001
0000
,  // measure 18
0100
0000
0000
0000
0100
0000
0000
0000
0100
0000
0000
0000
0101
0000
0000
0000
0000
0000
0001
0000
0000
0010
0000
0000
0100
0000
0000
0000
0100
0000
0000
0000
0100
0000
0000
0000
1000
0000
0000
0100
0000
0000
0010
0000
0000
0000
0000
0000
,  // measure 19
1001
0000
1001
0000
0100
0000
0001
0010
0100
0000
1000
0100
1000
0100
1000
0000
,  // measure 20
0010
0000
0000
0000
1000
0000
0000
0000
0010
0000
0000
0000
0100
0000
0000
0010
0000
0000
0001
0000
0000
0010
0000
0000
1000
0000
0000
0000
0100
0000
0000
0000
0010
0000
0000
0000
0001
0000
0000
0010
0000
0000
0100
0000
0000
1000
0000
0000
,  // measure 21
0010
0000
0000
0000
0100
0000
0000
0000
0010
0000
0000
0000
0100
0000
0000
0000
0110
0000
0000
0000
0000
0010
0000
0000
0100
0000
0000
0001
0000
0000
1000
0000
0000
0001
0000
0000
1001
0000
0000
0000
0000
0000
0000
0000
0000
0000
0000
0000
,  // measure 22
1000
0000
0000
0000
0100
0000
0000
0000
0010
0000
0000
0000
0001
0000
0000
0000
0011
0000
0000
0000
0000
0010
0000
0000
0001
0000
0000
0100
0000
0000
0010
0000
0000
1000
0000
0000
1010
0000
0000
0000
0000
0000
0000
0000
0000
0000
0000
0000
,  // measure 23
1000
0000
0000
0000
0100
0000
0000
0000
0001
0000
0000
0000
0100
0000
0000
0000
1100
0000
0000
0000
0000
0100
0000
0000
0001
0000
0000
1000
0000
0000
0100
0000
0000
0010
0000
0000
0011
0000
0000
0000
0000
0000
0101
0000
0000
0000
0000
0000
,  // measure 24
0001
0000
0000
0010
0000
0000
0100
0000
0000
1000
0000
0000
0010
0000
0000
0100
0000
0000
0001
0000
0000
1000
0000
0000
0100
0000
0000
0000
0010
0000
0000
0000
1000
0000
0000
0000
0001
0000
0000
0010
0000
0000
0100
0000
0000
0000
0000
0000
,  // measure 25
2000
0000
3200
0000
0302
0010
0023
0100
,  // measure 26
2030
0000
0001
0100
0000
0010
0001
0100
,  // measure 27
3200
0000
2300
0000
3020
0001
0032
0100
,  // measure 28
0023
0000
0001
0100
0000
1000
0100
1000
,  // measure 29
0032
0000
0203
0000
2300
0010
3020
1000
,  // measure 30
0032
0000
0010
1000
0000
0010
0100
1000
,  // measure 31
0023
0000
2030
0000
3200
0001
0302
0010
,  // measure 32
0203
0000
0001
0010
0000
1000
0010
0001
,  // measure 33
2000
0000
0000
0000
0000
3300
1100
0200
,  // measure 34
0020
0000
0000
0000
0000
0330
0011
0002
,  // measure 35
0200
0000
0000
0000
0303
0100
1000
0020
,  // measure 36
0002
0000
0000
0000
0000
0033
0011
0000
,  // measure 37
1001
0000
0001
0100
1000
0000
1000
0000
1100
0000
1000
0100
0001
0000
0001
0000
,  // measure 38
0011
0000
0001
0010
1000
0000
1000
0000
1010
0000
1000
0010
0001
0000
0001
0000
,  // measure 39
0021
0000
0130
1000
0010
0000
0110
0000
0201
0000
0310
1000
0100
0000
0110
0000
,  // measure 40
1200
0000
0310
0001
1000
0000
1001
0000
1020
0000
0031
0100
1000
0000
1001
0000
,  // measure 41
1000
0100
0010
0001
0100
0000
0101
0000
0001
0010
0100
1000
0010
0000
1010
0000
,  // measure 42
0010
1000
0100
0010
0001
0000
0101
0000
0100
0010
1000
0001
0010
0000
0110
0000
,  // measure 43
0020
0000
0130
0001
1000
0000
0010
1000
0001
0000
0100
0001
1000
0100
0010
0000
,  // measure 44
0200
0000
0310
0001
1000
0000
0100
0001
1000
0000
0010
0100
0001
1000
0100
0000
,  // measure 45
0011
0000
0010
0100
1000
0000
0100
1000
0010
0000
1000
0100
0010
0001
0100
0010
,  // measure 46
0001
0000
0010
0001
0100
0000
0001
0010
0100
0000
0010
0100
1000
0100
0010
0001
,  // measure 47
0100
0000
0010
1000
0001
0000
0100
0001
1000
0000
0010
0100
0001
1000
0100
0010
,  // measure 48
0001
0000
0010
0001
0100
0000
0010
0100
1000
0000
1000
0100
0010
0001
1000
0100
,  // measure 49
0010
0000
1000
0001
0100
0000
0101
0000
0001
0000
0010
0001
0100
0000
1100
0000
,  // measure 50
1010
0000
0010
1000
0100
0000
0110
0000
0011
0000
0001
1000
0100
0000
0101
0000
,  // measure 51
0220
0000
0000
0000
0330
1000
0010
0002
,  // measure 52
2000
0000
3003
0000
;
