#VERSION:0.83;
#TITLE:I'll Make Love To You;
#SUBTITLE:;
#ARTIST:LH MUSIC CREATION;
#TITLETRANSLIT:;
#SUBTITLETRANSLIT:;
#ARTISTTRANSLIT:;
#GENRE:;
#ORIGIN:;
#CREDIT:;
#BANNER:I'll Make Love To You.png;
#BACKGROUND:I'll Make Love To You-bg.png;
#PREVIEWVID:;
#JACKET:I'll Make Love To You-jacket.png;
#CDIMAGE:;
#DISCIMAGE:;
#LYRICSPATH:;
#CDTITLE:;
#MUSIC:I'll Make Love To You.ogg;
#OFFSET:0.000000;
#SAMPLESTART:54.380001;
#SAMPLELENGTH:15.000000;
#SELECTABLE:YES;
#DISPLAYBPM:50.000000;
#BPMS:0.000=50.140,
2.000=50.000;
#STOPS:;
#DELAYS:;
#WARPS:;
#TIMESIGNATURES:0.000=4=4;
#TICKCOUNTS:0.000=4;
#COMBOS:0.000=1;
#SPEEDS:0.000=1.000=0.000=0;
#SCROLLS:0.000=1.000;
#FAKES:;
#LABELS:0.000=Song Start;
#BGCHANGES:;
#KEYSOUNDS:;
#ATTACKS:
;

//---------------dance-single - ----------------
#NOTEDATA:;
#CHARTNAME:;
#STEPSTYPE:dance-single;
#DESCRIPTION:;
#CHARTSTYLE:;
#DIFFICULTY:Beginner;
#METER:2;
#RADARVALUES:0.051301,0.057607,0.000000,0.000000,0.000000,36.000000,36.000000,0.000000,0.000000,0.000000,0.000000,0.000000,0.000000,0.000000,0.051301,0.057607,0.000000,0.000000,0.000000,36.000000,36.000000,0.000000,0.000000,0.000000,0.000000,0.000000,0.000000,0.000000;
#CREDIT:;
#DISPLAYBPM:50.000000;
#NOTES:
0000
0000
0000
0000
,
0000
0000
0000
0000
,
0000
0000
0001
0000
,
0010
0000
0010
0010
,
0000
0010
0000
0001
,
0000
0100
0000
0001
,
0000
1000
0000
0010
,
0000
0001
0000
0001
,
0001
0000
1000
0000
,
0010
0000
1000
1000
,
0000
1000
0000
1000
,
0000
0010
0000
1000
,
0000
0001
0000
0001
,
0000
1000
0000
0100
,
0000
0100
0000
0001
,
0000
0010
0000
0100
,
0000
0001
0000
0010
,
0000
0010
0000
1000
,
0000
0001
0000
1000
,
0000
0010
0000
0000
;

//---------------dance-single - ----------------
#NOTEDATA:;
#CHARTNAME:;
#STEPSTYPE:dance-single;
#DESCRIPTION:;
#CHARTSTYLE:;
#DIFFICULTY:Easy;
#METER:7;
#RADARVALUES:0.168153,0.161598,0.009975,0.019950,0.239404,118.000000,117.000000,1.000000,2.000000,0.000000,0.000000,0.000000,0.000000,0.000000,0.168153,0.161598,0.009975,0.019950,0.239404,118.000000,117.000000,1.000000,2.000000,0.000000,0.000000,0.000000,0.000000,0.000000;
#CREDIT:;
#DISPLAYBPM:50.000000;
#NOTES:
0000
0000
0000
0000
,
0000
0000
0000
0000
,
0000
0000
0000
0000
0000
0000
0001
0000
0100
0010
0000
0001
,
0010
0000
0000
1000
0000
0000
0010
0000
0001
0010
0000
0100
,
1000
0000
0100
0010
0000
0000
1000
0000
0010
0001
0000
0010
,
1000
0000
0010
0100
0000
0000
1000
0000
0010
0001
0000
1000
,
0010
0000
0000
1000
0000
0100
0001
0000
0000
0010
0000
0000
,
1000
0000
0100
0001
0000
0000
0100
0000
1000
0001
0000
0010
,
0001
0000
0010
0100
0000
0000
1000
0000
0001
0010
0000
1000
,
0010
0000
0001
0100
0000
0000
1000
0000
0100
1000
0000
0010
,
0001
0000
0100
1000
0000
0010
0100
0000
0001
1000
0000
0001
,
0100
0000
0001
0010
0000
0000
1000
0000
0010
1000
0000
0000
,
0010
0000
0100
0001
0000
0000
0010
0000
1000
0001
0000
0010
,
0100
0000
0001
1000
0000
0100
0010
0000
0001
0100
0000
0000
,
1000
0000
0010
0100
0000
0000
0010
0000
0100
0001
0000
0010
,
0100
0000
1000
0010
0000
0000
0100
0000
1000
0100
0000
0010
,
0001
0000
0100
0001
0000
0000
1000
0000
0100
0010
0000
0001
,
0100
0000
1000
0010
0000
0000
0001
0000
0100
1000
0000
0001
,
0100
0000
1000
0001
0000
0000
0010
0000
0100
1000
0000
0010
,
0001
0000
1000
0010
0000
0000
2002
0000
0000
0000
0000
0000
,
0000
3003
0000
0000
;

//---------------dance-single - ----------------
#NOTEDATA:;
#CHARTNAME:;
#STEPSTYPE:dance-single;
#DESCRIPTION:;
#CHARTSTYLE:;
#DIFFICULTY:Medium;
#METER:10;
#RADARVALUES:0.253654,0.242396,0.009975,0.019950,0.553621,178.000000,177.000000,1.000000,2.000000,0.000000,0.000000,0.000000,0.000000,0.000000,0.253654,0.242396,0.009975,0.019950,0.553621,178.000000,177.000000,1.000000,2.000000,0.000000,0.000000,0.000000,0.000000,0.000000;
#CREDIT:;
#DISPLAYBPM:50.000000;
#NOTES:
0000
0000
0000
0000
,
0000
0000
0000
0000
,
0000
0000
0000
0000
0000
0000
0001
1000
0010
0100
0000
0001
,
0100
0000
0010
0100
0001
0010
0100
0000
0001
0100
1000
0010
,
1000
0001
0010
0100
0000
0010
1000
0001
0100
1000
0000
0100
,
0010
1000
0100
0010
0000
0001
0010
0001
0100
0001
0000
1000
,
0010
0100
0010
1000
0100
0010
0001
0000
1000
0100
0000
0001
,
0100
1000
0010
0001
1000
0100
0010
0000
1000
0001
0000
0100
,
0001
1000
0100
0010
0000
0001
1000
0100
0001
0100
1000
0010
,
0100
1000
0001
0010
0000
0001
1000
0000
0010
1000
0100
1000
,
0001
0100
0010
1000
0000
0100
0001
0010
0001
1000
0000
0001
,
0010
1000
0001
0100
1000
0001
1000
0010
0100
0000
0001
1000
,
0010
0001
0010
0000
1000
0010
0100
1000
0100
0001
0100
0010
,
0100
1000
0001
1000
0100
0001
0010
1000
0001
0000
0100
0010
,
1000
0001
0100
0010
0001
1000
0100
1000
0010
0001
1000
0100
,
0010
0000
1000
0100
0000
0001
0010
0001
1000
0010
0000
0100
,
0001
0100
0010
0001
0010
1000
0001
0000
0010
0100
0000
0001
,
0010
0001
1000
0100
0000
0001
0100
0001
0010
1000
0000
0001
,
0010
0100
1000
0001
0100
1000
0100
0000
0010
1000
0010
0100
,
0001
0000
1000
0100
0010
0100
2002
0000
0000
0000
0000
0000
,
0000
3003
0000
0000
;

//---------------dance-single - ----------------
#NOTEDATA:;
#CHARTNAME:;
#STEPSTYPE:dance-single;
#DESCRIPTION:;
#CHARTSTYLE:;
#DIFFICULTY:Hard;
#METER:12;
#RADARVALUES:0.314930,0.313095,0.119702,0.019950,0.608485,221.000000,209.000000,12.000000,2.000000,0.000000,0.000000,0.000000,0.000000,0.000000,0.314930,0.313095,0.119702,0.019950,0.608485,221.000000,209.000000,12.000000,2.000000,0.000000,0.000000,0.000000,0.000000,0.000000;
#CREDIT:;
#DISPLAYBPM:50.000000;
#NOTES:
0000
0000
0000
0000
,
0000
0000
0000
0000
,
0000
0000
0000
0000
0000
0000
0000
0000
0000
0000
0000
0000
1000
0000
0001
0000
0010
0000
0100
0000
1000
0001
1000
0000
,
0100
0000
0010
0000
0001
0000
0100
0000
1000
0000
0010
0000
0101
0000
0000
0000
1000
0000
0100
0000
0001
0010
0001
0000
,
0100
0000
1000
0000
0010
0000
0100
0000
1000
0000
0010
0000
0001
0000
1000
0000
0100
0000
0001
0000
1000
0010
1000
0000
,
0100
0000
0010
0000
0001
0000
0010
0000
0000
0000
1000
0000
0010
0000
1000
0000
0100
0000
1000
0000
0001
0010
0001
0000
,
1000
0100
0010
0001
0100
0010
1000
0000
0001
0100
0000
1000
,
0100
0000
0001
0000
0010
0000
1000
0000
0001
0100
0001
0000
1010
0000
0000
0000
0001
0000
1000
0000
0010
0100
0010
0000
,
1000
0000
0001
0000
0100
0000
0001
0000
0000
0000
1000
0000
0010
0000
0100
0000
1000
0000
0100
0000
0010
0001
0010
0000
,
0100
0000
0001
0000
1000
0000
0010
0000
0000
0000
1000
0000
0001
0000
1000
0000
0010
0000
0001
0000
0100
0010
0100
0000
,
1000
0100
0010
0001
0000
0100
1000
0010
1000
0001
0100
1000
,
0010
0000
0100
0000
0001
0000
0010
0000
1001
0000
1100
0000
0101
0000
0010
0100
0010
0000
0001
0000
1000
0000
0001
0000
,
0110
0000
1000
0010
1000
0000
0100
0000
0000
0000
0010
0000
0100
0000
0001
0000
0100
0000
1000
0000
0100
0001
0100
0000
,
0010
0000
0001
0000
1000
0000
0001
0000
0100
0000
1001
0000
0110
0000
0001
1000
0001
0000
1000
0000
0100
0000
0010
0000
,
0101
0000
1000
0100
1000
0000
0010
0000
0000
0000
1000
0000
0100
0000
0001
0000
0010
0000
1000
0000
0001
0000
0100
0000
,
1010
0000
0001
0100
0000
1000
0010
1000
0001
0010
0001
0100
,
1000
0000
0100
0000
0010
0000
1000
0000
0010
0000
0001
0000
1100
0000
0000
0000
0010
0000
0100
0000
1000
0010
1000
0000
,
0010
0000
0100
0000
0001
0000
0010
0000
0001
0100
0001
0000
1000
0000
0100
0000
0001
0000
0010
0000
1000
0100
1000
0000
,
0010
0000
0001
0000
0100
0000
1000
0000
0100
0000
0001
0000
0100
0000
0000
0000
0010
0000
0001
0000
1000
0010
1000
0000
,
0100
0000
0010
0000
0001
0000
1000
0000
0100
0010
0100
0000
2002
0000
0000
0000
0000
0000
0000
0000
0000
0000
0000
0000
,
0000
3003
0000
0000
;

//---------------dance-double - ----------------
#NOTEDATA:;
#CHARTNAME:;
#STEPSTYPE:dance-double;
#DESCRIPTION:;
#CHARTSTYLE:;
#DIFFICULTY:Easy;
#METER:7;
#RADARVALUES:0.155328,0.151498,0.000000,0.009975,0.199503,109.000000,109.000000,0.000000,1.000000,0.000000,0.000000,0.000000,0.000000,0.000000,0.155328,0.151498,0.000000,0.009975,0.199503,109.000000,109.000000,0.000000,1.000000,0.000000,0.000000,0.000000,0.000000,0.000000;
#CREDIT:;
#DISPLAYBPM:50.000000;
#NOTES:
00000000
00000000
00000000
00000000
,
00000000
00000000
00000000
00000000
,
00000000
00000000
00000000
00000000
00000000
00000000
00001000
00000000
00000010
00000100
00000000
00001000
,
00000100
00000000
00000000
00000001
00000000
00000000
00000010
00000000
00001000
00000100
00000000
00000000
,
00000001
00000000
00000100
00001000
00000000
00000000
00010000
00000000
01000000
10000000
00000000
00100000
,
00010000
00000000
01000000
00100000
00000000
00000000
00010000
00000000
01000000
10000000
00000000
00000000
,
01000000
00000000
00100000
00010000
00000000
00000000
00100000
00000000
00010000
01000000
00000000
00000000
,
00001000
00000000
00000000
00010000
00000000
00000000
00001000
00000000
00000100
00000010
00000000
00000000
,
00001000
00000000
00000001
00000010
00000000
00000000
00000001
00000000
00001000
00000100
00000000
00000001
,
00000100
00000000
00001000
00000010
00000000
00000000
00001000
00000000
00010000
00100000
00000000
00000000
,
10000000
00000000
00100000
00010000
00000000
00000000
00100000
00000000
10000000
00010000
00000000
10000000
,
00100000
00000000
00010000
01000000
00000000
00000000
10000000
00000000
01000000
00010000
00000000
00000000
,
01000000
00000000
00100000
10000000
00000000
00000000
01000000
00000000
00010000
10000000
00000000
01000000
,
00100000
00000000
10000000
00010000
00000000
00000000
00100000
00000000
01000000
00010000
00000000
00000000
,
00001000
00000000
00000100
00000010
00000000
00000000
00000100
00000000
00000010
00001000
00000000
00000100
,
00000010
00000000
00000001
00000100
00000000
00000000
00000010
00000000
00000001
00000010
00000000
00000100
,
00001000
00000000
00000000
00000010
00000000
00000000
00000001
00000000
00000010
00000100
00000000
00000000
,
00001000
00000000
00000001
00000100
00000000
00000000
00001000
00000000
00010000
00100000
00000000
10000000
,
00100000
00000000
00010000
10000000
00000000
00000000
01000000
00000000
00100000
00010000
00000000
01000000
,
10000000
00000000
00010000
01000000
00000000
00000000
00200000
00000000
00000000
00000000
00000000
00000000
,
00000000
00300000
00000000
00000000
;

//---------------dance-double - ----------------
#NOTEDATA:;
#CHARTNAME:;
#STEPSTYPE:dance-double;
#DESCRIPTION:;
#CHARTSTYLE:;
#DIFFICULTY:Medium;
#METER:10;
#RADARVALUES:0.232279,0.222197,0.009975,0.019950,0.463845,163.000000,162.000000,1.000000,2.000000,0.000000,0.000000,0.000000,0.000000,0.000000,0.232279,0.222197,0.009975,0.019950,0.463845,163.000000,162.000000,1.000000,2.000000,0.000000,0.000000,0.000000,0.000000,0.000000;
#CREDIT:;
#DISPLAYBPM:50.000000;
#NOTES:
00000000
00000000
00000000
00000000
,
00000000
00000000
00000000
00000000
,
00000000
00000000
00000000
00000000
00000000
00000000
00010000
10000000
01000000
00100000
00000000
00010000
,
00100000
00000000
01000000
00010000
00000000
10000000
00100000
00010000
00001000
00010000
00000000
00001000
,
00000010
00000001
00000100
00000010
00000000
00000100
00001000
00000000
00000001
00000010
00000000
00000001
,
00000100
00001000
00000010
00000100
00000000
00001000
00010000
00000000
00100000
01000000
00000000
00010000
,
00100000
00010000
01000000
10000000
00000000
01000000
00010000
00000000
10000000
00100000
00000000
00010000
,
00100000
00000000
01000000
00010000
00001000
00000100
00000010
00000000
00001000
00000001
00000000
00000010
,
00000001
00001000
00000010
00000100
00000000
00000001
00001000
00000000
00000001
00000010
00000000
00000100
,
00001000
00000010
00000001
00000100
00000000
00001000
00010000
00000000
01000000
10000000
00000000
00100000
,
00010000
00100000
01000000
10000000
00000000
00100000
00010000
00001000
00010000
01000000
00000000
00010000
,
00001000
00000010
00000001
00000010
00000000
00000001
00001000
00000100
00000010
00000001
00000000
00001000
,
00000100
00000001
00000010
00000100
00000000
00000010
00001000
00010000
00100000
00010000
00000000
01000000
,
00100000
10000000
00010000
00100000
00000000
00010000
01000000
10000000
00010000
00100000
00000000
01000000
,
10000000
01000000
00010000
00001000
00000000
00010000
00000010
00001000
00000100
00000001
00001000
00000010
,
00000100
00000000
00001000
00000010
00000000
00000001
00000100
00000001
00001000
00000100
00000000
00000010
,
00000001
00000010
00000100
00000001
00001000
00000100
00000001
00000000
00000010
00001000
00000000
00010000
,
01000000
00010000
10000000
00100000
00000000
00010000
00100000
00000000
01000000
10000000
00000000
00010000
,
01000000
00100000
10000000
00010000
00000000
10000000
00100000
00000000
01000000
10000000
00000000
00100000
,
00010000
00000000
00001000
00000010
00000001
00000100
00002002
00000000
00000000
00000000
00000000
00000000
,
00000000
00003003
00000000
00000000
;

//---------------dance-double - ----------------
#NOTEDATA:;
#CHARTNAME:;
#STEPSTYPE:dance-double;
#DESCRIPTION:;
#CHARTSTYLE:;
#DIFFICULTY:Hard;
#METER:12;
#RADARVALUES:0.306380,0.302996,0.059851,0.019950,0.608485,215.000000,209.000000,6.000000,2.000000,0.000000,0.000000,0.000000,0.000000,0.000000,0.306380,0.302996,0.059851,0.019950,0.608485,215.000000,209.000000,6.000000,2.000000,0.000000,0.000000,0.000000,0.000000,0.000000;
#CREDIT:;
#DISPLAYBPM:50.000000;
#NOTES:
00000000
00000000
00000000
00000000
,
00000000
00000000
00000000
00000000
,
00000000
00000000
00000000
00000000
00000000
00000000
00000000
00000000
00000000
00000000
00000000
00000000
00000001
00000000
00001000
00000000
00000100
00000000
00000010
00000000
00000100
00001000
00000100
00000000
,
00000010
00000000
00000001
00000000
00001000
00000000
00000010
00000000
00000001
00000000
00000100
00000000
00001000
00000000
00000000
00000000
00010000
00000000
00100000
00000000
10000000
01000000
10000000
00000000
,
00100000
00000000
00010000
00000000
01000000
00000000
00100000
00000000
01000000
00000000
00010000
00000000
10000000
00000000
00100000
00000000
10000000
00000000
01000000
00000000
10000000
00010000
10000000
00000000
,
00100000
00000000
01000000
00000000
10000000
00000000
00100000
00000000
00000000
00000000
00010000
00000000
00001000
00000000
00000010
00000000
00000001
00000000
00000010
00000000
00001000
00000100
00001000
00000000
,
00000001
00000010
00000100
00001000
00000000
00000100
00000001
00000100
00001000
00000010
00000000
00010000
,
00001000
00000000
00100000
00000000
00010000
00000000
01000000
00000000
10000000
00100000
10000000
00000000
00010000
00000000
00000000
00000000
10000000
00000000
00010000
00000000
01000000
00100000
01000000
00000000
,
00010000
00000000
10000000
00000000
01000000
00000000
10000000
00000000
00000000
00000000
00010000
00000000
01000000
00000000
00010000
00000000
00100000
00000000
00010000
00000000
01000000
10000000
01000000
00000000
,
00100000
00000000
10000000
00000000
01000000
00000000
00010000
00000000
00000000
00000000
00001000
00000000
00010000
00000000
00100000
00000000
00010000
00000000
00001000
00000000
00000010
00000100
00000010
00000000
,
00000001
00001000
00000010
00000100
00000000
00001000
00000001
00000010
00000001
00000100
00001000
00000100
,
00000001
00000000
00000010
00000000
00001000
00000000
00010000
00000000
00100000
00000000
10000000
00000000
10010000
00000000
01000000
00100000
01000000
00000000
10000000
00000000
00010000
00000000
10000000
00000000
,
01100000
00000000
00010000
01000000
00010000
00000000
00100000
00000000
00000000
00000000
01000000
00000000
00100000
00000000
10000000
00000000
01000000
00000000
00010000
00000000
00001000
00010000
00001000
00000000
,
00000100
00000000
00000001
00000000
00000010
00000000
00000100
00000000
00001000
00000000
00000001
00000000
00000110
00000000
00001000
00000001
00001000
00000000
00000001
00000000
00001000
00000000
00000010
00000000
,
00000100
00000000
00000001
00000010
00000001
00000000
00000100
00000000
00000000
00000000
00001000
00000000
00010000
00000000
00001000
00000000
00000010
00000000
00001000
00000000
00010000
00000000
00001000
00000000
,
00011000
00000000
01000000
00100000
00000000
00010000
01000000
00010000
10000000
01000000
10000000
00100000
,
00010000
00000000
00100000
00000000
01000000
00000000
00010000
00000000
01000000
00000000
10000000
00000000
01100000
00000000
00000000
00000000
10000000
00000000
00100000
00000000
00010000
01000000
00010000
00000000
,
01000000
00000000
00100000
00000000
10000000
00000000
01000000
00000000
00100000
10000000
00100000
00000000
00010000
00000000
00001000
00000000
00000010
00000000
00000100
00000000
00000001
00000010
00000001
00000000
,
00000100
00000000
00001000
00000000
00000010
00000000
00000001
00000000
00001000
00000000
00000100
00000000
00000010
00000000
00000000
00000000
00000100
00000000
00001000
00000000
00000001
00000100
00000001
00000000
,
00000010
00000000
00001000
00000000
00010000
00000000
01000000
00000000
00010000
00001000
00010000
00000000
00022000
00000000
00000000
00000000
00000000
00000000
00000000
00000000
00000000
00000000
00000000
00000000
,
00000000
00033000
00000000
00000000
;

//---------------dance-single - ----------------
#NOTEDATA:;
#CHARTNAME:;
#STEPSTYPE:dance-single;
#DESCRIPTION:;
#CHARTSTYLE:;
#DIFFICULTY:Challenge;
#METER:14;
#RADARVALUES:0.542934,0.701192,0.319205,0.319205,1.162106,381.000000,349.000000,32.000000,32.000000,0.000000,0.000000,0.000000,0.000000,0.000000,0.542934,0.701192,0.319205,0.319205,1.162106,381.000000,349.000000,32.000000,32.000000,0.000000,0.000000,0.000000,0.000000,0.000000;
#CREDIT:;
#DISPLAYBPM:50.000000;
#NOTES:
// measure 0
0000
0000
0000
0000
,  // measure 1
0000
0000
0000
0000
,  // measure 2
1000
0100
0010
0001
0010
0100
1000
0000
0010
0100
0010
0000
1000
0010
0100
0001
0010
0100
1000
0000
0100
0001
0010
0000
,  // measure 3
1000
0001
1000
0000
1001
0000
0001
0100
0001
0010
0100
0000
0020
0000
0000
0000
1000
0000
1030
0000
0100
0010
0100
0000
,  // measure 4
0010
0000
0001
1000
0100
0000
0010
0000
1000
0010
1000
0000
0100
0010
0100
0000
0010
0001
0010
0000
0100
0010
0000
1000
,  // measure 5
0020
0000
0100
0000
0100
0000
0130
0000
1000
0100
0001
0000
2000
0000
0000
0000
0100
0000
3100
0000
0010
0001
0010
0000
,  // measure 6
0011
0000
0001
0000
0101
0000
0100
0010
0100
0001
0100
0010
0100
0010
0001
0000
0100
0000
0101
0000
0100
0001
0100
0001
,  // measure 7
0020
0000
2030
0000
3002
0000
0203
0000
0310
0100
0010
0000
0002
0000
0100
0000
0100
0000
0103
0000
0010
0100
0010
0000
,  // measure 8
0001
0000
0100
0000
0010
0000
1000
0000
0100
0000
0010
0000
0001
0000
0000
0000
0200
0000
0000
0000
0310
0000
1000
0000
1100
0000
0000
0000
0000
0000
0000
0000
1000
0000
0001
0000
1001
0000
0000
0000
1000
0100
1000
0100
0010
0001
0010
0001
,  // measure 9
0200
0000
0010
0000
0010
0000
0310
0000
0001
0010
0001
0000
1001
0000
0000
0000
1000
0100
1100
0000
0020
0000
0030
0000
,  // measure 10
0001
0010
0001
0010
0100
1000
0100
1000
0001
0010
0001
0010
0100
0000
0000
0000
1000
0000
0100
0000
1000
0000
0100
0000
0001
0000
0000
0000
0010
0000
0000
0000
1000
0000
0000
0000
0100
0000
0000
0000
1000
0000
0100
0000
1000
0000
0100
0000
,  // measure 11
0020
0000
0032
0000
0203
0000
2300
0000
3100
0010
0001
0100
0101
0000
0100
0000
1100
0000
1010
0000
1000
0001
1000
0010
,  // measure 12
1010
0000
0010
0000
0011
0000
0101
0000
0100
0010
0100
0010
0110
0000
0010
0000
1010
0000
1100
0000
0100
0001
0100
0001
,  // measure 13
0200
0000
0302
0000
0023
0000
2030
0000
3100
0010
0001
0010
0110
0000
1010
0000
1100
0000
0101
0000
0001
0010
1000
0100
,  // measure 14
0110
0000
0000
0000
1010
0000
0000
0000
0011
0000
0000
0000
0101
0000
0000
0000
0100
0000
0010
0000
1000
0000
0100
0000
0110
0000
0000
0000
1100
0000
0000
0000
1010
0000
0000
0000
2002
0000
0000
3003
0000
0000
1000
0000
0000
1000
0000
0000
,  // measure 15
1000
0000
0100
0000
0010
0000
0001
0000
0010
0000
0100
0000
1000
0000
0010
0000
0001
0000
0100
0000
0010
0000
1000
0000
0100
0010
0100
0010
0100
0010
0100
0010
0100
0010
0100
0010
0100
0010
0100
0010
0100
0010
0100
0000
0010
0000
0000
1000
,  // measure 16
0002
0000
1003
0000
1000
0000
0100
0000
0010
0000
0001
0000
1000
0001
1000
0001
1000
0001
1000
0001
1000
0001
1000
0001
1000
0100
1000
0000
0100
1000
0100
0000
0010
1000
0010
0000
0002
0000
0000
0000
1003
0000
0001
0000
0010
0000
0100
0000
,  // measure 17
1000
0010
1000
0000
0100
1000
0100
0000
0001
0010
0001
0000
0020
0000
0000
0000
0031
0000
0100
0000
0010
0000
1000
0000
0001
0010
0001
0000
0100
1000
0100
0000
0010
1000
0010
0000
0200
0000
0000
0000
1300
0000
0010
0000
0100
0000
0001
0000
,  // measure 18
1000
0001
1000
0000
0001
1000
0001
0000
0010
0100
0010
0000
2000
0000
0000
0000
3100
0000
0010
0000
0001
0000
0100
0000
0010
0001
0010
0000
0100
0010
0100
0000
1000
0100
1000
0000
0010
1000
0010
0000
0100
0001
0100
0001
0100
0001
0100
0000
,  // measure 19
0220
0000
0030
0000
0310
0000
0220
0000
0000
0300
0130
0000
2002
0000
0000
0000
0000
0000
0000
0000
0000
0000
0000
0000
,  // measure 20
0000
0000
0000
3003
0000
0000
0000
0000
;
