#VERSION:0.83;
#TITLE:I Was The One;
#SUBTITLE:;
#ARTIST:good-cool;
#TITLETRANSLIT:;
#SUBTITLETRANSLIT:;
#ARTISTTRANSLIT:;
#GENRE:;
#ORIGIN:;
#CREDIT:;
#BANNER:I Was The One.png;
#BACKGROUND:I Was The One-bg.png;
#PREVIEWVID:;
#JACKET:I Was The One-jacket.png;
#CDIMAGE:;
#DISCIMAGE:;
#LYRICSPATH:;
#CDTITLE:;
#MUSIC:I Was The One.ogg;
#OFFSET:0.000000;
#SAMPLESTART:17.289000;
#SAMPLELENGTH:15.000000;
#SELECTABLE:YES;
#DISPLAYBPM:125.000000;
#BPMS:0.000=124.500,
4.000=125.000;
#STOPS:;
#DELAYS:;
#WARPS:;
#TIMESIGNATURES:0.000=4=4;
#TICKCOUNTS:0.000=4;
#COMBOS:0.000=1;
#SPEEDS:0.000=1.000=0.000=0;
#SCROLLS:0.000=1.000;
#FAKES:;
#LABELS:0.000=Song Start;
#BGCHANGES:;
#KEYSOUNDS:;
#ATTACKS:
;

//---------------dance-single - ----------------
#NOTEDATA:;
#CHARTNAME:;
#STEPSTYPE:dance-single;
#DESCRIPTION:;
#CHARTSTYLE:;
#DIFFICULTY:Beginner;
#METER:2;
#RADARVALUES:0.138485,0.175002,0.040817,0.000000,0.000000,95.000000,91.000000,4.000000,0.000000,0.000000,0.000000,0.000000,0.000000,0.000000,0.138485,0.175002,0.040817,0.000000,0.000000,95.000000,91.000000,4.000000,0.000000,0.000000,0.000000,0.000000,0.000000,0.000000;
#CREDIT:;
#DISPLAYBPM:125.000000;
#NOTES:
0000
0000
0000
0000
,
0000
0000
0000
0000
,
0000
0000
0000
0000
,
0001
0000
0000
0000
,
0000
0000
0000
0000
,
1000
0000
0000
0000
,
1000
0000
0100
0000
,
0001
0000
0001
0000
,
0010
0010
0010
0000
,
0001
0001
0001
0000
,
1000
1000
1000
0000
,
0001
0001
0001
0000
,
1000
1000
1000
0000
,
0010
0000
0000
0000
,
0010
0000
0000
0000
,
0010
0000
0010
0000
,
0010
0010
0010
0000
,
1001
0000
0000
0000
,
0001
0000
0100
0000
,
1001
0000
0000
0000
,
0001
0000
0100
0000
,
1001
0000
0000
0000
,
0001
0000
0100
0000
,
1001
0000
0000
0000
,
0001
0000
0100
0000
,
1000
0000
1000
1000
,
1000
0000
1000
0000
,
0100
0000
0010
0000
,
0100
0000
0010
0000
,
0001
0000
0001
0001
,
0001
0000
0001
0000
,
0100
0000
0010
0000
,
0100
0000
0010
0000
,
0010
0000
1000
0000
,
0001
0001
0001
0000
,
0100
0000
0001
0000
,
1000
1000
1000
0000
,
0010
0000
1000
0000
,
0100
0100
0100
0000
,
0100
0000
0001
0000
,
0010
0010
0010
0000
,
0010
0000
0000
0000
,
0001
0000
0001
0000
,
0100
0000
0000
0000
,
1000
0000
1000
0000
,
0010
0000
0000
0000
,
0001
0000
0010
0000
,
0010
0000
0000
0000
,
1000
0000
0010
0000
,
0010
0000
0000
0000
;

//---------------dance-single - ----------------
#NOTEDATA:;
#CHARTNAME:;
#STEPSTYPE:dance-single;
#DESCRIPTION:;
#CHARTSTYLE:;
#DIFFICULTY:Easy;
#METER:5;
#RADARVALUES:0.224492,0.250003,0.091838,0.000000,0.000000,154.000000,145.000000,9.000000,0.000000,0.000000,0.000000,0.000000,0.000000,0.000000,0.224492,0.250003,0.091838,0.000000,0.000000,154.000000,145.000000,9.000000,0.000000,0.000000,0.000000,0.000000,0.000000,0.000000;
#CREDIT:;
#DISPLAYBPM:125.000000;
#NOTES:
0000
0000
0000
0000
,
0000
0000
0000
0000
,
0000
0000
0000
0000
,
0001
0000
0000
0000
,
0001
0000
0000
0000
,
0100
0000
0000
0000
,
1001
0000
0100
0100
,
0001
0000
0000
0000
,
1001
0000
0100
0100
,
1000
0000
0000
0000
,
0010
0000
1000
1000
,
0001
0000
0000
0000
,
0100
0000
0001
0001
,
0010
0000
0001
1000
,
0010
0000
1010
1000
,
0001
0000
0010
0100
,
1000
0000
1100
0010
,
0001
0000
1000
0010
,
0100
0000
0001
0010
,
0001
0001
0100
0010
,
1000
1000
1000
1000
,
1001
0000
0100
0001
,
1000
0100
1000
0100
,
1000
0010
1000
0010
,
1000
0100
0010
0001
,
1001
0000
0010
1000
,
0001
0100
0001
0100
,
0010
0100
1000
0100
,
0001
0010
0100
1000
,
1001
0100
0001
0001
,
0100
1000
0100
1000
,
0100
0010
1000
0001
,
1000
0100
0010
0001
,
1000
0000
1000
1000
,
0010
0000
0100
0001
,
1000
0000
0100
0100
,
1000
0000
0001
0100
,
0001
0000
0001
0000
,
1000
0100
1000
0001
,
0100
0000
0100
0000
,
0001
0010
0001
1000
,
0010
0100
0100
0100
,
0001
0001
0000
0101
,
0010
1000
1000
1000
,
0100
0100
0000
1100
,
0001
0100
1000
0100
,
0001
0001
1000
0100
,
0010
0001
1000
0100
,
0010
0001
1000
1000
,
1000
0000
0000
0000
;

//---------------dance-single - ----------------
#NOTEDATA:;
#CHARTNAME:;
#STEPSTYPE:dance-single;
#DESCRIPTION:;
#CHARTSTYLE:;
#DIFFICULTY:Medium;
#METER:8;
#RADARVALUES:0.335280,0.402045,0.132654,0.010204,0.000000,230.000000,217.000000,13.000000,1.000000,0.000000,0.000000,0.000000,0.000000,0.000000,0.335280,0.402045,0.132654,0.010204,0.000000,230.000000,217.000000,13.000000,1.000000,0.000000,0.000000,0.000000,0.000000,0.000000;
#CREDIT:;
#DISPLAYBPM:125.000000;
#NOTES:
0000
0000
0000
0000
,
0000
0000
0000
0000
,
0000
0000
0000
0000
,
0001
0010
0000
0000
,
0001
1000
0100
0100
,
0010
0001
0000
0000
,
1000
0001
0100
0100
,
0010
1000
0000
0000
,
0100
0100
0010
0001
,
1000
0000
0000
0000
1000
0010
1000
0000
,
0001
0000
0000
0000
0100
0001
0100
1000
,
0100
0000
0000
0000
0001
0100
0001
0000
,
0010
0000
0000
0000
0001
0100
0010
0000
,
1000
0000
0000
0000
0001
0010
0100
0000
,
1000
0000
0000
0000
0010
0100
0001
1000
,
0100
0000
0000
0000
0001
0100
0001
0000
,
0100
0000
0000
0000
1000
0001
1001
0000
,
0100
0100
0100
0100
,
0001
0001
0001
0001
,
0100
1000
0100
0000
0100
0000
0100
0000
,
0001
0010
0001
0000
0001
0000
0001
0000
,
1000
1000
1000
0000
0100
0001
0100
0000
,
0010
0001
0010
0000
0100
1000
0100
0000
,
1000
1000
1000
0000
0010
0100
0010
0000
,
1000
0100
1000
0000
0001
0100
0001
0000
,
0101
0000
0000
0000
0010
0100
0001
0000
,
1000
0000
1000
0000
0100
0010
0001
0000
,
1001
0000
0000
0000
0100
1000
0100
0000
,
0010
0000
0010
0000
0001
0100
1000
0000
,
0110
0000
0010
0000
1000
0010
1000
0000
,
0010
0100
0010
0000
1000
0100
1000
0000
,
0001
1001
1000
1001
,
0110
0110
1001
0100
,
0000
0001
0100
0000
0001
0010
0000
0001
,
0000
1000
1000
0000
0010
1000
0000
0001
,
0000
0010
0001
0000
0100
1000
0000
0100
,
0000
0001
0001
0000
1000
0100
0000
0010
,
0000
0001
0100
0000
0010
1000
0000
0001
,
0000
0100
0100
0000
0010
1000
0000
0100
,
0000
0010
0001
0000
0100
1000
0000
0100
,
0000
0001
0001
0000
0010
0100
0000
1000
,
1100
0000
0000
0000
0001
0001
0001
0000
,
0101
0000
0000
0000
0010
0010
0010
0000
,
1010
0000
0000
0000
0100
0100
0100
0000
,
0110
0000
0000
0000
1000
1000
1000
0000
,
0001
0100
0001
0010
0100
1000
0100
0000
,
1000
0100
1000
0010
0100
0001
0100
0000
,
0001
0010
0001
0100
0010
1000
0100
0000
,
1000
0010
1000
0100
0010
0001
0010
0001
,
0020
0030
0000
0000
;

//---------------dance-single - ----------------
#NOTEDATA:;
#CHARTNAME:;
#STEPSTYPE:dance-single;
#DESCRIPTION:;
#CHARTSTYLE:;
#DIFFICULTY:Hard;
#METER:10;
#RADARVALUES:0.462104,0.452301,0.265309,0.020408,0.000000,317.000000,291.000000,26.000000,2.000000,0.000000,0.000000,0.000000,0.000000,0.000000,0.462104,0.452301,0.265309,0.020408,0.000000,317.000000,291.000000,26.000000,2.000000,0.000000,0.000000,0.000000,0.000000,0.000000;
#CREDIT:;
#DISPLAYBPM:125.000000;
#NOTES:
0000
0000
0000
0000
,
0000
0000
0000
0000
,
0000
0000
0000
0000
,
1000
0000
1001
0000
1000
0100
0010
0001
,
1000
1010
0100
0100
,
0010
0000
0110
0000
0001
0010
0001
0000
,
1000
0100
1000
0000
0001
0000
1001
0000
,
0100
0000
0110
0000
0001
0010
0001
0000
,
1000
1000
0100
0100
0010
0010
0001
0001
,
0000
1000
0010
1000
0001
0001
0010
0001
,
0000
0100
0010
0100
0001
0001
0100
1000
,
0000
0100
0010
1000
0100
0100
0010
0001
,
0000
0100
1000
0100
0010
0100
0001
0000
,
0000
0001
0100
0001
1000
1000
0100
1000
,
0000
0010
0100
0010
1000
1000
0100
0010
,
0000
0001
0100
1000
0100
0100
0001
0010
,
0000
0100
0001
0100
0010
0100
1000
0000
,
1100
0000
0000
0000
0100
1000
0100
0010
,
0000
0010
0000
0001
0000
0001
0000
0000
,
1001
0000
0000
0000
0010
0001
0010
0100
,
0000
0100
0000
1000
0000
1000
0001
0000
,
0011
0011
0100
0000
1000
0010
0000
0010
,
1000
0001
1000
0100
0010
0010
0001
0000
,
1001
1001
0010
0000
1000
0100
0000
0100
,
0010
0001
0010
0100
1000
1000
0001
0000
,
1000
1000
0100
0100
0010
0010
0001
0001
,
0100
0010
0100
1000
0100
0010
0100
0001
,
1000
1000
0100
0100
0010
0010
0001
0001
,
1000
0010
1000
0001
1000
0100
0010
0001
,
1000
1000
0100
0100
0010
0010
0001
0001
,
0001
1000
0001
1000
0010
1000
0010
1000
,
1010
0100
0101
0010
,
0110
0110
1001
0100
,
1010
1000
0010
1000
0001
0001
0010
0001
,
0000
0010
0100
0010
0001
0001
0010
0001
,
1001
1000
0010
1000
0010
0010
0100
0001
,
0000
0010
0001
0100
0010
0100
0001
0000
,
0110
0110
0001
0100
0010
0010
1000
1000
,
0000
0100
0001
0100
1000
0100
0010
0010
,
0000
0001
0100
1000
0100
0100
0001
0001
,
0110
0110
0100
1000
0100
0001
0100
0000
,
0000
0010
0000
0010
0000
0110
0110
0001
,
1001
0000
0100
0000
0010
1000
0010
0000
,
0100
0000
0100
0000
0001
0010
0001
0000
,
1000
0000
0010
0000
0100
1000
0100
0000
,
0001
0000
0010
0000
0100
1000
0100
0000
,
1000
0000
0100
0000
0001
0100
1000
0001
,
0010
0010
0001
0000
0100
0100
1000
0100
,
0001
0001
1000
1000
0010
1000
0010
1000
,
2002
3003
0000
0000
;

//---------------dance-double - ----------------
#NOTEDATA:;
#CHARTNAME:;
#STEPSTYPE:dance-double;
#DESCRIPTION:;
#CHARTSTYLE:;
#DIFFICULTY:Easy;
#METER:3;
#RADARVALUES:0.223034,0.300003,0.122450,0.000000,0.000000,153.000000,141.000000,12.000000,0.000000,0.000000,0.000000,0.000000,0.000000,0.000000,0.223034,0.300003,0.122450,0.000000,0.000000,153.000000,141.000000,12.000000,0.000000,0.000000,0.000000,0.000000,0.000000,0.000000;
#CREDIT:;
#DISPLAYBPM:125.000000;
#NOTES:
00000000
00000000
00000000
00000000
,
00000000
00000000
00000000
00000000
,
00000000
00000000
00000000
00000000
,
00011000
00000000
00000000
00000000
,
00000010
00000000
00001000
00000000
,
00001001
00000000
00000000
00000000
,
00000100
00000000
00010000
00000000
,
00011000
00000000
00001000
00000000
,
00110000
00000000
10010000
00000000
,
10000000
00000000
10000000
00000000
,
00010000
00000010
00000001
00000100
,
00001000
00000000
00001000
00000000
,
00010000
00100000
10000000
01000000
,
00100000
00000000
00100000
00000000
,
00001000
00000001
00001000
01000000
,
00010000
00000000
00010000
00000000
,
10000000
00010000
00000010
00000001
,
00001000
00000000
00000100
00000100
,
00000010
00000000
00000001
00000000
,
00001000
00000000
00100000
00100000
,
10000000
00000000
00010000
00000000
,
00000010
00000000
00000100
00001000
,
00000010
00000000
00000100
00010000
,
00001000
00000000
00000010
00010000
,
00001000
00000000
01000000
00000000
,
00010000
10000000
01000000
01000000
,
00001000
00000100
00000001
00000100
,
00010000
00001000
01000000
01000000
,
10000000
01000000
00010000
01000000
,
00001000
00010000
00000100
00000100
,
00000001
00000100
00000010
00000001
,
00001000
00000100
00000001
00000001
,
00000100
00010000
00001000
01000000
,
00010000
00000000
01000000
01000000
,
00100000
00000000
10000000
00000000
,
00010000
00000000
00000010
00000010
,
00000001
00000000
00001000
00000000
,
00000001
00000000
00001000
00000000
,
00100000
00000000
01000000
00010000
,
00100000
00000000
01000000
00001000
,
00010000
00000000
00100000
00001000
,
00010000
00011000
00000100
00010000
,
00001000
00011000
01000000
00001000
,
00100000
00110000
00001000
00010000
,
00000010
00001010
00010000
00001000
,
01000000
01100000
10000000
01000000
,
00001000
00001000
00010000
00010000
,
00000100
00000110
00000001
00000100
,
00010000
00010000
00001000
00001000
,
00011000
00000000
00000000
00000000
;

//---------------dance-double - ----------------
#NOTEDATA:;
#CHARTNAME:;
#STEPSTYPE:dance-double;
#DESCRIPTION:;
#CHARTSTYLE:;
#DIFFICULTY:Medium;
#METER:5;
#RADARVALUES:0.393590,0.400004,0.346942,0.000000,0.000000,270.000000,236.000000,34.000000,0.000000,0.000000,0.000000,0.000000,0.000000,0.000000,0.393590,0.400004,0.346942,0.000000,0.000000,270.000000,236.000000,34.000000,0.000000,0.000000,0.000000,0.000000,0.000000,0.000000;
#CREDIT:;
#DISPLAYBPM:125.000000;
#NOTES:
00000000
00000000
00000000
00000000
,
00000000
00000000
00000000
00000000
,
00000000
00000000
00000000
00000000
,
00010000
00000010
00010000
00000000
,
00001000
00100000
00001000
00000000
,
00011000
00000000
01000000
01000000
00000000
00000000
00010000
00000000
,
10010000
00000000
01000000
01000000
00000000
00000000
00001000
00000000
,
00011000
00000000
00000100
00000100
00000000
00000000
00001000
00000000
,
00001100
00000000
00000010
00000010
00000001
00000000
00001000
00000000
,
00000010
00001000
00000100
00000000
00001000
00000001
00000100
00000000
,
00000010
00010000
00001000
00000000
00110000
00000000
10010000
00000000
,
10000000
00100000
01000000
00000000
00010000
10000000
01000000
00000000
,
00100000
00001000
00010000
00000000
00001010
00000000
00001001
00000000
,
00000100
00001000
00000010
00000000
00010000
00000100
00000010
00000000
,
00000100
00010000
00001000
00000000
01010000
00000000
10100000
00000000
,
10000000
01000000
00100000
00000000
00001000
01000000
00100000
00000000
,
01000000
00001000
00010000
00000000
00001100
00000000
00000011
00000000
,
00001000
00000110
00000000
00000110
,
00000001
00001001
00000000
00001001
,
00000010
00011000
00000000
00011000
,
01000000
01010000
00000000
01010000
,
00100000
10000000
01000000
00000000
00010000
00010000
01000000
01000000
,
10000000
00010000
01000000
00000000
00001000
00001000
00010000
00010000
,
00000100
00000001
00000100
00000000
00001000
00001000
00000010
00000010
,
00000100
00001000
00000100
00000000
00000010
00000010
00011000
00000000
,
00100000
00100000
00100000
00100000
,
00010000
01000000
10000000
00000000
01000000
00001000
00010000
00000000
,
00000100
00000100
00000100
00000100
,
00000010
00000001
00001000
00000000
00000010
00010000
00001000
00000000
,
00100000
00100000
00100000
00100000
,
00010000
01000000
10000000
00000000
01000000
01000000
00010000
00000000
,
10010000
01000000
00011000
00000100
,
00000110
00000110
00001001
00000100
,
00000010
00001000
00000100
00000000
00001000
00000001
00000100
00000000
,
00000010
00010000
00001000
00000000
00110000
00000000
10010000
00000000
,
10000000
00100000
01000000
00000000
00010000
10000000
01000000
00000000
,
00100000
00001000
00010000
00000000
00001010
00000000
00001001
00000000
,
00000100
00000100
00000010
00000000
00010000
00001000
01000000
00000000
,
00010000
10000000
00100000
00000000
01100000
00000000
10010000
00000000
,
01000000
01000000
00001000
00000000
00010000
00000010
00001000
00000000
,
00000001
00001000
00000100
00000000
00000110
00000000
00001001
00000000
,
00000010
00000010
00000010
00000010
,
00000100
00001000
00000001
00000000
00000100
00000010
00010000
00000000
,
00001000
00010000
00001000
00000000
00001000
00010000
00001000
00000000
,
00001000
01000000
00010000
01000000
00100000
10000000
01000000
00000000
,
00100000
00100000
00100000
00100000
,
00001000
00010000
00000100
00000000
00000010
00000001
00001000
00000000
,
00000010
00001000
00000010
00000000
00000010
00001000
00000010
00000000
,
00000010
00010000
00001000
01000000
10000000
01000000
00010000
01000000
,
00010000
00000000
00000000
00000000
;

//---------------dance-double - ----------------
#NOTEDATA:;
#CHARTNAME:;
#STEPSTYPE:dance-double;
#DESCRIPTION:;
#CHARTSTYLE:;
#DIFFICULTY:Hard;
#METER:6;
#RADARVALUES:0.412541,0.400004,0.061225,0.000000,0.000000,283.000000,277.000000,6.000000,0.000000,0.000000,0.000000,0.000000,0.000000,0.000000,0.412541,0.400004,0.061225,0.000000,0.000000,283.000000,277.000000,6.000000,0.000000,0.000000,0.000000,0.000000,0.000000,0.000000;
#CREDIT:;
#DISPLAYBPM:125.000000;
#NOTES:
00000000
00000000
00000000
00000000
,
00000000
00000000
00000000
00000000
,
00000000
00000000
00000000
00000000
,
10010000
00000000
00010000
00000000
10000000
01000000
00010000
00000100
,
00000000
00000001
00000100
00000001
00000100
00000000
00001000
00000000
,
00000010
00001000
00000010
00000000
00010000
00001000
00100000
00001000
,
01000000
10000000
01000000
00000000
00001000
00010000
00000010
00001000
,
00000100
00000001
00000100
00000000
00010000
00001000
01000000
00010000
,
10000000
00100000
10000000
00000000
10100000
00000000
10010000
00000000
,
00000000
00010000
01000000
00001000
00010000
00000010
00001000
00000001
,
00000000
00000010
00000100
00001000
00000010
00010000
00001000
01000000
,
00000000
00100000
10000000
01000000
00100000
00010000
01000000
00001000
,
00000000
00010000
00000010
00000100
00000001
00001000
00000100
00000000
,
00000000
00001000
00000010
00010000
00001000
01000000
00010000
10000000
,
00000000
01000000
00100000
00010000
01000000
00001000
00010000
00000100
,
00000000
00000010
00000001
00000010
00000100
00001000
00000010
00010000
,
00000000
00001000
01000000
00010000
10000000
01000000
00100000
00000000
,
00000000
00000000
00000000
00000000
00010000
00010000
00010000
00000000
,
00100000
00010000
01000000
00001000
00000000
00100000
01000000
00000000
,
00100000
00100000
00001000
00000000
00010000
00010000
00010000
00000000
,
00000010
00000100
00000001
00001000
00000000
00000100
00010000
00000000
,
00001000
00001000
01000000
00000000
00100000
00100000
00100000
00000000
,
01000000
10000000
01000000
00010000
00000000
00100000
00001000
00000000
,
00010000
00010000
00000100
00000000
00000010
00000010
00000010
00000000
,
00000001
00000100
00001000
00000100
00000000
00000001
00001000
00000000
,
00000100
00000100
00000010
00000010
00000001
00000001
00001000
00001000
,
00000010
00000000
00010000
00011000
,
00100000
00010000
01000000
10000000
,
01000000
00000000
00001000
00011000
,
00000010
00000010
00000001
00000001
00000100
00000100
00001000
00001000
,
01000000
00000000
00100000
01100000
,
10000000
00100000
01000000
00001000
,
00010000
00010000
00000100
00000100
00000010
00000010
00000001
00000001
,
00000000
00001000
00000100
00010000
00001000
00100000
00010000
00010000
,
00000000
10000000
10000000
00010000
00100000
00001000
00010000
00000100
,
00000000
00000010
00000001
00000100
00000010
00010000
00001000
00001000
,
00000000
00100000
00100000
01000000
10000000
00010000
01000000
00000000
,
00000000
00010000
00100000
00001000
00010000
00000100
00001000
00001000
,
00000000
00000010
00000010
00001000
00000100
00010000
00001000
01000000
,
00000000
00100000
10000000
00100000
01000000
00010000
00100000
00001000
,
00000000
00010000
00010000
00000010
00000010
00001000
00001000
00000001
,
00000001
00000000
00000000
00000000
00000000
00000100
00000010
00001000
,
00000010
00010000
00000000
00010000
00000000
00010000
00000000
00010000
,
00000000
00001000
00000000
01000000
00000000
00100000
01000000
00010000
,
00100000
00010000
00000000
00010000
00000000
00010000
00000000
00010000
,
00000000
00100000
00000000
01000000
00001000
00010000
00000010
00000100
,
00001000
00000100
00000000
00000100
00000000
00000100
00000000
00000100
,
00000000
00010000
00000000
00001000
00100000
01000000
10000000
00100000
,
01000000
00010000
00100000
00001000
00010000
00000100
00000010
00000001
,
00001000
00000000
00000000
00000000
;

//---------------dance-solo - ----------------
#NOTEDATA:;
#CHARTNAME:;
#STEPSTYPE:dance-solo;
#DESCRIPTION:;
#CHARTSTYLE:;
#DIFFICULTY:Easy;
#METER:3;
#RADARVALUES:0.224492,0.250003,0.091838,0.000000,0.000000,154.000000,145.000000,9.000000,0.000000,0.000000,0.000000,0.000000,0.000000,0.000000,0.224492,0.250003,0.091838,0.000000,0.000000,154.000000,145.000000,9.000000,0.000000,0.000000,0.000000,0.000000,0.000000,0.000000;
#CREDIT:;
#DISPLAYBPM:125.000000;
#NOTES:
000000
000000
000000
000000
,
000000
000000
000000
000000
,
000000
000000
000000
000000
,
000010
000000
000000
000000
,
000010
000000
000000
000000
,
000001
000000
000000
000000
,
010010
000000
000001
000001
,
000010
000000
000000
000000
,
101000
000000
000001
000001
,
010000
000000
000000
000000
,
000100
000000
010000
010000
,
001000
000000
000000
000000
,
000001
000000
000010
000010
,
000100
000000
000010
010000
,
000100
000000
100100
100000
,
001000
000000
000100
000001
,
010000
000000
010001
000100
,
000010
000000
100000
000010
,
000001
000000
001000
000100
,
001000
001000
000001
000100
,
100000
100000
100000
100000
,
101000
000000
000001
001000
,
100000
000001
100000
000001
,
100000
000010
100000
000010
,
100000
000001
000100
001000
,
101000
000000
000100
100000
,
001000
000001
001000
000001
,
000100
000001
100000
000001
,
001000
000100
000001
100000
,
010010
000001
001000
001000
,
000001
100000
000001
100000
,
000001
000100
010000
000010
,
010000
000001
000100
001000
,
100000
000000
100000
100000
,
000100
000000
000001
000010
,
010000
000000
000001
000001
,
100000
000000
001000
000001
,
001000
000000
001000
000000
,
100000
000001
100000
000010
,
000001
000000
000001
000000
,
000010
000100
000010
010000
,
000100
000001
000001
000001
,
000010
000010
000000
001001
,
000100
100000
100000
100000
,
000001
000001
000000
100001
,
001000
000001
100000
000001
,
001000
001000
100000
000001
,
000010
001000
100000
000001
,
000100
001000
010000
010000
,
100000
000000
000000
000000
;

//---------------dance-solo - ----------------
#NOTEDATA:;
#CHARTNAME:;
#STEPSTYPE:dance-solo;
#DESCRIPTION:;
#CHARTSTYLE:;
#DIFFICULTY:Medium;
#METER:5;
#RADARVALUES:0.335280,0.400004,0.132654,0.000000,0.000000,230.000000,217.000000,13.000000,0.000000,0.000000,0.000000,0.000000,0.000000,0.000000,0.335280,0.400004,0.132654,0.000000,0.000000,230.000000,217.000000,13.000000,0.000000,0.000000,0.000000,0.000000,0.000000,0.000000;
#CREDIT:;
#DISPLAYBPM:125.000000;
#NOTES:
000000
000000
000000
000000
,
000000
000000
000000
000000
,
000000
000000
000000
000000
,
001000
000100
000000
000000
,
000010
010000
000001
000001
,
000010
001000
000000
000000
,
100000
001000
000001
000001
,
000010
100000
000000
000000
,
000001
000001
010000
001000
,
100000
000000
000000
000000
100000
010000
100000
000000
,
001000
000000
000000
000000
000001
000010
000001
010000
,
000001
000000
000000
000000
000010
000001
000010
000000
,
000100
000000
000000
000000
001000
000001
000100
000000
,
100000
000000
000000
000000
000010
000100
000001
000000
,
100000
000000
000000
000000
000100
000001
001000
100000
,
000001
000000
000000
000000
001000
000001
001000
000000
,
000001
000000
000000
000000
010000
001000
011000
000000
,
000001
000001
000001
000001
,
000010
000010
000010
000010
,
000001
010000
000001
000000
000001
000000
000001
000000
,
001000
000100
001000
000000
001000
000000
001000
000000
,
100000
100000
100000
000000
000001
001000
000001
000000
,
000010
001000
000010
000000
000001
100000
000001
000000
,
100000
100000
100000
000000
000010
000001
000010
000000
,
100000
000001
100000
000000
001000
000001
001000
000000
,
001001
000000
000000
000000
000100
000001
001000
000000
,
010000
000000
010000
000000
000001
000100
000010
000000
,
101000
000000
000000
000000
000001
100000
000001
000000
,
000100
000000
000100
000000
001000
000001
100000
000000
,
000101
000000
000100
000000
100000
000100
100000
000000
,
000100
000001
000100
000000
100000
000001
100000
000000
,
000010
100010
100000
101000
,
010001
000011
101000
000001
,
000000
001000
000001
000000
001000
000100
000000
000010
,
000000
100000
100000
000000
000100
100000
000000
001000
,
000000
000100
001000
000000
000001
100000
000000
000001
,
000000
001000
001000
000000
100000
000001
000000
000010
,
000000
001000
000001
000000
000100
100000
000000
001000
,
000000
000001
000001
000000
000100
010000
000000
000001
,
000000
000100
001000
000000
000001
010000
000000
000001
,
000000
001000
001000
000000
000100
000001
000000
100000
,
100001
000000
000000
000000
001000
001000
001000
000000
,
001001
000000
000000
000000
000100
000100
000100
000000
,
100100
000000
000000
000000
000001
000001
000001
000000
,
000101
000000
000000
000000
100000
100000
100000
000000
,
001000
000001
001000
000100
000001
100000
000001
000000
,
100000
000001
100000
000100
000001
000010
000001
000000
,
001000
000010
001000
000001
000100
010000
000001
000000
,
100000
000100
100000
000001
000100
000010
000100
000010
,
000100
000000
000000
000000
;

//---------------dance-solo - ----------------
#NOTEDATA:;
#CHARTNAME:;
#STEPSTYPE:dance-solo;
#DESCRIPTION:;
#CHARTSTYLE:;
#DIFFICULTY:Hard;
#METER:7;
#RADARVALUES:0.467935,0.450005,0.295921,0.000000,0.000000,321.000000,292.000000,29.000000,0.000000,0.000000,0.000000,0.000000,0.000000,0.000000,0.467935,0.450005,0.295921,0.000000,0.000000,321.000000,292.000000,29.000000,0.000000,0.000000,0.000000,0.000000,0.000000,0.000000;
#CREDIT:;
#DISPLAYBPM:125.000000;
#NOTES:
000000
000000
000000
000000
,
000000
000000
000000
000000
,
000000
000000
000000
000000
,
010000
000000
011000
000000
010000
000001
000100
001000
,
100000
100010
000001
000001
,
000100
000000
000101
000000
001000
000100
001000
000000
,
100000
000001
100000
000000
001000
000000
101000
000000
,
000001
000000
010001
000000
001000
000100
001000
000000
,
100000
100000
000001
000001
000010
000010
001000
001000
,
000000
010000
000100
010000
001000
001000
000100
001000
,
000000
000001
000100
000001
001000
001000
000001
100000
,
000000
000001
000010
100000
000001
000001
000110
001000
,
000000
000001
100000
000001
000110
000001
001000
000000
,
000000
001000
000001
001000
100000
100000
000001
100000
,
000000
000010
000001
000010
100000
100000
000001
000010
,
000000
001000
000001
100000
000001
000001
001000
000010
,
000000
000001
001000
000001
000100
000001
100000
000000
,
100001
000000
000000
000000
000001
100000
000001
000100
,
000000
000100
000000
001000
000010
001010
000000
000000
,
101000
000000
000000
000000
000100
001000
000100
000001
,
000000
000001
000000
100000
000000
100000
001000
000000
,
001010
001010
000001
000000
100000
000010
000000
000010
,
100000
001000
100000
000001
000100
000100
001000
000000
,
101000
101000
000100
000000
100000
000001
000000
000001
,
000100
001000
000100
000001
100000
100000
001000
000000
,
100000
100000
000001
000001
000100
000100
001000
001000
,
000001
010000
000001
100000
000001
010000
000001
001000
,
100000
100000
000001
000001
000100
000100
001000
001000
,
100000
000100
100000
001000
100000
000001
010000
001000
,
100000
100000
000001
000001
000010
000100
001000
001000
,
001000
100000
001000
100000
010000
100000
010000
100000
,
110000
000001
001001
000100
,
000101
000101
101000
000001
,
100100
100000
000100
100000
001000
001000
000100
001000
,
000000
000100
000001
000100
001000
001000
000100
001000
,
101000
100000
000100
100000
000100
000100
000001
001000
,
000000
000100
001000
000001
000100
000001
001000
000000
,
000101
000101
001000
000001
000100
000100
100000
100000
,
000000
000001
000010
000001
010000
000001
000100
000100
,
000000
001000
000001
100000
000001
000001
001000
001000
,
000011
000011
000001
100000
000001
001000
000001
000000
,
000000
000100
000000
000100
000000
000101
000101
001000
,
101000
000000
000001
000000
000010
100000
000010
000000
,
000001
000000
000001
000000
001000
000100
001000
000000
,
100000
000000
000010
000000
000001
100000
000001
000000
,
001000
000000
000010
000000
000001
100000
000001
000000
,
100000
000000
000001
000000
001000
000001
100000
001000
,
000100
000100
001000
000000
000001
000001
100000
000001
,
001000
001000
100000
100000
000100
100000
000100
100000
,
010010
000000
000000
000000
;

//---------------dance-single - ----------------
#NOTEDATA:;
#CHARTNAME:;
#STEPSTYPE:dance-single;
#DESCRIPTION:;
#CHARTSTYLE:;
#DIFFICULTY:Challenge;
#METER:13;
#RADARVALUES:0.629744,0.628195,0.224492,0.020408,0.377555,432.000000,410.000000,22.000000,2.000000,0.000000,0.000000,0.000000,0.000000,0.000000,0.629744,0.628195,0.224492,0.020408,0.377555,432.000000,410.000000,22.000000,2.000000,0.000000,0.000000,0.000000,0.000000,0.000000;
#CREDIT:;
#DISPLAYBPM:125.000000;
#NOTES:
// measure 0
0000
0000
0000
0000
,  // measure 1
0000
0000
0000
0000
,  // measure 2
0000
0000
0000
0000
,  // measure 3
1000
0001
0100
0000
1000
0100
0010
0001
,  // measure 4
0000
0000
0010
0000
0000
0100
0000
0000
1000
0000
0000
0000
0001
0000
1000
0000
,  // measure 5
0010
0000
0100
0010
0100
0000
0000
0001
0000
0000
1001
0000
0000
0000
1010
0000
,  // measure 6
1000
0100
1000
0000
0100
0000
0000
1000
0100
0000
0000
0010
0001
0000
0010
0000
,  // measure 7
0001
0100
0001
0000
1000
0000
0000
0010
0000
0000
0110
0000
0000
0000
0101
0000
,  // measure 8
0001
0010
0100
1000
0001
0000
1000
0000
0001
0000
0010
0000
0100
1000
0100
1000
,  // measure 9
0100
0000
1000
0010
0100
0000
0001
0000
1000
0100
1000
0100
1000
0000
0001
0000
,  // measure 10
0010
0001
1000
0000
0001
0000
0100
0000
0001
0010
0001
0010
0001
0000
1000
0001
,  // measure 11
0100
0000
0001
1000
0010
0100
0010
0000
1000
0100
1000
0100
1000
0000
0100
0000
,  // measure 12
1000
0010
0100
0000
0001
0000
0010
0000
0100
1000
0001
0010
0100
0000
1000
0010
,  // measure 13
0100
0000
0010
0001
0100
0000
0001
0000
1000
0100
0010
0001
1000
0000
0001
0000
,  // measure 14
0010
0100
0010
0000
0001
0000
0100
0000
0010
1000
0100
1000
0010
0000
0100
0000
,  // measure 15
0001
1000
0100
0000
0010
0000
0001
0000
1000
0010
1000
0001
1000
0000
0001
0000
,  // measure 16
0100
0000
0010
0001
1000
0000
0001
0000
1000
0001
0100
0001
0010
0000
0000
0000
,  // measure 17
0011
0000
0100
0000
0001
1000
0100
0010
,  // measure 18
0000
0101
0000
0011
0000
1100
0000
1010
,  // measure 19
1010
0000
0000
1000
0100
0010
0001
1000
,  // measure 20
0000
0000
0101
0000
0000
0000
1010
0000
0000
0000
0101
0000
0001
0000
1000
0001
,  // measure 21
0100
0000
0001
0000
1000
0000
0100
1000
0010
0000
0100
0000
0001
0000
0010
0001
,  // measure 22
0100
0000
0001
0000
1000
0000
0100
1000
0010
0000
0100
0000
0001
0000
1000
0100
,  // measure 23
0010
0000
0001
0000
0010
0000
0001
0000
1000
0000
0010
0000
1000
0000
0010
1000
,  // measure 24
0001
0000
0100
0000
0010
0000
1000
0000
0001
0010
0100
1000
0001
0000
1000
0001
,  // measure 25
1000
0000
0001
0000
0100
0000
0010
0000
1000
0000
0100
1000
0100
0000
1000
0000
,  // measure 26
0010
0000
0100
0001
0100
0000
0001
1000
0001
0000
1000
0100
0010
0000
0010
0001
,  // measure 27
0010
0000
0001
0000
0100
0000
0010
0000
1000
0000
0001
1000
0100
0000
0010
0000
,  // measure 28
0001
0000
1000
0000
0010
0000
0100
0000
0001
0000
0010
0001
0010
0000
0100
0000
,  // measure 29
1000
0000
0001
1000
0010
0000
0100
0000
0001
0000
1000
0000
0010
0100
0010
0000
,  // measure 30
0100
0001
1000
0100
0010
0010
0001
0001
,  // measure 31
1001
0101
1001
1100
,  // measure 32
1010
0101
0011
1100
,  // measure 33
1000
0100
1000
0100
0010
0100
0010
0100
,  // measure 34
0001
0000
0100
0000
0001
0000
0100
0000
1000
0000
0100
0000
0010
0000
0001
1000
,  // measure 35
0001
0010
0001
0010
0100
0010
0100
0010
,  // measure 36
1000
0000
0010
0000
1000
0000
0010
0000
0100
0000
0010
0000
0001
0000
1000
0001
,  // measure 37
0010
1000
0010
1000
0100
1000
0100
1000
,  // measure 38
0001
0000
1000
0000
0001
0000
1000
0000
0010
0000
1000
0000
0001
0000
1000
0100
,  // measure 39
0010
0001
0010
0001
0100
0001
0100
0001
,  // measure 40
1000
0000
0001
0000
1000
0000
0001
0000
0100
0000
0001
0000
0010
0000
0001
1000
,  // measure 41
0100
0000
0100
0000
1000
0000
1000
0000
0001
0000
0001
1000
0001
0000
1000
0001
,  // measure 42
0100
0000
0100
0000
0001
0000
0001
0000
1000
0000
1000
0001
0100
0000
0001
1000
,  // measure 43
0010
0000
0010
0000
1000
0000
1000
0000
0001
0000
0001
1000
0010
0000
1000
0001
,  // measure 44
0010
0000
0010
0000
0001
0000
0001
0000
1000
0000
1000
0001
0010
0000
0100
0000
,  // measure 45
1000
0000
1000
0000
0001
0000
0001
0000
0100
0000
0001
0100
0010
0000
0100
0010
,  // measure 46
1000
0000
1000
0000
0001
0000
0001
0000
0010
0000
0001
0010
0100
0000
0010
1000
,  // measure 47
0100
0000
0100
0000
0010
0000
0010
0000
0001
0000
1000
0001
0100
0000
0001
0100
,  // measure 48
0010
0010
0100
0100
0001
0001
1000
1000
,  // measure 49
2002
3003
0000
0000
;
