#VERSION:0.83;
#TITLE:I Like To Move It;
#SUBTITLE:;
#ARTIST:Reel 2 Real;
#TITLETRANSLIT:;
#SUBTITLETRANSLIT:;
#ARTISTTRANSLIT:;
#GENRE:;
#ORIGIN:;
#CREDIT:;
#BANNER:I Like To Move It.png;
#BACKGROUND:I Like To Move It-bg.png;
#PREVIEWVID:;
#JACKET:I Like To Move It-jacket.png;
#CDIMAGE:;
#DISCIMAGE:;
#LYRICSPATH:;
#CDTITLE:;
#MUSIC:I Like To Move It.ogg;
#OFFSET:0.000000;
#SAMPLESTART:68.320000;
#SAMPLELENGTH:15.000000;
#SELECTABLE:YES;
#DISPLAYBPM:123.000000;
#BPMS:0.000=122.990;
#STOPS:;
#DELAYS:;
#WARPS:;
#TIMESIGNATURES:0.000=4=4;
#TICKCOUNTS:0.000=4;
#COMBOS:0.000=1;
#SPEEDS:0.000=1.000=0.000=0;
#SCROLLS:0.000=1.000;
#FAKES:;
#LABELS:0.000=Song Start;
#BGCHANGES:;
#KEYSOUNDS:;
#ATTACKS:
;

//---------------dance-single - ----------------
#NOTEDATA:;
#CHARTNAME:;
#STEPSTYPE:dance-single;
#DESCRIPTION:;
#CHARTSTYLE:;
#DIFFICULTY:Easy;
#METER:6;
#RADARVALUES:0.184955,0.275506,0.215781,0.236331,0.000000,126.000000,105.000000,21.000000,23.000000,0.000000,0.000000,0.000000,0.000000,0.000000,0.184955,0.275506,0.215781,0.236331,0.000000,126.000000,105.000000,21.000000,23.000000,0.000000,0.000000,0.000000,0.000000,0.000000;
#CREDIT:;
#DISPLAYBPM:123.000000;
#NOTES:
0000
0000
0000
0000
,
0000
0000
0000
0000
,
0000
0000
0000
0000
,
0000
0000
0000
0000
,
0000
0000
0000
0000
,
0010
0000
1000
0000
,
0001
0000
0000
1001
,
0010
0000
0100
0100
,
0001
0000
1000
0100
,
1000
1000
0010
0001
,
0100
0100
0010
1001
,
2002
3003
0000
0000
,
0220
0330
0000
0000
,
0022
0033
0000
0000
,
2002
3003
0000
0000
,
0010
0000
0002
0003
,
0100
0000
2000
3000
,
0001
0000
1000
0000
,
0010
0001
1000
0100
,
0010
0002
0003
1001
,
2000
3000
0100
0110
,
0001
0100
1000
0001
,
1001
0000
0110
0000
,
0020
0030
0000
0010
,
2000
3000
0002
0003
,
0010
0000
0100
0000
,
0001
0001
1000
0000
,
0110
0000
1001
0000
,
0010
0100
1001
0000
,
0002
0000
0003
0000
,
0200
0000
0300
0000
,
0001
0000
1000
0000
,
0010
0100
0110
0000
,
0100
0000
0010
0000
,
1000
0001
1001
0000
,
0110
0000
0010
0010
,
1001
0000
0100
0100
,
2000
0000
3000
0000
,
0002
0000
0003
0110
,
0010
1000
0001
1001
,
0000
0100
0010
0110
,
0002
0003
2000
3000
,
0001
1000
0001
0110
,
0020
0000
0030
0000
,
0200
0000
0300
0000
,
0001
0000
1000
0000
,
0010
0000
0100
0000
,
0010
1000
0001
0000
,
0100
0100
0100
0100
;

//---------------dance-single - ----------------
#NOTEDATA:;
#CHARTNAME:;
#STEPSTYPE:dance-single;
#DESCRIPTION:;
#CHARTSTYLE:;
#DIFFICULTY:Medium;
#METER:8;
#RADARVALUES:0.262753,0.356038,0.164404,0.267157,0.000000,179.000000,163.000000,16.000000,26.000000,0.000000,0.000000,0.000000,0.000000,0.000000,0.262753,0.356038,0.164404,0.267157,0.000000,179.000000,163.000000,16.000000,26.000000,0.000000,0.000000,0.000000,0.000000,0.000000;
#CREDIT:;
#DISPLAYBPM:123.000000;
#NOTES:
0000
0000
0000
0000
,
0000
0000
0000
0000
,
0000
0000
0000
0000
,
0000
0000
0000
0000
,
0001
0000
1000
0000
,
0001
0000
0100
0000
,
0010
0010
0100
1001
,
0010
0100
0001
1000
,
0001
1000
0100
0010
,
0001
1100
0010
0001
,
1000
0011
0100
1000
,
0010
0000
0020
0030
,
0100
0000
0200
0300
,
0002
0000
0000
0103
,
2000
0000
0000
3010
,
0002
0003
2000
3000
,
0020
0030
0200
0300
,
0001
0100
2000
3000
,
0010
0001
0100
0001
,
1000
0010
1000
0000
0001
0100
0010
0000
,
0001
1000
0011
1100
,
0010
0001
1000
0000
0100
0010
0001
0000
,
2002
0000
3003
0000
1000
0010
0001
0000
,
1000
1100
0001
0101
,
0010
1000
0010
0100
0001
0000
0100
0000
,
0010
0011
0100
1100
,
0010
0001
0001
0000
1000
0001
0100
0000
,
0010
2000
0100
3001
,
0002
1000
0013
0100
,
0002
0003
0200
0300
,
0020
0030
2000
3001
,
0020
0000
0130
0000
,
0010
0010
1000
0001
,
0200
0000
0301
0000
,
0001
1000
1001
0110
,
0010
0000
0001
0000
1000
0100
1000
0000
,
0001
0000
1000
0000
0010
1000
0100
0000
,
0010
0010
0100
0100
,
0001
1000
0010
1001
,
0110
0000
1000
0000
0100
0001
1000
0000
,
1001
0000
0100
0000
0010
0001
1000
0000
,
0001
0100
1000
0100
,
0001
0100
0010
0000
1000
0001
1001
0000
,
0020
0000
0000
1030
,
0200
0000
0000
0310
,
0002
1003
0200
0310
,
1000
0100
0010
0001
,
1000
0200
0000
0300
,
0010
0200
0000
0300
,
0020
0000
0030
0000
;

//---------------dance-single - ----------------
#NOTEDATA:;
#CHARTNAME:;
#STEPSTYPE:dance-single;
#DESCRIPTION:;
#CHARTSTYLE:;
#DIFFICULTY:Hard;
#METER:10;
#RADARVALUES:0.347891,0.432332,0.236331,0.421286,0.005138,237.000000,214.000000,23.000000,41.000000,0.000000,0.000000,0.000000,0.000000,0.000000,0.347891,0.432332,0.236331,0.421286,0.005138,237.000000,214.000000,23.000000,41.000000,0.000000,0.000000,0.000000,0.000000,0.000000;
#CREDIT:;
#DISPLAYBPM:123.000000;
#NOTES:
0000
0000
0000
0000
,
0000
0000
0000
0000
,
0000
0000
0000
0000
,
0000
0000
0000
0000
,
0000
0000
0000
0000
,
0001
0010
0100
0000
0002
0000
1003
0000
,
0010
1000
0100
0000
0020
0000
0130
0000
,
0001
0100
0010
1000
0200
0000
0310
0000
,
2000
0000
3100
0000
0001
0100
1000
0000
,
0010
0001
0100
0000
0002
0000
0013
0000
,
1000
0100
1000
0000
0001
1000
0010
0000
,
2002
0000
3003
0010
,
0020
0000
0200
0330
,
0001
1000
0001
0000
2000
0000
3000
0000
,
0010
0100
0001
1000
0100
0000
1000
0000
,
0002
0000
0100
1003
,
2000
0100
0001
3010
,
0002
1003
0210
0301
,
0020
0100
0130
0000
2000
0010
3010
0000
,
0010
0000
0010
1000
0001
0000
1001
0000
,
0010
0100
0001
0010
1000
0001
0100
0000
,
0010
0000
0010
0100
0001
1000
0010
0000
,
0001
0011
1000
1100
,
0001
1000
0001
0000
0100
0001
1000
0000
,
0010
1000
0010
0100
0001
0001
1000
0000
,
0020
1030
0200
0301
,
0010
0100
0001
0010
0001
1000
0100
0000
,
2020
3030
0220
0330
,
0002
0203
0320
2030
,
3001
0000
1000
0000
0001
0010
1000
0000
,
0100
0000
0010
0000
0001
1000
0100
0000
,
0220
0000
0330
1000
,
0022
0000
0033
0000
0100
0001
0010
1000
,
0010
0000
0100
0010
0001
1000
0100
0000
,
1001
1100
0011
0110
,
0001
0010
0100
1000
0001
0100
0010
0000
,
1000
0100
1000
0000
0010
0001
0100
0000
,
0020
0031
2000
3100
,
0010
0000
0010
1000
0001
0100
0010
0000
,
1000
0100
1000
0001
0010
0001
0100
0000
,
0011
0011
2000
3100
,
0010
0001
0100
0010
1000
0001
0100
0010
,
1000
0100
0010
0001
1000
0000
1001
0000
,
0220
0000
0000
0330
,
0002
0023
0230
2300
,
3002
0010
1000
0103
,
1010
0101
1100
0011
,
1001
0010
0010
0010
,
0100
0000
0100
0000
1100
0000
0100
0010
,
0000
0010
0000
0000
0020
0000
0000
0000
0030
0000
0000
0000
0000
0000
0000
0000
;

//---------------dance-double - ----------------
#NOTEDATA:;
#CHARTNAME:;
#STEPSTYPE:dance-double;
#DESCRIPTION:;
#CHARTSTYLE:;
#DIFFICULTY:Easy;
#METER:3;
#RADARVALUES:0.195230,0.250460,0.092477,0.041101,0.000000,133.000000,124.000000,9.000000,4.000000,0.000000,0.000000,0.000000,0.000000,0.000000,0.195230,0.250460,0.092477,0.041101,0.000000,133.000000,124.000000,9.000000,4.000000,0.000000,0.000000,0.000000,0.000000,0.000000;
#CREDIT:;
#DISPLAYBPM:123.000000;
#NOTES:
00000000
00000000
00000000
00000000
,
00000000
00000000
00000000
00000000
,
00000000
00000000
00000000
00000000
,
00000000
00000000
00000000
00000000
,
00000000
00000000
00000000
00000000
,
00010000
00000000
10000000
00000000
,
00100000
10000000
10010000
00000000
,
10010000
00000000
01000000
00000000
,
00010000
00000000
00001000
00000000
,
00000010
00000000
00000001
00000000
,
00001000
00001000
00000001
00001001
,
00000110
00000000
00001000
00000000
,
00001000
00000000
00000001
00000001
,
00000100
00000000
00010000
00000000
,
00100000
00000000
00010000
10000000
,
01000000
00000000
00100000
00000000
,
00010000
00000000
10000000
00000000
,
01000000
00000000
00010000
00000000
,
00100000
00100000
01000000
01000000
,
10010000
00000000
01000000
00010000
,
00000000
00001000
00000100
00000001
,
00000000
00000010
00000100
00001000
,
00000000
00001000
00000001
00000100
,
00000020
00000000
00000030
00001000
,
00000002
00000000
00000003
00000010
,
00002000
00000000
00003000
00010000
,
00002000
00000000
00003000
00010000
,
00010000
01000000
10000000
00010000
,
00010000
10000000
00100000
01000000
,
01000000
00010000
10000000
01000000
,
00010000
00010000
00001000
00000100
,
00001001
00000000
00000100
00000100
,
00000001
00001000
00000010
00000010
,
00000100
00000000
00000001
00001000
,
00000100
00000000
00000010
00000001
,
00001001
00000000
00000100
00000010
,
00000001
00000000
00000100
00001000
,
00010000
00000000
00100000
10000000
,
00010000
00000000
00000000
10010000
,
00000000
01000000
00000000
01000000
,
00010000
00000000
10000000
00100000
,
00010000
00000000
00001000
00000010
,
00000001
00000100
00000000
00001001
,
00000000
00000100
00000000
00000100
,
00000010
00000010
00000001
00001000
,
00000100
00000000
00000100
00000000
,
00000010
00000001
00000100
00001000
,
00001000
00000000
00010000
00000000
,
01000000
10000000
00010000
01000000
;

//---------------dance-double - ----------------
#NOTEDATA:;
#CHARTNAME:;
#STEPSTYPE:dance-double;
#DESCRIPTION:;
#CHARTSTYLE:;
#DIFFICULTY:Medium;
#METER:5;
#RADARVALUES:0.262753,0.326433,0.082202,0.071927,0.000000,179.000000,171.000000,8.000000,7.000000,0.000000,0.000000,0.000000,0.000000,0.000000,0.262753,0.326433,0.082202,0.071927,0.000000,179.000000,171.000000,8.000000,7.000000,0.000000,0.000000,0.000000,0.000000,0.000000;
#CREDIT:;
#DISPLAYBPM:123.000000;
#NOTES:
00000000
00000000
00000000
00000000
,
00000000
00000000
00000000
00000000
,
00000000
00000000
00000000
00000000
,
00000000
00000000
00000000
00000000
,
00000000
00000000
00000000
00000000
,
10000000
00100000
01000000
00010000
,
00001000
00000010
00000100
00001001
,
00000010
00000100
00001000
00000001
,
00000001
00001000
00000010
00000100
,
00000001
00000010
00001000
00010000
,
00100000
10000000
00010000
01100000
,
20000000
00000000
00000000
30000000
,
02000000
00000000
00000000
03000000
,
00200000
00000000
00000000
00300000
,
00002000
00000000
00000000
00003000
,
00010000
00000000
00001000
00000000
,
00000010
00000000
00000001
00000000
,
00001000
00000000
00000001
00000000
,
00000100
00001000
00010000
01000000
,
10010000
00000000
01000000
00000000
00100000
01000000
00100000
00000000
,
10000000
01000000
00010000
00000000
00001000
00000000
00000100
00000000
,
00001001
00000000
00000010
00000000
00000100
00001000
00000100
00000000
,
00000010
00000001
00000100
00000000
00001000
00000000
00010000
00000000
,
00011000
00000000
01000000
00000000
00100000
00000000
10000000
01000000
,
10000000
00000000
00010000
00000000
00100000
00000000
00001000
00010000
,
00001000
00000000
00000100
00000000
00000001
00000000
00000010
00000100
,
00000010
00000000
00000001
00000000
00001000
00000000
00000010
00000100
,
00000001
00000000
00000010
00000000
00000100
00000000
00001000
00000001
,
00000100
00000000
00001000
00000000
00100000
00010000
01000000
00100000
,
10000000
00000000
01000000
00000000
00100000
00000000
00010000
10000000
,
01000000
00000000
00100000
00000000
00010000
01000000
00100000
10000000
,
01000000
00000000
00000000
00000000
00100000
00000000
00010000
10000000
,
01000000
00000000
00000000
00000000
00010000
00000000
00001000
00000100
,
00000001
00000000
00000000
00000000
00000010
00000000
00000100
00001000
,
00000010
00000000
00000100
00000000
,
00001001
00000000
00000100
00000000
00000010
00000000
00001000
00000001
,
00000010
00001000
00010000
00100000
,
10000000
00010000
00100000
01000000
,
10000000
10000000
00010000
01100000
,
10000000
00100000
01000000
00010000
,
00000010
00000000
00000001
00000000
00001000
00000001
00000100
00000000
,
00000010
00001000
00000100
00000010
,
00000001
00000100
00000010
00001001
,
00000010
00000010
00000001
00000001
,
00001000
00001000
00010000
00010000
,
10000000
10000000
00100000
00100000
,
01000000
01000000
00010000
10000000
,
00020000
00030000
02000000
03000000
,
00002000
00000000
00003000
00000000
00000010
00000001
00001000
00000100
;

//---------------dance-double - ----------------
#NOTEDATA:;
#CHARTNAME:;
#STEPSTYPE:dance-double;
#DESCRIPTION:;
#CHARTSTYLE:;
#DIFFICULTY:Hard;
#METER:7;
#RADARVALUES:0.384589,0.483195,0.174680,0.123303,0.010275,262.000000,245.000000,17.000000,12.000000,0.000000,0.000000,0.000000,0.000000,0.000000,0.384589,0.483195,0.174680,0.123303,0.010275,262.000000,245.000000,17.000000,12.000000,0.000000,0.000000,0.000000,0.000000,0.000000;
#CREDIT:;
#DISPLAYBPM:123.000000;
#NOTES:
00000000
00000000
00000000
00000000
,
00000000
00000000
00000000
00000000
,
00000000
00000000
00000000
00000000
,
00000000
00000000
00000000
00000000
,
00000000
00000000
00000000
00000000
,
00000001
00000000
00001000
00000000
,
00000010
00001000
00000100
00001001
,
00000010
00000000
00000010
00000000
00001000
00000000
00001000
00000001
,
00000100
00000000
00001000
00000000
00001000
00010000
00001000
01000000
,
10000000
00000000
10000000
00000000
01000000
00000000
00010000
00100000
,
01000000
00000000
01000000
00000000
10000000
00100000
01000000
00020000
,
00100000
00000000
00100000
00000000
01030000
00000000
01000000
00100000
,
20000000
00000000
01000000
00000000
31000000
00100000
00001000
00010000
,
00000200
00000000
00000010
00000000
00000010
00000000
00000310
00000001
,
00002000
00000000
00000100
00000000
00003010
00000100
00000001
00001000
,
00000100
00000000
00000100
00000000
00000010
00000000
00000001
00000100
,
00001000
00000000
00010000
00000000
00010000
01000000
10000000
00010000
,
01000000
00000000
01000000
00000000
00100000
00000000
10000000
01000000
,
00010000
01000000
01100000
10010000
,
00100000
01000000
00100000
00000000
10000000
00010000
10000000
00000000
,
00100000
01000000
00100000
10000000
01000000
00010000
00001000
00000000
,
00000010
00000100
00001000
00000000
00000001
00000100
00000010
00000000
,
00001000
00000001
00000010
00000100
00001000
00000010
00000100
00000000
,
00001001
00000000
00010000
00000000
00001000
00000000
01000000
00200000
,
10000000
00000000
00010000
00000000
10000000
00000000
01300000
00010000
,
20000000
00000000
01000000
00000000
00100000
00000000
31000000
00100000
,
00002000
00010000
00010000
00013000
,
00011000
00000000
00000110
00000000
00000001
00001000
00000100
00000000
,
00000011
00000000
00001100
00000000
00000010
00000001
00000100
00000010
,
00010000
00000000
00000100
00000000
00010000
00001000
00010000
00000000
,
00100000
01000000
00010000
00100000
01000000
10000000
00010000
01000000
,
10000000
00000000
01000000
00000000
00010000
10000000
00010000
00000000
,
00100000
10000000
00100000
01000000
00010000
00100000
00010000
00000000
,
10100000
00000000
01010000
00000000
00001000
00000010
00000001
00000000
,
00001000
00000100
00001000
00000000
00000001
00000100
00000001
00000000
00001010
00000000
00000000
00000000
00000101
00000000
00000000
00000000
,
00001001
00001000
00000100
00000010
00000001
00001000
00000100
00001000
,
00000000
00000001
00000010
00000100
00000010
00000001
00001000
00000100
,
00000000
00000001
00000010
00001000
00010000
00100000
10000000
01000000
,
00000000
00100000
00010000
01000000
00000000
00000000
10010000
00000000
,
00000000
00000000
01000000
00000000
00010000
10000000
00100000
02000000
,
00000000
03010000
10000000
00100000
00010000
00001000
00000100
00000002
,
00000000
00000013
00001000
00000010
00000001
00000100
00000010
00002000
,
00000000
00003001
00000100
00000010
00000000
00000000
00001001
00000000
,
00000110
00000000
00001000
00000000
00010000
00000000
00100000
10000000
,
00100000
00000000
01000000
00000000
00010000
10000000
00100000
00010000
,
00100000
00000000
10000000
00000000
00010000
00000000
00000010
00000100
,
00001000
00000000
00000001
00000000
00000010
00001000
00010000
00001000
,
00200000
00000000
10000000
00000000
00310000
00000000
01000000
00100000
,
10000000
00000000
00010000
00000000
00011000
00000000
00000010
00000200
,
00000000
00000000
00000300
00000000
;

//---------------dance-single - ----------------
#NOTEDATA:;
#CHARTNAME:;
#STEPSTYPE:dance-single;
#DESCRIPTION:;
#CHARTSTYLE:;
#DIFFICULTY:Beginner;
#METER:2;
#RADARVALUES:0.102753,0.177120,0.010275,0.236331,0.000000,70.000000,69.000000,1.000000,23.000000,0.000000,0.000000,0.000000,0.000000,0.000000,0.102753,0.177120,0.010275,0.236331,0.000000,70.000000,69.000000,1.000000,23.000000,0.000000,0.000000,0.000000,0.000000,0.000000;
#CREDIT:;
#DISPLAYBPM:123.000000;
#NOTES:
0000
0000
0000
0000
,
0000
0000
0000
0000
,
0000
0000
0000
0000
,
0000
0000
0000
0000
,
0000
0000
0000
0000
,
0001
0000
1000
0000
,
2002
0000
0000
3003
,
0000
0001
0000
0001
,
0000
0100
0000
0100
,
0000
0010
0000
0010
,
0000
1000
0000
1000
,
0200
0000
0000
0000
,
0300
0000
0000
0000
,
0020
0000
0000
0000
,
0030
0000
0000
0000
,
0002
0000
0000
0000
,
0003
0000
0000
0000
,
2000
0000
0000
0000
,
3000
0000
0000
0000
,
0010
0000
0010
0000
,
0100
0000
0100
0000
,
0001
0000
1000
0000
,
0001
0000
1000
0000
,
0100
0000
0010
0000
,
0001
0000
0100
0000
,
0010
0000
1000
0000
,
0100
0000
0010
0000
,
0002
0003
0020
0030
,
1000
0000
0010
0000
,
0002
0003
0200
0300
,
1000
0000
0100
0000
,
0002
0003
2000
3000
,
0010
0000
0100
0000
,
2000
3000
0002
0003
,
0100
0100
0100
0100
,
0200
0000
0000
0300
,
0020
0000
0000
0030
,
2000
0000
0000
3000
,
0002
0000
0000
0003
,
0020
0000
0000
0030
,
0200
0000
0000
0300
,
2000
0000
0000
3000
,
0002
0000
0000
0003
,
0000
0100
0000
0100
,
0000
0010
0000
1000
,
0000
0001
0000
0100
,
0000
0010
0000
1000
,
0000
0001
0000
0001
,
0000
0100
0020
0000
,
0000
0030
0000
0000
;

//---------------dance-single - ----------------
#NOTEDATA:;
#CHARTNAME:;
#STEPSTYPE:dance-single;
#DESCRIPTION:;
#CHARTSTYLE:;
#DIFFICULTY:Challenge;
#METER:14;
#RADARVALUES:0.515232,0.607269,0.421286,0.082202,0.282570,351.000000,310.000000,41.000000,8.000000,116.000000,0.000000,0.000000,0.000000,0.000000,0.515232,0.607269,0.421286,0.082202,0.282570,351.000000,310.000000,41.000000,8.000000,116.000000,0.000000,0.000000,0.000000,0.000000;
#CREDIT:;
#DISPLAYBPM:123.000000;
#NOTES:
// measure 0
0000
0000
0000
0000
,  // measure 1
0000
0000
0000
0000
,  // measure 2
0000
0000
0000
0000
,  // measure 3
0000
0000
0000
0000
,  // measure 4
0000
0000
0000
0000
,  // measure 5
0001
1000
0010
1000
1100
1000
1001
0001
,  // measure 6
MMMM
1000
0100
0010
0001
0000
1001
1001
,  // measure 7
MMMM
0010
0100
1000
1001
0001
0101
0100
,  // measure 8
MMMM
0100
0010
1000
1001
0001
0011
0010
,  // measure 9
MMMM
0010
0001
1000
1100
1000
1001
0001
,  // measure 10
MMMM
0001
1000
0010
0100
0000
0110
0110
,  // measure 11
0020
0000
0000
0000
0100
0000
0000
0000
0100
0000
0000
0100
0000
0000
0130
0000
,  // measure 12
0002
0000
0000
0000
1000
0000
0000
0000
1000
0000
0000
1000
0000
0000
1000
0000
,  // measure 13
2003
0000
0000
0000
0100
0000
0000
0000
0100
0000
0000
0100
0000
0000
0100
0000
,  // measure 14
3200
0000
0000
0000
0010
0000
0000
0000
0010
0000
0000
0010
0000
0000
0010
0000
,  // measure 15
0320
0000
0000
0000
0001
0000
0000
0000
0100
0000
0000
0001
0000
0000
0001
0000
,  // measure 16
0032
0000
0000
0000
0100
0000
0000
0000
0010
0000
0000
1000
0000
0000
0100
0000
,  // measure 17
2003
0000
0000
0000
0100
0000
0000
0000
0001
0000
0000
0010
0000
0000
0001
0000
,  // measure 18
3020
0000
0100
0000
0100
0000
0100
0100
,  // measure 19
0130
0010
0001
MMMM
0001
0010
0100
1000
,  // measure 20
0001
1000
0010
0100
0001
1000
0100
0010
,  // measure 21
0100
1000
0001
MMMM
0100
0010
1000
0001
,  // measure 22
0010
0001
0100
0010
1000
0001
1000
0100
,  // measure 23
0010
0001
0010
0000
0011
0000
MMMM
0000
0001
0100
0001
0000
0101
0000
MMMM
0000
,  // measure 24
0100
1000
0100
0000
1000
0010
1000
0000
0100
1000
0100
0010
0100
0000
1000
MMMM
,  // measure 25
0100
1000
0100
0000
1100
0000
MMMM
0000
1000
0010
1000
0000
1010
0000
MMMM
0000
,  // measure 26
0010
1000
0010
0000
0100
1000
0100
0000
0010
1000
0100
1000
0010
0000
0100
MMMM
,  // measure 27
0001
MMMM
0011
MMMM
0100
1000
0001
MMMM
,  // measure 28
1000
0010
1000
0000
0100
0001
0100
0000
1000
0010
0100
0001
0100
0000
1000
MMMM
,  // measure 29
0100
0000
MMMM
0000
1100
0000
MMMM
0000
0100
1000
0100
1000
0010
0000
0100
MMMM
,  // measure 30
0001
0010
0001
0010
0001
0100
0001
0100
0001
0000
1000
0000
0100
0000
1000
MMMM
,  // measure 31
0100
0000
0000
0000
0101
0000
0000
0000
0100
0010
0100
0010
0100
0000
0010
0000
,  // measure 32
1000
0010
1000
0000
0100
0001
0100
0000
1000
0010
0100
0001
1000
0000
0001
0000
,  // measure 33
1000
0000
0000
0000
1100
0000
0000
0000
1000
0100
0010
0001
0010
0100
1000
0000
,  // measure 34
1001
0000
1100
0000
0101
0000
0011
0010
,  // measure 35
0001
0100
0010
1000
1100
1000
1001
0001
,  // measure 36
MMMM
0001
1000
0100
0110
0010
0011
0001
,  // measure 37
MMMM
0001
0010
0100
1100
1000
1010
0010
,  // measure 38
MMMM
0010
0100
0001
1000
0000
1001
1001
,  // measure 39
MMMM
1000
0100
0001
0100
1000
0100
0001
,  // measure 40
MMMM
0001
0100
1000
0100
0001
0100
1000
,  // measure 41
MMMM
1000
0010
0001
0010
1000
0010
0001
,  // measure 42
MMMM
0001
0010
1000
0010
0000
0110
0110
,  // measure 43
0100
0000
0000
0000
1010
0000
0000
0000
1000
0000
0000
0001
0000
0000
0010
0000
,  // measure 44
0001
0000
0000
0000
0101
0000
0000
0000
0100
0000
0000
0010
0000
0000
1000
0000
,  // measure 45
0100
0000
0000
0000
1100
0000
0000
0000
1000
0000
0000
0001
0000
0000
0010
0000
,  // measure 46
0100
0000
0000
0000
1100
0000
0000
0000
1000
0000
0000
0010
0000
0000
0100
0000
,  // measure 47
0001
0000
0000
0000
0010
0000
0000
0010
0000
0010
0000
0010
0000
0000
0010
0000
,  // measure 48
0000
MMMM
0000
0000
0001
0000
0000
1000
0000
1000
0000
1000
0000
0000
1001
0000
,  // measure 49
0000
0101
0000
0000
1001
0000
0000
0000
0000
0000
0000
0000
0000
0000
0000
0000
;
