#TITLE:I Know You Want Me (Calle Ocho);
#SUBTITLE:;
#ARTIST:Pitbull;
#TITLETRANSLIT:;
#SUBTITLETRANSLIT:;
#ARTISTTRANSLIT:;
#GENRE:;
#CREDIT:;
#BANNER:I Know You Want Me (Calle Ocho).png;
#BACKGROUND:I Know You Want Me (Calle Ocho)-bg.png;
#LYRICSPATH:;
#CDTITLE:;
#MUSIC:I Know You Want Me (Calle Ocho).ogg;
#OFFSET:0.000000;
#SAMPLESTART:16.922001;
#SAMPLELENGTH:15.000000;
#SELECTABLE:YES;
#DISPLAYBPM:127.000000;
#BPMS:0.000000=126.999992
,32.000000=127.050003
;
#STOPS:
;
#BGCHANGES:;
#KEYSOUNDS:;
#ATTACKS:;

//---------------dance-single - ----------------
#NOTES:
     dance-single:
     :
     Beginner:
     2:
     0.100477,0.197751,0.000000,0.000000,0.000000,69.000000,69.000000,0.000000,0.000000,0.000000,0.000000,0.100477,0.197751,0.000000,0.000000,0.000000,69.000000,69.000000,0.000000,0.000000,0.000000,0.000000:
0000
0000
0000
0000
,
0000
0000
0000
0000
,
0000
0000
0000
0000
,
0000
0000
0000
0000
,
0000
0000
0000
0000
,
0000
0000
0000
0000
,
0000
0000
0000
0000
,
0000
0000
0000
0000
,
0000
0000
0000
0000
,
0001
0000
0001
0000
,
1000
0000
1000
0000
,
1000
0000
0000
0000
,
0001
0000
0000
0000
,
0010
0000
0000
0000
,
0100
0000
0000
0000
,
1000
0000
1000
0000
,
1000
0000
0000
0000
,
0001
0000
1000
0000
,
0000
0000
0000
0000
,
0001
0000
0001
0000
,
1000
0000
1000
0000
,
1000
1000
1000
1000
,
1000
1000
1000
0000
,
0001
0001
0001
0001
,
0001
0001
0001
0000
,
0010
0010
0010
0010
,
0010
0010
0010
0000
,
1000
0000
0001
0000
,
0100
0000
0000
0000
,
1000
0000
0000
0000
,
1000
0000
0000
0000
,
0001
0000
0000
0000
,
0010
0000
0000
0000
,
0001
0000
0000
0000
,
0001
0000
0000
0000
,
1000
0000
0000
0000
,
0010
0000
0000
0000
,
0001
0000
0001
0000
,
1000
0000
1000
0000
,
0001
0000
0000
0000
,
1000
0000
0000
0000
,
0010
0000
0000
0000
,
0100
0000
0000
0000
,
0001
0000
0001
0000
,
0001
0000
0000
0000
,
1000
0000
0001
0000
,
1000
0001
1000
0000
,
0001
0000
0001
0000
,
1000
0000
1000
0000
;

//---------------dance-single - ----------------
#NOTES:
     dance-single:
     :
     Easy:
     4:
     0.141251,0.223617,0.000000,0.000000,0.000000,97.000000,97.000000,0.000000,0.000000,0.000000,0.000000,0.141251,0.223617,0.000000,0.000000,0.000000,97.000000,97.000000,0.000000,0.000000,0.000000,0.000000:
0000
0000
0000
0000
,
0000
0000
0000
0000
,
0000
0000
0000
0000
,
0000
0000
0000
0000
,
0000
0000
0000
0000
,
0000
0000
0000
0000
,
0000
0000
0000
0000
,
0000
0000
0000
0000
,
0000
0000
0000
0000
,
1000
0000
0100
0000
,
1000
0010
1000
0010
,
1000
1000
0000
0000
,
0100
0100
0000
0000
,
0001
0001
0000
0000
,
0100
0100
0000
0000
,
1000
0000
1000
0000
,
0010
0000
0010
0000
,
0001
0000
0001
0000
,
1000
0001
1000
0000
,
0001
0000
0100
0000
,
0010
0001
0010
0001
,
1000
1000
0001
0001
,
0100
0100
0100
0000
,
0100
0100
0010
0010
,
0001
0001
0001
0000
,
0010
0010
1000
1000
,
0100
0100
0100
0000
,
1000
1000
0001
0001
,
0100
0000
0100
0000
,
1000
0000
0100
0000
,
0100
0000
1000
0000
,
0010
0000
0000
0000
,
0100
0000
0000
0000
,
0001
0000
0010
0000
,
0010
0000
0001
0000
,
0100
0000
0000
0000
,
0010
0000
0000
0000
,
0001
0000
0100
0000
,
0001
0010
0001
0010
,
0001
0001
0000
0000
,
0100
0100
0000
0000
,
1000
1000
0000
0000
,
0100
0100
0000
0000
,
0001
0000
0001
0000
,
0010
0000
0010
0000
,
1000
0000
1000
0000
,
0001
1000
0001
0000
,
1000
0000
0100
0000
,
0010
1000
0010
1000
;

//---------------dance-single - ----------------
#NOTES:
     dance-single:
     :
     Medium:
     7:
     0.256290,0.323002,0.163094,0.000000,0.000000,176.000000,160.000000,16.000000,0.000000,0.000000,0.000000,0.256290,0.323002,0.163094,0.000000,0.000000,176.000000,160.000000,16.000000,0.000000,0.000000,0.000000:
0000
0000
0000
0000
,
0000
0000
0000
0000
,
0000
0000
0000
0000
,
0000
0000
0000
0000
,
0000
0000
0000
0000
,
0000
0000
0000
0000
,
0000
0000
0000
0000
,
0000
0000
0000
0000
,
0000
0000
0000
0000
,
1000
1000
0101
0101
,
1000
0101
1000
0101
,
1000
0000
0010
0000
0000
1000
0001
0000
,
0100
0000
0000
0000
1000
0001
0100
0000
,
0001
0000
0010
0000
0000
0001
1000
0000
,
0100
0000
0000
0000
0001
1000
0100
0000
,
1000
0000
0100
0100
0010
0000
0100
0000
,
0010
0000
1000
1000
0100
0000
0001
0000
,
0100
0000
0001
0001
1000
0000
0100
0000
,
0001
0000
0010
0100
0100
0000
0000
0000
,
0010
0010
1001
1001
,
0010
1001
0010
1001
,
1000
1000
0001
0001
,
0100
0000
0100
0001
1000
0000
0000
0000
,
0100
0100
0010
0010
,
0001
0000
0100
0010
1000
0000
0000
0000
,
0010
0010
1000
1000
,
0100
0000
0010
0001
1000
0000
0000
0000
,
1000
1000
0001
0001
,
0100
0000
0100
0000
,
1000
0001
0100
1000
,
0001
0010
1000
0000
,
0010
0000
0000
0100
0000
1000
0001
0000
,
0100
0010
0010
0000
,
0001
1000
0100
0001
,
1000
0010
0001
0000
,
0010
0000
0000
0100
0000
0001
1000
0000
,
0100
0010
0010
0000
,
0001
0001
1100
1100
,
0001
1100
0001
1100
,
0001
0000
0010
0000
0000
0001
1000
0000
,
0100
0000
0000
0000
0001
1000
0100
0000
,
1000
0000
0010
0000
0000
1000
0001
0000
,
0100
0000
0000
0000
1000
0001
0100
0000
,
0001
0000
0100
0100
0010
0000
0100
0000
,
0010
0000
0001
0001
0100
0000
1000
0000
,
0100
0000
1000
1000
0001
0000
0100
0000
,
1000
0000
0010
0100
0100
0000
0000
0000
,
0100
0100
0110
0110
,
1000
0110
0001
0110
;

//---------------dance-single - ----------------
#NOTES:
     dance-single:
     :
     Hard:
     8:
     0.355312,0.372695,0.244641,0.000000,0.122320,244.000000,220.000000,24.000000,0.000000,0.000000,0.000000,0.355312,0.372695,0.244641,0.000000,0.122320,244.000000,220.000000,24.000000,0.000000,0.000000,0.000000:
0000
0000
0000
0000
,
0000
0000
0000
0000
,
0000
0000
0000
0000
,
0000
0000
0000
0000
,
0000
0000
0000
0000
,
0000
0000
0000
0000
,
0000
0000
0000
0000
,
0000
0000
0000
0000
,
0000
0000
0000
0000
,
1100
1010
0011
0101
,
1100
1000
0101
0001
,
1000
0000
0000
0100
0010
0000
0100
0000
0000
0000
1000
0000
0001
0000
0000
0000
,
0100
0000
0000
0010
1000
0000
0010
0000
1000
0000
0001
0000
0100
0000
0000
0000
,
0001
0000
0000
0100
0010
0000
0100
0000
0000
0000
0001
0000
1000
0000
0000
0000
,
0100
0000
0000
0010
0001
0000
0010
0000
0001
0000
1000
0000
0100
0000
0000
0000
,
1000
1000
0100
0100
0010
0001
0100
0000
,
0010
0010
1000
1000
0100
0010
0001
0000
,
0100
0100
0001
0001
1000
0010
0100
0000
,
0001
0001
0010
0100
0100
0000
0000
0000
,
1010
1100
0101
0011
,
1010
1000
0011
0001
,
1000
0000
0000
0100
1000
0000
0000
0000
0001
0000
0000
0100
0001
0000
0000
0000
,
1000
0000
0000
0100
1000
0000
0100
0000
1000
0000
0000
0000
0001
0000
0000
0000
,
0100
0000
0000
0001
0100
0000
0000
0000
0100
0000
0000
1000
0100
0000
0000
0000
,
0100
0000
0000
0001
0100
0000
0010
0000
1000
0000
0000
0000
0001
0000
0000
0000
,
1000
0000
0000
0001
0100
0000
0000
0000
0001
0000
0000
1000
0100
0000
0000
0000
,
1000
0000
0000
0001
0100
0000
0010
0000
1000
0000
0000
0000
0001
0000
0000
0000
,
1000
0000
0000
0100
1000
0000
0000
0000
0001
0000
0000
0100
0001
0000
0000
1000
,
0100
0000
0000
0001
0100
0000
0000
1000
0100
0000
0000
0000
0000
0000
0000
0000
,
1000
0000
0001
0000
0100
0010
1000
0000
,
0001
0000
0010
0100
1000
0000
0000
0000
,
0010
0000
0000
1000
0000
0000
0100
0000
0000
0000
1000
0000
0001
0000
0000
0000
,
0100
0000
0010
1000
0010
0000
0000
0000
,
0001
0000
1000
0000
0100
0010
0001
0000
,
1000
0000
0010
0100
0001
0000
0000
0000
,
0010
0000
0000
0001
0000
0000
0100
0000
0000
0000
0001
0000
1000
0000
0000
0000
,
0100
0000
0010
0001
0010
0000
0000
0000
,
0101
0011
1010
1100
,
0101
0001
1100
1000
,
0001
0000
0000
0100
0010
0000
0100
0000
0000
0000
0001
0000
1000
0000
0000
0000
,
0100
0000
0000
0010
0001
0000
0010
0000
0001
0000
1000
0000
0100
0000
0000
0000
,
1000
0000
0000
0100
0010
0000
0100
0000
0000
0000
1000
0000
0001
0000
0000
0000
,
0100
0000
0000
0010
1000
0000
0010
0000
1000
0000
0001
0000
0100
0000
0000
0000
,
0001
0001
0100
0100
0010
1000
0100
0000
,
0010
0010
0001
0001
0100
0010
1000
0000
,
0100
0100
1000
1000
0001
0010
0100
0000
,
1000
1000
0010
0100
0100
0000
0000
0000
,
0011
0101
1100
1010
,
0011
0001
1010
1000
;

//---------------dance-double - ----------------
#NOTES:
     dance-double:
     :
     Easy:
     4:
     0.129601,0.173924,0.000000,0.020387,0.000000,89.000000,89.000000,0.000000,2.000000,0.000000,0.000000,0.129601,0.173924,0.000000,0.020387,0.000000,89.000000,89.000000,0.000000,2.000000,0.000000,0.000000:
00000000
00000000
00000000
00000000
,
00000000
00000000
00000000
00000000
,
00000000
00000000
00000000
00000000
,
00000000
00000000
00000000
00000000
,
00000000
00000000
00000000
00000000
,
00000000
00000000
00000000
00000000
,
00000000
00000000
00000000
00000000
,
00000000
00000000
00000000
00000000
,
00000000
00000000
00000000
00000000
,
00000100
00000000
00010000
00000000
,
00001000
00100000
00001000
00100000
,
01000000
01000000
00000000
00000000
,
00010000
00010000
00000000
00000000
,
00001000
00001000
00000000
00000000
,
00000100
00000100
00000000
00000000
,
00000001
00000000
00000001
00000000
,
00001000
00000000
00001000
00000000
,
00010000
00000000
00010000
00000000
,
10000000
00010000
10000000
00000000
,
01000000
00000000
00001000
00000000
,
00010000
00000010
00010000
00000010
,
00001000
00000000
00000001
00000000
,
00000010
00000010
00000010
00000000
,
00000100
00000000
00010000
00000000
,
00001000
00001000
00001000
00000000
,
00100000
00000000
01000000
00000000
,
10000000
10000000
10000000
00000000
,
00010000
00000000
01000000
00000000
,
00001000
00000000
00010000
00000000
,
00000100
00000000
00010000
00000000
,
00010000
00000000
00000100
00000000
,
00002000
00000000
00003000
00000000
,
00000010
00000000
00000000
00000000
,
00000100
00000000
00010000
00000000
,
00010000
00000000
00000100
00000000
,
00020000
00000000
00030000
00000000
,
00001000
00000000
00000000
00000000
,
01000000
00000000
00001000
00000000
,
00010000
00000010
00010000
00000010
,
00000100
00000100
00000000
00000000
,
00001000
00001000
00000000
00000000
,
00010000
00010000
00000000
00000000
,
01000000
01000000
00000000
00000000
,
10000000
00000000
10000000
00000000
,
00010000
00000000
00010000
00000000
,
00001000
00000000
00001000
00000000
,
00000001
00001000
00000001
00000000
,
00000100
00000000
00010000
00000000
,
00001000
00100000
00001000
00100000
;

//---------------dance-double - ----------------
#NOTES:
     dance-double:
     :
     Medium:
     7:
     0.232991,0.298156,0.081547,0.122320,0.000000,160.000000,152.000000,8.000000,12.000000,0.000000,0.000000,0.232991,0.298156,0.081547,0.122320,0.000000,160.000000,152.000000,8.000000,12.000000,0.000000,0.000000:
00000000
00000000
00000000
00000000
,
00000000
00000000
00000000
00000000
,
00000000
00000000
00000000
00000000
,
00000000
00000000
00000000
00000000
,
00000000
00000000
00000000
00000000
,
00000000
00000000
00000000
00000000
,
00000000
00000000
00000000
00000000
,
00000000
00000000
00000000
00000000
,
00000000
00000000
00000000
00000000
,
00100000
00100000
00010000
00010000
,
00001000
00001010
00000001
00000101
,
00000010
00000000
00000100
00000000
00000000
00001000
00000100
00000000
,
00010000
00000000
00000000
00000000
00100000
10000000
01000000
00000000
,
00100000
00000000
01000000
00000000
00000000
00010000
01000000
00000000
,
00001000
00000000
00000000
00000000
00000010
00000001
00000100
00000000
,
00000010
00000000
00001000
00001000
00000100
00000000
00010000
00000000
,
00001000
00000000
01000000
01000000
00010000
00000000
00100000
00000000
,
00001000
00000000
00010000
00010000
00000100
00000000
00001000
00000000
,
00000010
00000000
00010000
00001000
00010000
00000000
00000000
00000000
,
00000010
00000010
00001000
00001000
,
00010000
00110000
10000000
11000000
,
20000000
30000000
00020000
00030000
,
02000000
00000000
03000000
00001000
00010000
00000000
00000000
00000000
,
00000020
00000030
00000200
00000300
,
00002000
00000000
00013000
00100000
10000000
00000000
00000000
00000000
,
02000000
03000000
00020000
00030000
,
00002000
00000000
00013000
00001000
00000010
00000000
00000000
00000000
,
00000002
00000003
00000200
00000300
,
00002000
00010000
00013000
00000000
,
00100000
00010000
01000000
00100000
,
10000000
00010000
01000000
00000000
,
00001000
00000000
00000000
00010000
00000000
00000100
00001000
00000000
,
00000001
00000100
00000100
00000000
,
00000010
00001000
00000100
00000010
,
00000001
00001000
00000100
00000000
,
00010000
00000000
00000000
00001000
00000000
00100000
00010000
00000000
,
00100000
01000000
01000000
00000000
,
00100000
00100000
00010000
00010000
,
00001000
00001010
00000001
00000101
,
00000010
00000000
00000100
00000000
00000000
00001000
00000100
00000000
,
00010000
00000000
00000000
00000000
00100000
10000000
01000000
00000000
,
00100000
00000000
01000000
00000000
00000000
00010000
01000000
00000000
,
00001000
00000000
00000000
00000000
00000010
00000001
00000100
00000000
,
00000010
00000000
00001000
00001000
00000100
00000000
00010000
00000000
,
00001000
00000000
01000000
01000000
00010000
00000000
00100000
00000000
,
00001000
00000000
00010000
00010000
00000100
00000000
00001000
00000000
,
00000010
00000000
00010000
00001000
00010000
00000000
00000000
00000000
,
00000010
00000010
00001000
00001000
,
00010000
00110000
10000000
11000000
;

//---------------dance-double - ----------------
#NOTES:
     dance-double:
     :
     Hard:
     8:
     0.327644,0.372695,0.081547,0.000000,0.050967,225.000000,217.000000,8.000000,0.000000,0.000000,0.000000,0.327644,0.372695,0.081547,0.000000,0.050967,225.000000,217.000000,8.000000,0.000000,0.000000,0.000000:
00000000
00000000
00000000
00000000
,
00000000
00000000
00000000
00000000
,
00000000
00000000
00000000
00000000
,
00000000
00000000
00000000
00000000
,
00000000
00000000
00000000
00000000
,
00000000
00000000
00000000
00000000
,
00000000
00000000
00000000
00000000
,
00000000
00000000
00000000
00000000
,
00000000
00000000
00000000
00000000
,
00100000
00010000
01000000
00010000
,
00101000
00010000
00001010
00000100
,
00000001
00000000
00000000
00000001
00000100
00000000
00000010
00000000
00001000
00000000
00000000
00000000
00010000
00000000
00000000
00000000
,
01000000
00000000
00000000
00100000
10000000
00000000
01000000
00000000
00010000
00000000
00001000
00000000
00000100
00000000
00000000
00000000
,
00000001
00000000
00000000
00000001
00000100
00000000
00000010
00000000
00001000
00000000
00000000
00000000
00010000
00000000
00000000
00000000
,
01000000
00000000
00000000
00100000
10000000
00000000
01000000
00000000
00010000
00000000
00001000
00000000
00000010
00000000
00000000
00000000
,
00000001
00000100
00000010
00001000
00000100
00010000
00001000
00000000
,
00010000
00100000
01000000
00010000
00100000
00001000
00010000
00000000
,
00001000
00000010
00000100
00001000
00000010
00010000
00001000
00000000
,
00010000
00010000
00001000
00000100
00000010
00000000
00000000
00000000
,
00000010
00001000
00000100
00001000
,
00010010
00001000
00110000
01000000
,
00010000
01000000
00010000
00000000
00100000
00001000
00100000
00000000
,
00010000
00000000
01000000
00001000
00010000
00000000
00001000
00000000
,
01000000
00010000
01000000
00000000
00100000
00001000
00100000
00000000
,
00010000
00000000
01000000
00001000
00010000
00000000
00000100
00000000
,
00010000
00001000
00010000
00000000
00100000
00001000
00100000
00000000
,
00010000
00000000
01000000
00001000
00010000
00000000
00000010
00000000
,
00010000
00001000
00010000
00000000
00000100
00010000
00000100
00000000
,
00001000
00000100
00000010
00000000
00000001
00000100
00001000
00000000
,
00000100
00000000
00000001
00000000
00001000
00000010
00000100
00000000
,
00000010
00000000
00001000
00010000
00100000
00000000
00000000
00000000
,
01000000
00000000
00000000
10000000
00000000
00000000
00010000
00000000
00000000
00000000
00100000
00000000
00001000
00000000
00000000
00000000
,
00010000
00000000
00000010
00000100
00000010
00000000
00000000
00000000
,
00000100
00000000
00000001
00000000
00001000
00000010
00000100
00000000
,
00000010
00000000
00001000
00010000
00100000
00000000
00000000
00000000
,
01000000
00000000
00000000
00100000
00000000
00000000
10000000
00000000
00000000
00000000
01000000
00000000
00010000
00000000
00000000
00000000
,
00001000
00000000
00000010
00000100
00000010
00000000
00000000
00000000
,
00000010
00001000
00000100
00001000
,
00010010
00001000
00110000
01000000
,
10000000
00000000
00000000
10000000
01000000
00000000
00100000
00000000
00010000
00000000
00000000
00000000
00001000
00000000
00000000
00000000
,
00000100
00000000
00000000
00000010
00000001
00000000
00000100
00000000
00001000
00000000
00010000
00000000
01000000
00000000
00000000
00000000
,
10000000
00000000
00000000
10000000
01000000
00000000
00100000
00000000
00010000
00000000
00000000
00000000
00001000
00000000
00000000
00000000
,
00000100
00000000
00000000
00000010
00000001
00000000
00000100
00000000
00001000
00000000
00010000
00000000
00100000
00000000
00000000
00000000
,
10000000
01000000
00100000
00010000
01000000
00001000
00010000
00000000
,
00001000
00000010
00000100
00001000
00000010
00010000
00001000
00000000
,
00010000
00100000
01000000
00010000
00100000
00001000
00010000
00000000
,
00001000
00001000
00010000
01000000
00100000
00000000
00000000
00000000
,
00100000
00010000
01000000
00010000
,
00101000
00010000
00001010
00000100
;

//---------------dance-single - ----------------
#NOTES:
     dance-single:
     :
     Challenge:
     13:
     0.527143,0.547320,0.509668,0.000000,0.336381,362.000000,312.000000,50.000000,0.000000,0.000000,0.000000,0.527143,0.547320,0.509668,0.000000,0.336381,362.000000,312.000000,50.000000,0.000000,0.000000,0.000000:
// measure 0
0000
0000
0000
0000
,  // measure 1
0000
0000
0000
0000
,  // measure 2
0000
0000
0000
0000
,  // measure 3
0000
0000
0000
0000
,  // measure 4
0000
0000
0000
0000
,  // measure 5
0000
0000
0000
0000
,  // measure 6
0000
0000
0000
0000
,  // measure 7
0000
0000
0000
0000
,  // measure 8
0000
0000
0000
0000
,  // measure 9
0011
0101
1001
0101
,  // measure 10
1000
0010
0000
0000
0100
0010
0000
0000
0001
0010
0000
0000
1000
0010
0000
0000
,  // measure 11
0100
0000
0000
0110
0000
0000
0011
0000
0001
0000
0000
0001
0100
0000
0010
0000
,  // measure 12
1000
0000
0000
1001
0000
0000
1100
0000
1000
0000
0000
1000
0001
0000
0100
0000
,  // measure 13
0010
0000
0000
1010
0000
0000
0011
0000
0001
0000
0000
0001
0100
0000
0010
0000
,  // measure 14
1000
0000
0000
1100
0000
0000
0101
0000
0001
0000
0000
0001
0100
0000
0010
0000
,  // measure 15
1000
0100
0010
0100
1000
0001
0010
0001
,  // measure 16
1000
0100
0001
0100
0010
0000
1000
0100
,  // measure 17
0010
0001
0100
0001
1000
0010
0001
0010
,  // measure 18
1000
0100
0010
0001
1000
0000
1001
0000
,  // measure 19
1010
1100
0101
0011
,  // measure 20
0001
0010
0000
0000
0010
1000
0000
0000
1000
0100
0000
0000
0100
0001
0000
0000
,  // measure 21
0001
0100
0001
0000
0100
0000
1000
0000
0100
1000
0100
0000
0010
0000
0100
0000
,  // measure 22
0001
0010
0001
0000
0100
0000
0010
0000
1000
0000
0100
0000
0001
0000
1000
0000
,  // measure 23
0010
1000
0010
0000
0100
0000
0001
0000
0010
0001
0010
0000
1000
0000
0100
0000
,  // measure 24
0001
0100
0001
0000
0010
0000
1000
0000
0001
0000
0100
0000
0010
0000
1000
0000
,  // measure 25
0001
0100
0001
0000
0010
0000
0100
0000
1000
0100
1000
0000
0010
0000
0100
0000
,  // measure 26
0010
1000
0010
0000
0001
0000
1000
0000
0100
0001
0100
0000
0010
0000
0001
0000
,  // measure 27
0010
0001
0010
0000
0100
0000
1000
0000
0010
1000
0010
0000
0100
0000
0001
0000
,  // measure 28
0010
0000
1000
0010
0000
0100
0010
0000
0001
0000
0100
0001
0100
0000
0010
0000
,  // measure 29
0001
0000
0000
1010
0000
0000
1100
0000
0010
0000
0001
0000
0100
0000
0010
0000
,  // measure 30
0100
0000
0000
1010
0000
0000
0011
0000
0001
0000
0100
0001
0100
0000
0010
0000
,  // measure 31
1000
0000
0000
0101
0000
0000
0011
0000
0010
0000
1000
0010
1000
0000
0100
0000
,  // measure 32
0010
0000
0000
0101
0000
0000
1010
0000
1000
0000
0010
0100
0010
0000
0001
0000
,  // measure 33
1000
0000
0000
1001
0000
0000
0101
0000
0001
0000
0010
0000
0100
0000
1000
0000
,  // measure 34
0010
0000
0000
1001
0000
0000
0110
0000
0010
0000
0001
0010
0001
0000
0100
0000
,  // measure 35
0010
0000
0000
1100
0000
0000
0011
0000
0010
0000
1000
0010
1000
0000
0100
0000
,  // measure 36
0010
0000
0000
0101
0000
0000
1100
0000
0001
0000
0100
0000
1000
0000
0100
0000
,  // measure 37
0101
1100
1010
0011
,  // measure 38
0001
0100
0000
0000
0100
0010
0000
0000
1000
0100
0000
0000
0010
0001
0000
0000
,  // measure 39
0010
0000
0000
0101
0000
0000
1100
0000
1000
0000
0100
0010
0001
0000
0010
0000
,  // measure 40
0001
0000
0000
0101
0000
0000
1001
0000
1000
0000
0100
0000
0010
0000
0001
0000
,  // measure 41
0001
0000
0000
1010
0000
0000
0101
0000
0001
0000
0100
0010
1000
0000
0100
0000
,  // measure 42
0001
0000
0000
0110
0000
0000
1100
0000
1000
0000
0010
0100
0001
0000
0010
0000
,  // measure 43
1000
0000
0010
0100
0001
0000
0010
0000
0001
0100
0010
0000
1000
0000
0100
0000
,  // measure 44
0010
0001
0100
0000
0010
0000
1000
0000
0100
0000
0010
0001
1000
0000
0100
0000
,  // measure 45
0010
0000
1000
0010
0100
0000
0010
0000
0001
0100
0010
0000
1000
0000
0100
0000
,  // measure 46
0010
0000
0001
0010
0100
0000
0010
0000
1000
0000
0000
0000
1001
0000
0000
0000
,  // measure 47
0110
1001
0110
1001
,  // measure 48
1000
0100
0000
0000
0001
0100
0000
0000
1000
0010
0000
0000
0001
0010
0000
0000
;
