#TITLE:I DO I DO I DO;
#SUBTITLE:;
#ARTIST:CREAMY;
#TITLETRANSLIT:;
#SUBTITLETRANSLIT:;
#ARTISTTRANSLIT:;
#GENRE:;
#CREDIT:;
#BANNER:I DO I DO I DO.png;
#BACKGROUND:I DO I DO I DO-bg.png;
#LYRICSPATH:;
#CDTITLE:;
#MUSIC:I DO I DO I DO.ogg;
#OFFSET:0.000000;
#SAMPLESTART:43.625999;
#SAMPLELENGTH:15.000000;
#SELECTABLE:YES;
#DISPLAYBPM:134.000000;
#BPMS:0.000000=134.009995
;
#STOPS:
;
#BGCHANGES:;
#KEYSOUNDS:;
#ATTACKS:;

//---------------dance-single - ----------------
#NOTES:
     dance-single:
     :
     Beginner:
     2:
     0.121388,0.158112,0.064536,0.000000,0.000000,79.000000,73.000000,6.000000,0.000000,0.000000,0.000000,0.121388,0.158112,0.064536,0.000000,0.000000,79.000000,73.000000,6.000000,0.000000,0.000000,0.000000:
0000
0000
0000
0000
,
0000
0000
0000
0000
,
0000
0000
0000
0000
,
0000
0000
0000
0000
,
0000
0000
0000
0000
,
0001
0000
0000
0000
,
1000
0000
0000
0000
,
0010
0000
0010
0000
,
0010
0000
1001
0000
,
0010
0000
0000
0000
,
0001
0000
0001
0000
,
0010
0000
0000
0000
,
1000
0000
1000
0000
,
0010
0000
0000
0000
,
0100
0000
0100
0000
,
0001
0000
1000
0000
,
0000
0000
1001
0000
,
0001
0000
0001
0000
,
1000
0000
1000
0000
,
0001
0000
0001
0000
,
1000
0000
1000
0000
,
0001
0000
1000
0000
,
0001
0000
1000
0000
,
0100
0000
0100
0000
,
1001
0000
0000
0000
,
0100
0000
0001
0000
,
0100
0000
0001
0000
,
0100
0000
1000
0000
,
0100
0000
1000
0000
,
0100
0000
0000
0000
,
0010
0000
0000
0000
,
0001
0000
1000
0000
,
0000
0000
1001
0000
,
0100
0000
0001
0000
,
0100
0000
1000
0000
,
0100
0000
0001
0000
,
0100
0000
1000
0000
,
0010
0000
0001
0000
,
0010
0000
1000
0000
,
0001
0000
1000
0000
,
0000
0000
1001
0000
,
0001
0000
0000
0000
,
1000
0000
0000
0000
,
0010
0000
0000
0000
,
0100
0000
0000
0000
,
0001
0000
0001
0000
,
1000
0000
1000
0000
,
0010
0000
0010
0000
,
0100
0000
0000
0000
,
1001
0000
0000
0000
;

//---------------dance-single - ----------------
#NOTES:
     dance-single:
     :
     Easy:
     3:
     0.145973,0.184464,0.064536,0.053780,0.000000,95.000000,89.000000,6.000000,5.000000,0.000000,0.000000,0.145973,0.184464,0.064536,0.053780,0.000000,95.000000,89.000000,6.000000,5.000000,0.000000,0.000000:
0000
0000
0000
0000
,
0000
0000
0000
0000
,
0000
0000
0000
0000
,
0000
0000
0000
0000
,
0000
0000
0000
0000
,
0001
0000
0000
0000
,
1000
0000
0000
0000
,
0001
0000
1000
0000
,
0010
0000
1001
0000
,
0010
0010
0010
0000
,
0001
0000
0001
0000
,
0010
0010
0010
0000
,
1000
0000
1000
0000
,
0010
0010
0010
0000
,
0100
0000
0100
0000
,
0001
0000
1000
0000
,
0100
0000
1001
0000
,
0001
0001
0001
0000
,
1000
0000
1000
0000
,
1000
1000
1000
0000
,
0001
0000
0001
0000
,
0010
0010
0010
0000
,
0100
0000
0100
0000
,
1000
0000
0001
0000
,
1001
0000
0000
0000
,
0100
0000
0001
0000
,
0100
0000
0001
0000
,
0100
0000
1000
0000
,
0100
0000
1000
0000
,
0100
0000
0010
0000
,
0100
0000
0010
0000
,
0001
0000
1000
0000
,
0010
0000
1001
0000
,
0100
0000
0001
0000
,
0100
0000
1000
0000
,
0010
0000
0001
0000
,
0010
0000
1000
0000
,
0001
0000
0100
0000
,
1000
0000
0010
0000
,
0100
0000
0100
0000
,
0010
0000
1001
0000
,
0002
0000
0003
0000
,
2000
0000
3000
0000
,
0020
0000
0030
0000
,
0200
0000
0300
0000
,
0001
0000
0001
0001
,
1000
0000
1000
1000
,
0010
0000
0010
0000
,
0200
0000
0300
0000
,
1001
0000
0000
0000
;

//---------------dance-single - ----------------
#NOTES:
     dance-single:
     :
     Medium:
     9:
     0.330361,0.374575,0.236630,0.107559,0.000000,215.000000,193.000000,22.000000,10.000000,0.000000,0.000000,0.330361,0.374575,0.236630,0.107559,0.000000,215.000000,193.000000,22.000000,10.000000,0.000000,0.000000:
0000
0000
0000
0000
,
0000
0000
0000
0000
,
0000
0000
0000
0000
,
0010
0100
0001
1000
,
0010
0100
1000
0001
,
0002
0000
0100
0103
,
2000
0000
0010
3010
,
0100
0010
0001
1000
,
0001
0000
0100
0000
1000
0100
0001
0000
,
0010
0010
1000
0100
,
0010
0000
0100
0000
0001
1000
0100
0000
,
0010
0010
0001
0100
,
0010
0000
0100
0000
1000
0001
0100
0000
,
1000
0100
0001
1000
,
0001
0100
0010
1001
,
0001
0100
1000
0001
,
1000
0010
0100
0110
,
1000
1000
0100
0010
,
0001
0000
1000
0000
0010
0100
0010
0000
,
0001
0001
0100
0010
,
1000
0000
0001
0000
0010
0100
0010
0000
,
1100
0000
0001
0010
,
0101
0000
1000
0010
,
1001
0000
0110
0000
,
1001
0110
1001
0000
,
0010
0000
0010
0000
0001
0100
1000
0000
,
0010
0000
0010
0000
1000
0100
0001
0000
,
0020
0130
2000
3001
,
0010
1000
0100
0000
0010
0001
0100
0000
,
0010
0010
0100
0100
,
0001
1000
0101
1100
,
0001
1000
0001
1000
,
0101
0101
1100
1100
,
0001
0000
0001
0000
1000
0100
1000
0000
,
1000
0000
1000
0000
0001
0100
0001
0000
,
1000
0100
0001
0100
,
0010
0100
1001
0000
,
0010
1000
0001
0000
0010
0001
1000
0000
,
0010
1000
0001
0100
0010
0000
0100
0000
,
0001
0010
1000
0100
,
0001
0110
1000
0110
,
0002
1000
1000
1003
,
2000
0001
0001
3001
,
0010
0110
0100
0110
,
1000
0010
0001
1001
,
0020
0001
0001
0031
,
0200
1000
1000
1300
,
1000
0001
0100
1000
,
0100
0000
0001
0000
0001
0100
1000
0000
,
2002
0000
0000
3003
;

//---------------dance-single - ----------------
#NOTES:
     dance-single:
     :
     Hard:
     11:
     0.456359,0.508352,0.150583,0.032268,0.177473,297.000000,283.000000,14.000000,3.000000,0.000000,0.000000,0.456359,0.508352,0.150583,0.032268,0.177473,297.000000,283.000000,14.000000,3.000000,0.000000,0.000000:
0000
0000
0000
0000
,
0000
0000
0000
0000
,
0000
0000
0000
0000
,
0001
1000
0011
1010
,
0001
0000
1000
0000
0010
1000
0001
1000
,
0010
0000
0000
0010
0000
0000
0010
0000
0000
0000
0001
0000
0100
0000
1000
0000
,
0010
0000
0000
0010
0000
0000
0010
0000
0000
0000
1000
0000
0100
0000
0001
0000
,
1000
0000
0000
1000
0000
0000
1000
0000
0010
0000
0100
0000
0010
0000
0100
0000
,
0001
1000
0000
0001
0000
0100
0000
0100
,
0001
0010
1000
0100
,
0010
0100
0100
0000
1000
0001
0001
0000
,
1000
0010
0001
0100
,
1000
0100
0100
0000
0001
0100
0100
0000
,
0001
0010
1000
0000
1000
0010
0001
0000
,
0001
1000
0100
0000
1000
0001
0100
0000
,
0001
0100
1000
0000
1000
0100
0001
0000
,
0001
0100
0100
0010
1000
0100
0100
0000
,
0001
0000
0000
1000
0000
0000
0001
0000
0000
0000
0010
0000
0000
0010
0000
0000
,
1000
0000
0000
0001
0000
0000
1000
0000
0000
0000
0010
0000
0000
0010
0000
0000
,
0001
0000
0000
0100
0000
0000
0010
0000
0000
0000
1000
0000
0000
1000
0000
0000
,
0100
0000
0000
0001
0000
0000
0100
0000
0000
0000
0001
0000
0000
0001
0000
0000
,
0010
0000
0000
0100
0000
0000
0010
0000
0000
0000
1000
0000
0000
1000
0000
0000
,
0100
0000
0000
0010
0000
0000
1000
0000
0000
0000
0001
0000
0000
0001
0000
0000
,
0010
0000
0000
0100
0000
0000
0010
0000
0000
0000
1000
0000
0000
0001
0000
0000
,
1001
0000
1001
0001
0100
0001
0100
0001
,
0100
0000
0010
1000
0010
0100
0000
0002
,
0000
1003
0000
1000
0100
1000
0100
1000
,
0100
0000
0010
0001
0010
0100
0000
2000
,
0000
3001
0000
0100
0010
0100
0001
0100
,
0010
0000
1000
0001
0100
0010
0000
0100
,
0001
0100
0000
0010
0100
0010
1000
0010
,
0100
0000
0001
1000
0010
0100
0000
1001
,
0000
0000
1100
0101
,
0001
0100
0001
1000
0001
0100
0001
1000
,
0100
0010
0100
0001
0100
0010
0100
0001
,
0010
1000
0010
0100
0010
1000
0010
0100
,
1000
0001
1000
0010
1000
0001
1001
0000
,
0100
0000
0001
0000
0100
0000
1000
0000
0100
0000
0001
0000
0000
1000
0100
0000
,
1000
0000
0010
0000
1000
0000
0100
0000
1000
0000
0010
0000
0000
0100
0001
0000
,
0010
0000
0001
0000
0010
0000
1000
0000
0010
0000
0001
0000
0000
0100
0010
0000
,
0110
1010
1001
0011
,
1000
0000
0000
1000
0000
0000
1000
0000
0000
0000
0001
0000
0010
0000
0001
0000
,
0001
0000
0000
0001
0000
0000
0001
0000
0000
0000
1000
0000
0010
0000
1000
0000
,
0010
0000
0000
1000
0000
0000
0001
0000
1000
0000
0100
0000
0010
0000
0100
0000
,
0010
0000
0000
0001
0000
0000
1000
0000
0000
0000
0100
0000
0010
0000
0001
0000
,
1000
0100
0000
1000
0100
0000
1000
0100
0000
0000
0010
0000
0001
0000
0010
0000
,
0001
0100
0000
0001
0100
0000
0001
0100
0000
0000
0010
0000
1000
0000
0010
0000
,
1000
0001
0000
1000
0100
0000
1000
0001
0000
0000
0010
0000
1000
0000
0001
0000
,
0010
0001
0000
1001
0000
0100
0000
0110
,
0002
0000
0000
0003
;

//---------------dance-double - ----------------
#NOTES:
     dance-double:
     :
     Easy:
     3:
     0.213582,0.266209,0.107559,0.064536,0.000000,139.000000,129.000000,10.000000,6.000000,0.000000,0.000000,0.213582,0.266209,0.107559,0.064536,0.000000,139.000000,129.000000,10.000000,6.000000,0.000000,0.000000:
00000000
00000000
00000000
00000000
,
00000000
00000000
00000000
00000000
,
00000000
00000000
00000000
00000000
,
00000000
00000000
00000000
00000000
,
00000000
00000000
00000000
00000000
,
00010000
00010000
00000000
00000000
,
10000000
10000000
00000000
00000000
,
10000000
00000000
00100000
00000000
,
00001000
00000000
00011000
00000000
,
00000010
00000001
00000010
00000001
,
00001000
00000000
00001000
00000000
,
00000100
00001000
00000100
00001000
,
00010000
00000000
00010000
00000000
,
00001000
00010000
00001000
00010000
,
01000000
00000000
01000000
00000000
,
10000000
00000000
00010000
00000000
,
01000000
00001000
00011000
00000000
,
00000010
00000010
00000010
00000000
,
00000001
00001000
00000100
00000000
,
00001000
00001000
00001000
00000000
,
00000010
00010000
00001000
00000000
,
00100000
00100000
00100000
00000000
,
10000000
00010000
01000000
00000000
,
00100000
00000000
01100000
00000000
,
00011000
00000000
00000000
00000000
,
00000010
00000100
00000010
00000100
,
00000001
00001000
00000001
00000000
,
00000010
00001000
00000010
00001000
,
00000100
00010000
00001000
00000000
,
01000000
00100000
01000000
00100000
,
10000000
00010000
10000000
00000000
,
01000000
00010000
01000000
00010000
,
00100000
00001000
00011000
00000000
,
00000010
00001000
00000010
00001000
,
00000001
00000100
00000001
00000100
,
00000010
00001000
00000100
00001000
,
00010000
00001000
00011000
00000000
,
00100000
00010000
00100000
00010000
,
10000000
01000000
10000000
01000000
,
00100000
00010000
01000000
00010000
,
00001000
00010000
00011000
00000000
,
00000200
00000000
00000300
00000000
,
00000002
00000000
00000003
00000000
,
00001000
00000010
00001000
00000010
,
00010000
00001000
00011000
00000000
,
02000000
00000000
03000000
00000000
,
20000000
00000000
30000000
00000000
,
00010000
00100000
00010000
00100000
,
00001000
00010000
00011000
00000000
,
00022000
00000000
00033000
00000000
,
00000000
00000000
00000000
00000000
;

//---------------dance-double - ----------------
#NOTES:
     dance-double:
     :
     Medium:
     5:
     0.331897,0.374575,0.225874,0.064536,0.000000,216.000000,195.000000,21.000000,6.000000,0.000000,0.000000,0.331897,0.374575,0.225874,0.064536,0.000000,216.000000,195.000000,21.000000,6.000000,0.000000,0.000000:
00000000
00000000
00000000
00000000
,
00000000
00000000
00000000
00000000
,
00000000
00000000
00000000
00000000
,
00100000
10000000
01000000
00010000
,
00100000
10000000
01000000
00010000
,
00001000
00000010
00001000
00010000
,
00001000
00000100
00000001
00001000
,
00000010
00000110
00001000
00001001
,
00000100
00000000
00000010
00000000
00000001
00000100
00001000
00000000
,
00010000
00000010
00010000
00001000
,
00010000
00000100
00010000
00001000
,
00001000
00100000
00001000
00010000
,
00001000
01000000
00001000
00010000
,
00100000
10000000
01000000
10000000
,
00100000
00000000
00100000
00000000
10000000
01000000
00010000
00000000
,
00010000
01000000
01000000
00000000
,
00001000
00000100
00000100
00000000
,
00000001
00001000
00000010
00001000
,
00000100
00000000
00000100
00000000
00010000
00001000
00001000
00000000
,
00100000
01000000
00010000
01000000
,
00100000
00000000
01000000
00000000
00001000
00010000
00010000
00000000
,
00001010
00000000
00000100
00001000
,
00000101
00000000
00000010
00001000
,
00011000
00000000
00000110
00000000
,
00011000
01100000
10010000
00000000
,
00010000
00000000
00010000
00000000
00100000
10000000
01000000
00000000
,
00010000
00000000
00001000
00000000
00000100
00000001
00000010
00000000
,
00000011
00000010
00001100
00000100
,
00010000
00000000
00001000
00000000
00100000
00010000
01000000
00000000
,
00010000
00100000
10000000
00100000
,
00010000
00000000
00100000
00000000
00001000
00010000
00000100
00000000
,
00000010
00000100
00000010
00000100
,
00000101
00000101
00001100
00011000
,
00100000
00000000
00100000
00000000
10000000
01000000
00010000
00000000
,
00001000
00000000
00000010
00000000
00000001
00000100
00001000
00000000
,
00010000
00000000
10000000
00000000
00100000
10000000
00010000
00000000
,
00001000
00000000
00000001
00000000
00000010
00000001
00001000
00000000
,
00000010
00001000
00000010
00000000
00010000
00001000
00010000
00000000
,
00001000
01000000
00001000
00000000
00010000
00000100
00010000
00000000
,
00000100
00001000
00000010
00000100
,
00000110
00001010
00011000
00110000
,
20000000
00100000
00100000
30100000
,
00020000
01000000
01000000
01030000
,
10000000
00010000
00001000
00000010
,
00000100
00000001
00001000
00001001
,
00000002
00000010
00000010
00000013
,
00002000
00000100
00000100
00003100
,
00000001
00001000
00010000
00100000
,
01000000
00000000
01000000
00000000
10000000
01000000
00010000
00000000
,
00022000
00000000
00000000
00033000
,
00000000
00000000
00000000
00000000
;

//---------------dance-double - ----------------
#NOTES:
     dance-double:
     :
     Hard:
     8:
     0.419481,0.454841,0.075291,0.043024,0.129071,273.000000,266.000000,7.000000,4.000000,0.000000,0.000000,0.419481,0.454841,0.075291,0.043024,0.129071,273.000000,266.000000,7.000000,4.000000,0.000000,0.000000:
00000000
00000000
00000000
00000000
,
00000000
00000000
00000000
00000000
,
00000000
00000000
00000000
00000000
,
00100000
00100000
10000000
00010000
,
01000000
00000000
01000000
00000000
00100000
10000000
00010000
10000000
,
00100000
00000000
00000000
00010000
00000000
00000000
00001000
00000000
00000000
00000000
00000010
00000000
00000100
00000000
00001000
00000000
,
00000010
00000000
00000000
00001000
00000000
00000000
00010000
00000000
00000000
00000000
01000000
00000000
00100000
00000000
10000000
00000000
,
00100000
00000000
00000000
00010000
00000000
00000000
00001000
00000000
00000100
00000000
00000010
00000000
00000100
00000000
00000010
00000000
,
00001000
00000001
00000000
00000100
00000000
00001000
00000000
00000100
,
00000001
00001000
00000001
00000100
,
00000001
00000100
00000100
00000000
00001000
00010000
00010000
00000000
,
00100000
10000000
00100000
01000000
,
10000000
01000000
01000000
00000000
00010000
00001000
00001000
00000000
,
00000100
00000001
00000010
00000100
,
00001000
00000001
00000100
00000000
00001000
00010000
01000000
00000000
,
00100000
10000000
00100000
00010000
,
10000000
01000000
10000000
00100000
01000000
00010000
00010000
00000000
,
00100000
00000000
00000000
00010000
00000000
00000000
10000000
00000000
00000000
00000000
00100000
00000000
00000000
00100000
00000000
00000000
,
00010000
00000000
00000000
00001000
00000000
00000000
00000100
00000000
00000000
00000000
00000001
00000000
00000000
00000001
00000000
00000000
,
00001000
00000000
00000000
00000010
00000000
00000000
00001000
00000000
00000000
00000000
00000010
00000000
00000000
00000010
00000000
00000000
,
00000100
00000000
00000000
00001000
00000000
00000000
00010000
00000000
00000000
00000000
00001000
00000000
00000000
00001000
00000000
00000000
,
00100000
00000000
00000000
00010000
00000000
00000000
00100000
00000000
00000000
00000000
01000000
00000000
00000000
01000000
00000000
00000000
,
10000000
00000000
00000000
00100000
00000000
00000000
00010000
00000000
00000000
00000000
00001000
00000000
00000000
00001000
00000000
00000000
,
00000010
00000000
00000000
00000001
00000000
00000000
00000010
00000000
00000000
00000000
00000001
00000000
00000000
00001000
00000000
00000000
,
00000100
00000000
00000100
00010000
00001000
00010000
00001000
00010000
,
00001000
00000000
00100000
00010000
00100000
01000000
00000000
00020000
,
00000000
10030000
00000000
10000000
00010000
10000000
00010000
10000000
,
00010000
00000000
00100000
00010000
00100000
01000000
00000000
20000000
,
00000000
30010000
00000000
01000000
00001000
01000000
00001000
01000000
,
00001000
00000000
00010000
00001000
00000010
00000100
00000000
00002000
,
00000000
00003001
00000000
00000010
00000100
00000010
00000100
00000010
,
00000100
00000000
00000001
00000100
00001000
00000100
00000000
00011000
,
00000000
00000000
01000000
10000000
,
00100000
10000000
01000000
10000000
00100000
10000000
01000000
10000000
,
01000000
00010000
00001000
00010000
01000000
00010000
00001000
00010000
,
00001000
00000010
00000001
00000100
00000001
00000010
00000001
00000100
,
00000010
00001000
00000010
00000100
00000010
00001000
00000010
00000000
,
00000010
00000100
00001000
00010000
00100000
10000000
00100000
00000000
,
10000000
01000000
00010000
00001000
00000010
00000001
00000010
00000000
,
00000001
00000100
00001000
00000100
00001000
00010000
00001000
00000000
,
00011000
00110000
01100000
11000000
,
10000000
00000000
00000000
00100000
00000000
00000000
00010000
00000000
00000000
00000000
10000000
00000000
00100000
00000000
10000000
00000000
,
01000000
00000000
00000000
00010000
00000000
00000000
00001000
00000000
00000000
00000000
00000010
00000000
00000001
00000000
00000010
00000000
,
00000001
00000000
00000000
00000100
00000000
00000000
00001000
00000000
00000001
00000000
00000100
00000000
00000001
00000000
00000010
00000000
,
00000001
00000000
00000000
00000100
00000000
00000000
00001000
00000000
00000000
00000000
00010000
00000000
00100000
00000000
01000000
00000000
,
00010000
00000000
00000000
10000000
00000000
00000000
10000000
00000000
00000000
00000000
01000000
00000000
00010000
00000000
00001000
00000000
,
00010000
00000000
00000000
00001000
00000000
00000000
00001000
00000000
00000000
00000000
00000100
00000000
00000001
00000000
00000100
00000000
,
00000001
00000000
00000000
00001000
00000000
00000000
00001000
00000000
00000000
00000000
00000010
00000000
00001000
00000000
00000001
00000000
,
00001000
00000001
00000000
00001100
00000000
00011000
00000000
00010000
,
00002000
00000000
00000000
00003000
,
00000000
00000000
00000000
00000000
;

//---------------dance-single - ----------------
#NOTES:
     dance-single:
     :
     Challenge:
     13:
     0.556235,0.564686,0.387213,0.387213,0.322678,362.000000,326.000000,36.000000,36.000000,0.000000,0.000000,0.556235,0.564686,0.387213,0.387213,0.322678,362.000000,326.000000,36.000000,36.000000,0.000000,0.000000:
// measure 0
0000
0000
0000
0000
,  // measure 1
0000
0000
0000
0000
,  // measure 2
0000
0000
0000
0000
,  // measure 3
0010
0000
0000
0001
0000
0000
0100
0000
0000
0100
1000
0000
0010
0000
0100
0000
,  // measure 4
0001
0000
0000
0010
0000
0000
1000
0000
0000
1000
0100
0000
0010
0000
0001
0000
,  // measure 5
0100
0000
0000
1000
0000
0000
0010
0000
0000
0010
0001
0000
0010
0000
0100
0000
,  // measure 6
1000
0000
0000
0010
0000
0000
0001
0000
0000
0001
0100
0000
1000
0000
0010
0000
,  // measure 7
0100
0000
0000
0100
0000
0000
0100
0000
0000
0100
0010
0000
0100
0000
0010
0000
,  // measure 8
1000
0000
0001
1000
0000
0000
1001
0000
0000
0000
1000
0000
0010
0000
0200
0000
,  // measure 9
0010
0000
0301
0000
0010
0001
0010
0100
,  // measure 10
0010
0000
0000
0001
0000
0000
0100
0000
0000
0100
0010
0000
0001
0000
0020
0000
,  // measure 11
1000
0000
0130
0000
0010
0001
0000
1001
,  // measure 12
0001
0000
0000
0010
0000
0000
0100
0000
0000
0100
0010
0000
1000
0000
0002
0000
,  // measure 13
0100
0000
0013
0000
1001
0100
0000
0010
,  // measure 14
0100
0000
0000
0001
0000
0000
0100
0000
0000
0100
0010
0000
1000
0000
0200
0000
,  // measure 15
0001
0000
1300
0000
0110
0001
1000
1001
,  // measure 16
1000
0000
0000
0100
0000
0000
0010
0000
0000
0010
0001
0000
0100
0000
0010
0000
,  // measure 17
1010
0000
0101
0000
0011
0000
0110
0200
,  // measure 18
0010
0000
0000
1000
0000
0000
0310
0000
0000
0010
0001
0000
0100
0000
0001
0000
,  // measure 19
1001
0000
1100
0000
1010
0000
0011
0002
,  // measure 20
0010
0000
0000
1000
0000
0000
0103
0000
0000
0100
0010
0000
1000
0000
0100
0000
,  // measure 21
0101
0000
0000
0000
1010
0000
0000
0000
0011
0000
0000
1001
0000
0000
0020
0000
,  // measure 22
0100
0000
0000
0001
0000
0000
0130
0000
0000
0100
0010
0000
1000
0000
0001
0000
,  // measure 23
0202
0303
2020
3030
2200
3300
0022
0033
,  // measure 24
2002
0000
3003
1000
0100
0001
0100
1000
,  // measure 25
0100
0000
0001
0100
1000
0100
0000
0101
,  // measure 26
0000
1010
0000
1000
0010
0001
0010
1000
,  // measure 27
0010
0000
1000
0010
0001
0010
0000
1010
,  // measure 28
0000
0011
0000
0001
0100
0010
0001
0100
,  // measure 29
0010
0000
0100
0010
0001
0100
0000
0101
,  // measure 30
0000
1010
0000
1000
0010
0100
1000
0010
,  // measure 31
0100
0000
1000
0100
0010
1000
0000
1010
,  // measure 32
0000
0000
0011
0000
0000
0000
0001
0010
0001
0000
0020
0000
0130
0000
2000
0000
,  // measure 33
3001
0000
1000
0001
1000
0000
0001
1000
0002
0000
1003
0000
0001
0000
1000
0001
,  // measure 34
1000
0000
0100
0000
0010
0000
0001
0010
0001
0000
0020
0000
1030
0000
0200
0000
,  // measure 35
0301
0000
0010
0001
0010
0000
0100
0010
0200
0000
0310
0000
0100
0000
0010
1000
,  // measure 36
0010
0000
0100
0000
0001
0000
0010
1000
0010
0000
0200
0000
0301
0000
0020
0000
,  // measure 37
1030
0000
0001
1000
0001
0000
1000
0001
2000
0000
3001
0000
1000
0000
0001
1000
,  // measure 38
0001
0000
0010
0000
0100
0000
1000
0010
1000
0000
0002
0000
0103
0000
2000
0000
,  // measure 39
3010
0000
0100
0010
0100
0000
0010
1000
0020
0000
0130
0000
0010
0000
0100
0001
,  // measure 40
0200
0000
0000
0001
0000
0000
0301
0000
0010
0000
0000
0001
0010
0000
0100
0000
,  // measure 41
1000
0000
0100
1000
0000
0100
1000
0000
0000
0000
0100
0000
0010
0000
0001
0000
,  // measure 42
0100
0000
0001
0100
0000
0001
0100
0000
0000
0000
0010
0000
1000
0000
0001
0000
,  // measure 43
0100
0000
0010
0100
0000
0010
0100
0000
0000
0000
0010
0000
0001
0000
1000
0000
,  // measure 44
0100
0000
0010
1000
0000
0001
1000
0000
0000
0000
0100
0000
0010
0000
0001
0000
,  // measure 45
0102
0000
0000
1000
0000
0000
0013
0000
0000
0010
0100
0000
0001
0000
0100
0000
,  // measure 46
1200
0000
0000
0001
0000
0000
0310
0000
0000
0010
0100
0000
1000
0000
0100
0000
,  // measure 47
0120
0000
0000
1000
0000
0000
0031
0000
0000
0001
0010
0000
0001
0000
1000
0000
,  // measure 48
2010
0000
0000
0001
0000
0000
3100
0000
0000
0100
1000
0000
1001
0000
0100
0000
,  // measure 49
0220
0000
0000
0000
,  // measure 50
0330
0000
0000
0000
;
