#TITLE:I Can See You;
#SUBTITLE:(Taylor's Version) (From The Vault);
#ARTIST:Taylor Swift;
#TITLETRANSLIT:;
#SUBTITLETRANSLIT:;
#ARTISTTRANSLIT:;
#GENRE:;
#CREDIT:;
#BANNER:;
#BACKGROUND:I Can See You (Taylors Version) (From The Vault)-bg.png;
#LYRICSPATH:;
#CDTITLE:;
#MUSIC:I Can See You (Taylors Version) (From The Vault).mp3;
#OFFSET:0.000000;
#SAMPLESTART:100.000000;
#SAMPLELENGTH:12.000000;
#SELECTABLE:YES;
#BPMS:0.000000=112.750000
,4.000000=123.000000
,463.000000=61.500000
,477.500000=123.000000
,507.500000=120.000000
,508.500000=123.000000
,552.000000=120.000000
,552.500000=123.000000
;
#STOPS:222.500000=0.460000,
477.500000=1.690000
;
#BGCHANGES:0.000=I Can See You (Taylors Version) (From The Vault)-bg.png=1.000=0=0=0=StretchNoLoop====,
0.021=I Can See You (Taylors Version) (From The Vault).mp4=1.000=0=0=1=====,
99999=-nosongbg-=1.000=0=0=0 // don't automatically add -songbackground-
;
#KEYSOUNDS:;
#ATTACKS:;

//---------------dance-single - ----------------
#NOTES:
     dance-single:
     :
     Challenge:
     17:
     0.586104,0.897717,0.410925,0.303302,0.402772,1258.000000,1132.000000,126.000000,93.000000,0.000000,0.000000,0.586104,0.897717,0.410925,0.303302,0.402772,1258.000000,1132.000000,126.000000,93.000000,0.000000,0.000000:
// measure 0
0000
0000
0000
0000
,  // measure 1
0000
0000
0000
0000
,  // measure 2
0000
0000
0000
0000
,  // measure 3
0000
0000
0000
0000
,  // measure 4
1100
0000
1010
0000
0110
0000
0000
0100
,  // measure 5
0000
0001
0000
0100
0010
1000
0010
0001
,  // measure 6
0011
0000
0110
0000
1100
0000
0000
1000
,  // measure 7
0000
0100
0000
0010
0001
1000
0001
0000
,  // measure 8
0201
0000
1000
0000
1300
0000
0000
0100
,  // measure 9
0000
1000
0100
0001
0100
0010
0110
0100
,  // measure 10
0101
0000
1100
0000
0000
2000
3000
0200
,  // measure 11
0300
0020
0030
0001
0100
0010
1000
0100
,  // measure 12
1200
0000
0001
0000
0301
0000
0000
0100
,  // measure 13
0000
0001
0100
1000
0100
0001
1000
0010
,  // measure 14
0100
0000
0110
0000
0101
0000
0000
2000
,  // measure 15
0000
0000
3100
0000
0010
0000
0001
0000
0010
0100
0010
0000
0010
0100
0010
0100
,  // measure 16
0020
1030
0020
0130
0020
1030
0020
0130
,  // measure 17
0110
0001
0110
0100
0110
0001
0110
0100
,  // measure 18
0200
1300
0200
0301
0200
1300
0200
0301
,  // measure 19
0110
0001
0110
1000
0110
0001
0110
1000
,  // measure 20
0020
1030
0200
0301
0020
0031
0200
1300
,  // measure 21
0110
0001
0110
1000
0110
0101
0110
1010
,  // measure 22
0010
1000
0010
1000
0010
1000
0010
1000
0010
1000
0010
1000
0010
0000
2000
0000
,  // measure 23
0000
3200
0000
0302
0000
0000
0003
1001
,  // measure 24
1000
0100
1000
0000
0100
1000
0100
1000
0100
0000
1000
0000
0010
0000
0100
0000
,  // measure 25
0000
1000
0001
0100
0001
1000
0010
0110
,  // measure 26
0100
0001
0100
0000
0001
1000
0001
1000
0001
0000
1000
0000
0100
0000
0010
0000
,  // measure 27
0000
0001
1000
0001
0100
0010
0100
1100
,  // measure 28
1000
0001
1000
0000
0001
0100
0001
0100
0001
0000
0010
0000
0100
0000
1000
0000
,  // measure 29
0000
1000
0010
0100
0001
0010
1000
0000
,  // measure 30
0000
0000
1000
0100
1000
0100
1000
0100
1000
0100
1000
0100
1000
0000
0100
0000
,  // measure 31
0010
0001
0100
1000
0100
0000
1001
0000
,  // measure 32
1000
0001
1000
0000
0001
1000
0001
0000
1000
0001
1000
0001
1000
0000
0001
0100
,  // measure 33
0001
0000
0010
0000
0000
0000
0010
1000
0010
1000
0010
0000
1000
0000
0100
0000
,  // measure 34
0010
0001
0010
0000
0001
0100
0001
0000
0010
1000
0010
1000
0010
0000
0100
0000
,  // measure 35
1000
0200
0320
0032
0203
2300
3200
0302
,  // measure 36
0013
0001
0010
0000
0100
0010
0100
0000
1000
0100
1000
0100
1000
0000
0100
0010
,  // measure 37
0100
0000
0001
0000
0000
0000
0100
0000
0010
1000
0010
1000
0001
0010
0001
0000
,  // measure 38
0100
0001
0100
0000
1000
0100
1000
0000
0010
0001
0010
0001
0010
0000
0100
0001
,  // measure 39
0100
0000
1000
0000
0000
0000
0010
1000
0010
1000
0010
0000
0100
0000
0001
0000
,  // measure 40
0010
0001
0010
0000
1000
0100
1000
0000
0001
1000
0100
1000
0001
0000
0100
0010
,  // measure 41
0100
0000
0010
0000
0000
0000
0010
1000
0010
0100
0010
0000
0001
0000
0100
0000
,  // measure 42
1000
0001
1000
0000
0001
0100
0001
0000
0010
1000
0010
0100
0010
0000
0100
0000
,  // measure 43
0100
0002
0023
2030
3200
2300
3020
0032
,  // measure 44
0103
1000
0100
0000
0001
0100
0001
0000
0010
0001
0010
0001
0010
0000
1000
0100
,  // measure 45
1000
0000
0001
0000
0000
0000
0100
0010
0100
0010
1000
0000
0010
0000
0001
0000
,  // measure 46
0100
1000
0100
0000
0001
0010
0001
0000
1000
0010
1000
0010
1000
0000
0010
0100
,  // measure 47
0010
0000
0001
0000
0000
0000
0100
0001
1000
0001
0100
0000
0010
0000
0001
0000
,  // measure 48
0201
0000
0000
0000
0010
0000
0000
0000
1300
0000
0000
0100
1000
0000
0100
0000
,  // measure 49
0000
0110
0001
1000
0001
0100
0010
1000
,  // measure 50
1100
0000
1001
0000
0011
0000
0101
0100
,  // measure 51
0000
0010
2000
3010
0200
0301
0020
0000
,  // measure 52
0030
0000
0101
0000
1100
0000
1000
0100
,  // measure 53
0000
0001
0100
0010
1010
1100
1001
0101
,  // measure 54
0001
0100
0001
0000
0010
1000
0010
1000
0001
0000
0001
0100
0010
0000
1000
0000
,  // measure 55
0000
0000
0100
1000
0100
0000
0010
0000
0001
0000
0200
0000
0000
0000
0000
0000
,  // measure 56
0310
0000
0110
0100
0101
0000
2000
0000
,  // measure 57
3200
0320
0032
0003
,  // measure 58
0100
1000
0100
0001
0000
2000
0000
0001
,  // measure 59
0000
0100
3100
0000
0110
0000
1200
0000
,  // measure 60
0010
0000
0301
0010
0100
0010
1010
0000
,  // measure 61
1100
0101
2002
3003
,  // measure 62
0100
0010
1000
0002
0100
0000
0010
0000
,  // measure 63
1000
0000
0000
0000
0103
0000
0000
0000
0000
0000
0001
0100
0001
0000
0010
1000
,  // measure 64
0010
0000
0001
0100
0001
0100
0010
0000
1000
0000
0100
0000
0000
0000
0001
0000
,  // measure 65
0100
0000
1000
0000
1100
0000
1001
0000
0011
0000
0000
0000
1000
0100
1000
0000
,  // measure 66
0010
0001
0010
0000
1000
0100
1000
0100
0010
0001
0010
0000
0000
0000
0001
0000
,  // measure 67
0010
0000
1000
0000
1010
0000
1001
0000
0101
0000
0000
0000
0010
0001
0010
0000
,  // measure 68
1000
0100
1000
0000
0001
0100
0001
0100
0010
1000
0010
0000
0000
0000
0100
0000
,  // measure 69
0001
0000
1000
0000
1010
0000
0110
0000
0011
0000
0000
0000
0001
0100
0001
0000
,  // measure 70
1000
0100
1000
0000
0001
0010
0001
0010
0001
0000
0200
0000
0000
0000
2300
0000
,  // measure 71
0000
0000
3020
0000
0000
0000
0000
0000
0000
0000
0130
0000
0001
0100
0001
0000
,  // measure 72
1000
0100
1000
0100
1000
0000
0010
0000
0001
0000
0100
0000
0000
0000
1000
0100
,  // measure 73
1000
0000
0001
0100
0001
0000
0100
0000
1000
0000
0100
0000
0010
0001
0010
0000
,  // measure 74
1000
0010
1000
0010
1000
0000
0100
0000
0001
0000
0010
0000
0000
0000
1000
0010
,  // measure 75
1000
0000
0001
0010
0001
0000
0100
0000
1000
0000
0010
0000
0001
0100
0001
0000
,  // measure 76
0010
1000
0010
1000
0010
0000
0100
0000
0001
0000
0010
0000
0000
0000
0010
0001
,  // measure 77
0010
0000
0010
1000
0010
0000
0100
0000
0001
0000
1000
0000
0000
0000
0010
1000
,  // measure 78
0010
1000
0010
1000
0010
1000
0010
1000
0010
0000
0100
0001
0100
0001
1000
0001
,  // measure 79
0100
0000
0020
0000
0030
0000
0020
0000
0030
0000
0100
0001
1000
0001
0100
0000
,  // measure 80
0010
0001
0100
0010
1000
0000
0100
0000
0010
0000
0001
0000
0000
0000
1000
0001
,  // measure 81
0010
0000
0001
1000
0010
0000
0100
0000
0001
0000
1000
0000
0010
0001
0100
0000
,  // measure 82
0010
1000
0100
0010
0001
0000
0100
0000
1000
0000
0010
0000
0000
0000
1000
0010
,  // measure 83
0100
0000
0010
0100
0001
0000
0010
0000
0100
0000
1000
0000
0001
0100
0010
0000
,  // measure 84
1000
0100
0010
0001
0100
0000
0010
0000
1000
0000
0001
0000
0000
0000
0001
0010
,  // measure 85
1000
0000
1000
0100
0001
0000
0100
0000
0010
0000
1000
0000
0000
0000
0010
0001
,  // measure 86
0100
0001
0010
0001
0100
0001
0010
0001
0100
0001
0010
0001
0100
0000
0010
0000
,  // measure 87
1000
0001
0010
0010
0010
0000
1100
0000
,  // measure 88
0101
0000
1001
0000
0000
0010
0000
0010
,  // measure 89
0000
0010
0100
0000
0000
0000
1100
0000
,  // measure 90
1010
0000
0011
0000
0000
0101
0000
1000
,  // measure 91
0100
0001
0100
1000
0100
0001
0101
0000
,  // measure 92
1100
0000
1010
0000
0000
0101
0000
1010
,  // measure 93
0000
1100
1000
0001
0010
0001
0101
0000
,  // measure 94
1010
0000
0101
0000
0000
0100
0000
2000
,  // measure 95
3200
0302
0023
0032
0203
2300
3001
0000
,  // measure 96
1001
0000
1010
0000
0000
1001
0000
0011
,  // measure 97
0000
0101
1000
0100
0010
0001
1001
0000
,  // measure 98
0101
0000
1010
0000
0000
0110
0000
1100
,  // measure 99
0000
0000
0011
0001
0010
0000
0000
0000
0101
0000
0000
0000
2000
0000
0100
0000
,  // measure 100
3010
0000
0101
0000
0020
0001
0130
0000
,  // measure 101
2000
0010
3100
0000
1100
0000
0200
1000
,  // measure 102
0301
0000
0101
0000
0002
0010
0103
0000
,  // measure 103
1001
1010
1100
0000
,  // measure 104
1000
0100
0010
0000
0010
0001
1000
0001
,  // measure 105
0100
0000
0000
0000
0100
0000
0000
0100
0000
0000
0200
0000
0000
0000
0000
0000
,  // measure 106
0000
2000
3000
0002
,  // measure 107
0303
0000
0101
0000
0101
0000
0101
0000
0101
0000
0001
0100
0010
0000
1000
0000
,  // measure 108
0100
0000
0000
0000
1100
0000
0000
0000
1000
0001
0010
0001
0100
0000
0000
0000
,  // measure 109
0100
0010
1000
0000
0010
0100
0001
0000
0010
0001
0100
0001
1000
0000
0100
0000
,  // measure 110
0010
0000
0001
0000
1000
0000
0000
0000
0010
1000
0010
0100
0001
0010
0100
0000
,  // measure 111
0010
1000
0100
0000
0010
0001
0100
0010
1000
0000
0001
0000
0100
0000
0000
0000
,  // measure 112
0100
0010
1000
0000
1000
0010
0001
0100
,  // measure 113
0001
0020
0000
0000
0000
0130
2000
0000
,  // measure 114
0002
0000
0000
0000
,  // measure 115
0003
0001
0000
0001
0000
3001
1000
1100
,  // measure 116
1010
0000
0000
0000
0000
0000
0101
0000
0000
0000
1100
0000
0000
0000
1010
0000
0010
0000
0000
0000
0101
0000
0000
0000
0001
0010
0001
0000
0100
0001
0100
0000
,  // measure 117
1000
0100
1000
0100
1000
0100
1000
0100
2000
0000
3200
0000
0320
0000
0032
0000
0023
0000
0230
0000
2300
0000
3002
0000
0103
0000
0000
0000
0110
0000
0000
0000
,  // measure 118
1010
0000
0000
0000
0000
0000
1100
0000
0000
0000
0011
0000
0000
0000
1001
0000
0100
0000
0010
0000
1000
0000
0001
0000
0010
0100
0010
0000
1000
0001
1000
0000
,  // measure 119
0100
0010
0100
0010
0100
0010
0100
0000
0000
0000
2000
0000
0002
0000
3003
0000
1001
0000
0000
0000
0000
0000
0000
0000
1100
0000
0000
0000
1000
0000
0000
0000
,  // measure 120
0001
0000
0100
0000
0000
0000
0010
1000
0001
0000
0010
0001
1000
0000
0100
0000
,  // measure 121
0010
0000
0001
0000
1000
0010
0100
0000
0001
0100
0010
1000
0100
0000
0010
0000
,  // measure 122
0001
0000
1000
0000
0000
0000
0010
0001
0100
0000
0010
1000
0100
0000
0010
0000
,  // measure 123
0001
0000
0100
0000
0010
1000
0100
0000
0001
0100
0010
1000
0100
0000
0010
0000
,  // measure 124
1000
0000
0001
0000
0000
0000
0100
0010
1000
0000
0010
0100
0001
0000
0010
0000
,  // measure 125
0100
0000
0000
0000
0000
0000
1000
0100
0010
0001
1000
0010
0100
0001
0010
0100
,  // measure 126
1000
0200
0000
0000
0000
1000
0000
0301
,  // measure 127
0000
0000
0100
0010
1000
0100
0010
0000
0001
0100
0010
1000
0100
0000
0001
0000
,  // measure 128
0010
0000
0100
0000
0000
0000
1000
0100
0001
0000
0001
0100
1000
0000
0010
0000
,  // measure 129
0100
0000
1000
0000
0010
0001
0100
0000
0001
0100
0010
1000
0100
0000
1000
0000
,  // measure 130
0010
0000
0100
0000
0000
0000
0010
0001
1000
0000
0010
0100
0001
0000
1000
0000
,  // measure 131
0100
0000
0010
0000
0001
0100
0010
0000
1000
0010
0001
0010
1000
0000
0100
0000
,  // measure 132
0010
0000
0001
0000
0000
0000
0100
0010
1000
0000
0010
0100
0001
0000
0010
0000
,  // measure 133
0100
0000
1000
0000
0000
0000
1000
0010
0001
0010
1000
0010
0001
0010
0100
1000
,  // measure 134
0100
0001
0100
1000
0100
0010
0100
1000
0010
0100
0001
0010
0100
1000
0001
0100
,  // measure 135
0010
1000
0100
0010
0001
0000
0200
0000
0320
0000
2030
0000
3200
0000
0320
0000
,  // measure 136
0031
0000
0101
0000
0101
1010
1100
1001
,  // measure 137
0011
0000
0000
0000
0001
0100
0010
0000
1000
0010
0100
0000
0001
0100
0010
1000
,  // measure 138
0100
1000
0000
0100
0001
0100
0000
1000
,  // measure 139
0100
0010
0001
0100
0001
0000
0101
0000
,  // measure 140
1000
0100
0000
1100
1010
1001
0011
0101
,  // measure 141
1001
0000
1100
0000
1000
1000
1000
0000
0001
0001
0001
0000
0100
0010
1000
0001
,  // measure 142
0010
0100
0000
1000
0100
0001
0000
0100
,  // measure 143
0000
2000
0000
0020
3000
1030
0010
0000
,  // measure 144
0200
0002
0300
0200
0000
0000
0000
0303
;
