#VERSION:0.83;
#TITLE:ヒマワリ;
#SUBTITLE:;
#ARTIST:RIYU from BeForU;
#TITLETRANSLIT:Himawari;
#SUBTITLETRANSLIT:;
#ARTISTTRANSLIT:;
#GENRE:;
#ORIGIN:;
#CREDIT:;
#BANNER:Himawari.png;
#BACKGROUND:Himawari-bg.png;
#PREVIEWVID:;
#JACKET:Himawari-jacket.png;
#CDIMAGE:;
#DISCIMAGE:;
#LYRICSPATH:;
#CDTITLE:;
#MUSIC:Himawari.ogg;
#OFFSET:0.000000;
#SAMPLESTART:34.389000;
#SAMPLELENGTH:15.000000;
#SELECTABLE:YES;
#DISPLAYBPM:185.000000;
#BPMS:0.000=184.400,
4.000=185.000;
#STOPS:;
#DELAYS:;
#WARPS:;
#TIMESIGNATURES:0.000=4=4;
#TICKCOUNTS:0.000=4;
#COMBOS:0.000=1;
#SPEEDS:0.000=1.000=0.000=0;
#SCROLLS:0.000=1.000;
#FAKES:;
#LABELS:0.000=Song Start;
#BGCHANGES:;
#KEYSOUNDS:;
#ATTACKS:
;

//---------------dance-single - ----------------
#NOTEDATA:;
#CHARTNAME:;
#STEPSTYPE:dance-single;
#DESCRIPTION:;
#CHARTSTYLE:;
#DIFFICULTY:Beginner;
#METER:3;
#RADARVALUES:0.176182,0.265563,0.077079,0.000000,0.000000,128.000000,120.000000,8.000000,0.000000,0.000000,0.000000,0.000000,0.000000,0.000000,0.176182,0.265563,0.077079,0.000000,0.000000,128.000000,120.000000,8.000000,0.000000,0.000000,0.000000,0.000000,0.000000,0.000000;
#CREDIT:;
#DISPLAYBPM:185.000000;
#NOTES:
0000
0000
0000
0000
,
0000
0000
0000
0000
,
1000
0000
0000
0000
,
0001
0000
0000
0000
,
1000
0000
0000
0000
,
1000
0000
0000
0000
,
0001
0000
0000
0000
,
0001
0000
0000
0000
,
1000
0000
1000
0000
,
1000
0000
0000
0000
,
0010
0000
0010
0000
,
0100
0000
0100
0000
,
0010
0000
0010
0000
,
0100
0000
0100
0000
,
0010
0000
0000
0000
,
0000
0000
0000
0000
,
1000
0000
0000
0000
,
0001
0000
0000
0000
,
0001
0001
0000
0000
,
1000
1000
0000
0000
,
0010
0010
0000
0000
,
0100
0100
0000
0000
,
0001
0000
0001
0000
,
0001
0000
0001
0000
,
1000
0000
1000
0000
,
1000
0000
1000
0000
,
0000
0000
1000
0000
,
1001
0000
0000
0000
,
0000
0000
0001
0000
,
1001
0000
0000
0000
,
0000
0000
1000
0000
,
1001
0000
0000
0000
,
0000
0000
0001
0000
,
1001
0000
0000
0000
,
1000
0000
0001
0001
,
0001
0000
0001
0000
,
0100
0000
0100
0000
,
0100
0000
0010
0000
,
0010
0000
0000
0000
,
1000
0000
1000
0000
,
0001
0000
0001
0000
,
0100
0000
0100
0000
,
0010
0000
0010
0000
,
1000
0000
0000
0000
,
0000
0000
0001
0000
,
0001
0000
0000
0000
,
0000
0000
1000
0000
,
1000
0000
0000
0000
,
0000
0000
0010
0000
,
0010
0000
0100
0000
,
0100
0000
0001
0000
,
0000
0000
0001
0000
,
1000
1000
1000
0000
,
1000
0000
0010
0000
,
0010
0000
0000
0000
,
0100
0000
0100
0000
,
0001
0000
0001
0000
,
1000
0000
1000
0000
,
0001
0000
0001
0000
,
0001
0000
0000
0000
,
1000
0000
0000
0000
,
1001
0000
0000
0000
,
0000
0000
0001
0000
,
1001
0000
0000
0000
,
0000
1000
0000
0000
,
1001
0000
1000
0000
,
0001
0000
0001
0000
,
0001
0000
0010
0000
,
0010
0000
0001
0001
,
0001
0000
0000
0000
,
1000
0000
0001
0000
,
0001
0000
1000
0000
,
1000
0000
1000
0000
,
0100
0000
0000
0000
,
1000
0000
0000
0000
,
0010
0000
0000
0010
,
0000
0000
1000
1000
,
1000
0000
0001
0000
,
1000
1000
0000
1001
;

//---------------dance-single - ----------------
#NOTEDATA:;
#CHARTNAME:;
#STEPSTYPE:dance-single;
#DESCRIPTION:;
#CHARTSTYLE:;
#DIFFICULTY:Easy;
#METER:4;
#RADARVALUES:0.235368,0.341438,0.144524,0.077079,0.000000,171.000000,156.000000,15.000000,8.000000,0.000000,0.000000,0.000000,0.000000,0.000000,0.235368,0.341438,0.144524,0.077079,0.000000,171.000000,156.000000,15.000000,8.000000,0.000000,0.000000,0.000000,0.000000,0.000000;
#CREDIT:;
#DISPLAYBPM:185.000000;
#NOTES:
0000
0000
0000
0000
,
0000
0000
0000
0000
,
2000
0000
0000
0000
,
0001
0000
0001
3000
,
0002
0000
0000
0000
,
1000
0000
1000
0003
,
0010
0000
0100
0000
,
1000
0000
0001
0000
,
2002
0000
0000
0000
,
0000
0000
0000
3003
,
0001
0000
0001
0000
,
1001
0000
1001
0000
,
1000
0000
1000
0000
,
1001
0000
1001
0000
,
0010
0000
0100
0000
,
0001
0000
1000
0000
,
1000
0001
1000
0001
,
0100
0000
0000
0000
,
0010
0000
1000
0000
,
0100
0000
0001
0000
,
0100
0000
1000
0000
,
0010
0000
0001
0000
,
0010
0000
0010
0000
,
1000
0000
1000
0000
,
0001
0000
0001
0000
,
0100
0000
0100
0000
,
2002
0000
3003
0000
,
0010
0000
0010
0000
,
0100
0000
0010
0000
,
0100
0000
0100
0000
,
0001
0000
1000
0000
,
0010
1000
0100
0000
,
0010
0001
0100
0000
,
0001
0000
1000
0000
,
1001
0000
0010
0000
,
0001
0000
0100
0000
,
1000
0000
0010
0000
,
1000
0000
0100
0000
,
0001
0000
0010
0000
,
0001
0000
1000
0000
,
0001
0000
1000
0000
,
1000
0000
0000
0001
,
0000
0000
1000
0001
,
1001
0000
0001
0000
,
0010
0000
0001
0000
,
1000
0000
0001
0000
,
0100
0000
0001
0000
,
1000
0000
0010
0000
,
1000
0000
0001
0000
,
1000
0000
0100
0000
,
1000
0000
0001
1000
,
1001
0000
0100
0000
,
1000
1000
1001
0000
,
0010
0000
0100
0000
,
0001
0001
1001
0000
,
0010
0000
0010
0000
,
1000
0000
1000
0000
,
0001
0000
0001
0000
,
0100
0000
0100
0000
,
2002
0000
0000
3003
,
1001
0000
0000
0000
,
0010
0000
0010
0000
,
0100
0000
0010
0000
,
0100
0000
0100
0000
,
0001
0000
1000
0000
,
0010
1000
0100
0000
,
0010
0001
0100
0000
,
0001
0000
1000
0000
,
1001
0000
0010
0000
,
0001
0000
0100
0000
,
1000
0000
0010
0000
,
1000
0000
0100
0000
,
0001
0000
0010
0000
,
0001
0000
1000
0000
,
0001
0000
1000
0000
,
1000
0000
0000
0001
,
0000
0000
1000
0001
,
0001
0000
1000
0000
,
0001
1000
0001
1001
;

//---------------dance-single - ----------------
#NOTEDATA:;
#CHARTNAME:;
#STEPSTYPE:dance-single;
#DESCRIPTION:;
#CHARTSTYLE:;
#DIFFICULTY:Medium;
#METER:7;
#RADARVALUES:0.403291,0.531126,0.144524,0.086714,0.000000,293.000000,278.000000,15.000000,9.000000,0.000000,0.000000,0.000000,0.000000,0.000000,0.403291,0.531126,0.144524,0.086714,0.000000,293.000000,278.000000,15.000000,9.000000,0.000000,0.000000,0.000000,0.000000,0.000000;
#CREDIT:;
#DISPLAYBPM:185.000000;
#NOTES:
0000
0000
0000
0000
,
0000
0000
0000
0000
,
1000
0000
0001
0000
,
0010
1000
0100
0100
,
1001
0000
1000
0000
,
0010
0001
0100
0100
,
1001
0000
0010
0000
,
0100
0010
0010
0000
,
2000
0001
0010
0001
,
0002
0000
0000
3003
,
0010
0010
0010
0001
,
0100
0100
0100
1000
,
0010
0010
0010
0001
,
0100
0100
0100
1000
,
0001
0001
0100
0000
,
1000
0100
1000
0000
,
0001
0100
0001
0010
,
2002
0000
0000
3003
,
1000
1100
0001
0101
,
1000
1000
1000
0000
,
0001
0101
1000
1100
,
0001
0001
0001
0000
,
1000
1000
1000
0010
,
0001
0001
0001
0100
,
1000
1000
1000
0010
,
0001
0001
0001
0100
,
2002
0000
3003
0000
,
1000
0010
1000
0001
,
1000
0100
1000
0000
1000
0100
1000
0000
,
0001
0010
0001
1000
,
0001
0010
0001
0000
0001
0010
0001
0000
,
0100
0010
1000
0100
,
0010
0001
0100
0010
,
0100
0001
1000
0001
,
0010
0000
0100
0100
,
1001
0100
0001
1000
,
0010
0000
0100
0000
0001
1000
0100
0000
,
1000
0001
0010
1000
,
0000
0100
0010
0000
,
0010
1000
0001
1000
,
0010
1000
0001
0100
,
0001
1000
0001
0100
,
0001
0010
0100
1000
,
1001
0000
0010
0000
,
0100
0000
0001
0001
,
0010
0000
1000
0000
,
0100
0000
1000
1000
,
1001
0000
0010
0000
,
0100
0000
0010
0100
,
1001
0000
0010
0000
,
0010
0010
0100
0100
,
0010
1000
0100
0000
,
0010
0001
0100
0000
,
0100
0001
1000
0000
,
0100
1000
0001
0000
,
0010
0100
0010
1000
,
0100
0010
0100
0100
,
1000
0001
1000
0010
,
0001
1000
0001
1000
,
2002
0000
0000
3003
,
1001
0000
0100
0100
,
0010
0100
0010
0010
,
1000
0000
0001
0000
1000
0001
0100
0000
,
0001
0010
1000
0100
,
1000
0001
1000
0002
,
1003
0100
1000
1000
,
0001
0010
0001
0001
,
1000
0100
1000
1000
,
0001
0000
0001
1000
,
0010
1000
0001
0010
,
0001
1000
0001
0000
1000
0001
1000
0000
,
0001
1000
0001
0010
,
0100
1000
0100
0000
0010
0000
0000
0000
,
0001
0100
1000
0001
,
0010
1000
0100
0001
,
1000
0000
0100
1000
0000
0000
0001
0000
,
0010
0001
0000
0100
0000
0010
1000
0000
,
0100
0010
0100
0000
1000
0001
1000
0000
,
0010
0100
0010
1000
0001
0000
1001
0000
;

//---------------dance-single - ----------------
#NOTEDATA:;
#CHARTNAME:;
#STEPSTYPE:dance-single;
#DESCRIPTION:;
#CHARTSTYLE:;
#DIFFICULTY:Hard;
#METER:11;
#RADARVALUES:0.579472,0.569063,0.491382,0.019270,0.024087,421.000000,370.000000,51.000000,2.000000,0.000000,0.000000,0.000000,0.000000,0.000000,0.579472,0.569063,0.491382,0.019270,0.024087,421.000000,370.000000,51.000000,2.000000,0.000000,0.000000,0.000000,0.000000,0.000000;
#CREDIT:;
#DISPLAYBPM:185.000000;
#NOTES:
0000
0000
0000
0000
,
0000
0000
0000
0000
,
1000
0000
0001
0100
0001
0000
1000
0100
,
0000
0100
1000
0000
1100
0000
0101
0000
,
0001
0000
1000
0000
0010
0000
1000
0010
,
0000
0010
1000
0000
1010
0000
0011
0000
,
1000
0000
0100
0000
0010
0000
0100
1000
,
0000
1000
0001
0000
1001
0000
0000
0001
,
0010
0000
0010
0001
0000
0000
0001
1000
,
0000
0001
0100
0010
1000
0001
1000
0001
,
1000
0000
0100
0000
1000
0000
0001
0100
,
0000
0100
0001
0010
0001
0000
1000
0010
,
1000
0000
0001
0000
1000
0000
0010
1000
,
0000
1000
0001
0100
0001
0000
0100
0000
,
0010
0000
1000
0000
0010
0000
1000
0001
,
0000
0001
1000
0000
1001
0000
0000
1000
,
0100
0000
0010
0001
0010
0000
0001
0100
,
0000
0100
0001
0000
0101
0000
1100
0000
,
0001
1000
0001
1000
,
0010
1000
0010
0000
1000
0000
0001
0000
,
1000
0100
1000
0000
0100
1000
0100
0000
,
1001
0000
0000
1001
0000
0001
0010
0100
,
1000
0000
0001
0000
1000
0000
0001
0010
,
0000
0000
0100
0000
0100
0000
1000
0010
,
0000
0000
0100
0000
0001
0010
0100
1000
,
0000
1100
0101
1001
,
0010
0000
0000
0100
0000
0000
1000
0000
0001
0000
0000
0000
1001
0000
0000
0000
,
1000
0100
1000
0100
0000
0010
0100
2000
,
0000
0000
0001
3001
,
1001
0000
0001
0100
0000
0001
0010
0001
,
0000
1000
0100
0000
1001
0000
0000
0000
,
1000
0100
0010
0001
0000
1000
0010
1000
,
0000
0000
1010
0000
0011
0000
0001
0100
,
0001
0000
1000
0100
0000
1100
0000
0101
,
0000
0000
1000
0001
,
0000
1000
0000
1100
0000
0001
0000
0101
,
0000
1000
0000
1010
0000
0001
0000
0011
,
0000
0010
0000
1100
0000
0010
0000
0101
,
0000
0001
1000
0000
1001
0000
0000
0000
,
0100
1000
0100
1000
0000
0001
0100
0001
,
0100
0010
1000
0001
,
0010
0000
0100
1000
0000
0000
0010
0000
,
0100
0001
0000
1000
0000
0001
0010
0000
,
0001
0001
1000
0001
0000
1000
0001
1000
,
0000
0001
0001
1000
0100
0000
0100
0000
,
1000
1000
0010
1000
0000
0010
1000
0010
,
0000
1000
1000
0001
0100
0000
0100
0000
,
0001
0001
0010
0001
0000
0010
0001
0010
,
0000
0001
0001
1000
0100
0000
0100
0000
,
0010
0010
0001
1000
0000
0010
1000
0010
,
0000
1000
1000
0001
0100
0000
0100
0000
,
0001
1000
0001
1000
,
0001
0010
0001
0000
1000
0000
0100
0000
,
1000
0010
1000
0000
0001
0010
0001
0000
,
1001
0000
0000
1001
0000
1000
0100
0010
,
0001
0000
1000
0000
0010
0000
1000
0100
,
0000
0000
0010
0000
0010
0000
0001
1000
,
0000
0000
0100
0000
1000
0100
0010
0001
,
0000
1100
0101
1001
,
0100
0000
1000
0000
0001
0000
0100
0000
0001
0000
1000
0000
,
1001
0000
1100
0101
,
0000
1000
0000
1010
0000
0001
0000
0011
,
0000
1000
0000
0110
0000
0001
0000
0110
,
0000
0010
0000
1001
0000
0100
0000
1001
,
0000
1000
0001
0000
1001
0000
0000
0000
,
1000
0100
0010
0001
0000
1000
0010
1000
,
0000
1010
0011
0001
,
1000
0000
0001
0100
0000
0101
0000
1100
,
0000
0000
0000
0000
1000
0000
0001
1000
,
0001
0100
0001
0100
0000
0010
0100
0002
,
0000
0000
1000
1003
,
1001
0000
1000
0100
0000
1000
0010
1000
,
0000
0001
0100
0000
1001
0000
0000
0000
,
0001
0100
0010
1000
0000
0001
0010
0001
,
0010
0011
1010
1000
,
0001
0000
1000
0100
0000
0000
1000
0000
,
0001
0100
0000
0001
0000
1000
0010
0000
,
0010
1000
0100
0000
0010
0001
0100
0000
,
0010
1000
0100
0010
0001
0000
1001
0000
;

//---------------dance-double - ----------------
#NOTEDATA:;
#CHARTNAME:;
#STEPSTYPE:dance-double;
#DESCRIPTION:;
#CHARTSTYLE:;
#DIFFICULTY:Easy;
#METER:4;
#RADARVALUES:0.217474,0.341438,0.105984,0.202334,0.000000,158.000000,147.000000,11.000000,21.000000,0.000000,0.000000,0.000000,0.000000,0.000000,0.217474,0.341438,0.105984,0.202334,0.000000,158.000000,147.000000,11.000000,21.000000,0.000000,0.000000,0.000000,0.000000,0.000000;
#CREDIT:;
#DISPLAYBPM:185.000000;
#NOTES:
00000000
00000000
00000000
00000000
,
00000000
00000000
00000000
00000000
,
10000000
00000000
01000000
00000000
,
00010000
00000000
00001000
00000000
,
00010000
00000000
00001000
00000000
,
00000100
00000000
00000001
00000000
,
00001000
00000000
00000010
00000000
,
00000100
00000000
00001000
00000000
,
00022000
00000000
00000000
00000000
,
00000000
00000000
00000000
00033000
,
00010000
00000000
00100000
00000000
,
01000000
00000000
00010000
00000000
,
00001000
00000000
00000100
00000000
,
00000010
00000000
00010000
00000000
,
00001000
00000000
00000100
00000000
,
00000001
00000000
00000001
00000000
,
00001000
00000000
00001000
00000000
,
00000100
00000000
00000000
00000000
,
00010000
00000000
10000000
00000000
,
01000000
00000000
00100000
00000000
,
00001000
00000000
00010000
00000000
,
00000100
00000000
00001000
00000000
,
00000010
00000000
00000010
00000000
,
00001000
00000000
00001000
00000000
,
00000001
00000000
00000001
00000000
,
00000100
00000000
00000100
00000000
,
00002002
00000000
00003003
00000000
,
00000001
00000000
00001000
00000000
,
00000001
00000000
00000100
00000000
,
00001000
00000000
00010000
00000000
,
01000000
00000000
10000000
00000000
,
00010000
00000000
10000000
00000000
,
00100000
00000000
10000000
00000000
,
01000000
00000000
00010000
00000000
,
00011000
00000000
00100000
00000000
,
00010000
00000000
10000000
00000000
,
01000000
00000000
00100000
00000000
,
00010000
00000000
00100000
00000000
,
00001000
00000000
00010000
00000000
,
00001000
00000000
00010000
00000000
,
00000100
00000000
00001000
00000000
,
00000001
00000000
00000000
00000100
,
00000000
00000000
00001000
00000000
,
00021000
00000000
00032000
00000000
,
00203000
00000000
00320000
00000000
,
20030000
00000000
32000000
00000000
,
03020000
00000000
00032000
00000000
,
00003200
00000000
00000302
00000000
,
00002003
00000000
00003200
00000000
,
00020300
00000000
00032000
00000000
,
00203000
00000000
00310000
10000000
,
10010000
00000000
00010000
00000000
,
00001000
00001000
00011000
00000000
,
00000010
00000000
00000100
00000000
,
00000001
00000001
00001001
00000000
,
00000100
00000000
00000100
00000000
,
00000001
00000000
00000001
00000000
,
00000010
00000000
00000010
00000000
,
00001000
00000000
00001000
00000000
,
00022000
00000000
00000000
00033000
,
00011000
00000000
00000000
00000000
,
00010000
00000000
00000000
00000000
,
00000100
00000000
00000000
00000000
,
00010000
00000000
00000000
00000000
,
01000000
00000000
00000000
00000000
,
00010000
00000000
00001000
00000000
,
00000100
00000000
00000001
00000000
,
00000100
00000000
00001000
00000000
,
00011000
00000000
00010000
00000000
,
01000000
00000000
10000000
00000000
,
00100000
00000000
10000000
00000000
,
00100000
00000000
10000000
00000000
,
01000000
00000000
00010000
00000000
,
00001000
00000000
00000100
00000000
,
00000001
00000000
00001000
00000000
,
00000001
00000000
00000000
00001000
,
00000000
00000000
00000001
00000100
,
00001000
00000000
00010000
00000000
,
00001000
00010000
00001000
00011000
;

//---------------dance-double - ----------------
#NOTEDATA:;
#CHARTNAME:;
#STEPSTYPE:dance-double;
#DESCRIPTION:;
#CHARTSTYLE:;
#DIFFICULTY:Medium;
#METER:7;
#RADARVALUES:0.403291,0.531126,0.125254,0.077079,0.000000,293.000000,280.000000,13.000000,8.000000,0.000000,0.000000,0.000000,0.000000,0.000000,0.403291,0.531126,0.125254,0.077079,0.000000,293.000000,280.000000,13.000000,8.000000,0.000000,0.000000,0.000000,0.000000,0.000000;
#CREDIT:;
#DISPLAYBPM:185.000000;
#NOTES:
00000000
00000000
00000000
00000000
,
00000000
00000000
00000000
00000000
,
10000000
00000000
01000000
00000000
,
00010000
00001000
00000100
00000100
,
00001001
00000000
00000100
00000000
,
00001000
00010000
01000000
01000000
,
10010000
00000000
00010000
00000000
,
01000000
00001000
00010000
00000000
,
00020000
00000010
00001000
00030010
,
00002000
00100000
00010000
00103000
,
00010000
00010000
00010000
00001000
,
01000000
01000000
01000000
00010000
,
00100000
00100000
00100000
00010000
,
10000000
10000000
10000000
01000000
,
00010000
00010000
00001000
00000000
,
00001000
00000100
00000001
00000000
,
00000010
00001000
00000001
00000100
,
00002002
00000000
00000000
00003003
,
00000001
00001000
00000001
00000100
,
00001000
00010000
01000000
00000000
,
10000000
00010000
10000000
01000000
,
00010000
00001000
00000100
00000000
,
00001000
00001000
00001000
00010000
,
00000010
00000010
00000010
00001000
,
00000100
00000100
00000100
00001000
,
00000001
00000001
00000001
00000010
,
00002002
00000000
00003003
00000000
,
00000001
00001000
00000010
00000100
,
00001000
00010000
00001000
00000000
00010000
00001000
00010000
00000000
,
01000000
00100000
00010000
10000000
,
00100000
10000000
00100000
00000000
10000000
00100000
10000000
00000000
,
01000000
00010000
00001000
00000010
,
00000001
00000100
00000010
00001000
,
00000001
00000100
00001000
00010000
,
00100000
00000000
01000000
01000000
,
10010000
00010000
00100000
00010000
,
10000000
01000000
00010000
00001000
,
00000100
00000010
00001000
00000001
,
00000001
00001000
00000001
00000000
,
00000010
00000001
00001000
00000100
,
00010000
00001000
00100000
00010000
,
10000000
00100000
10000000
00010000
,
01000000
00001000
00010000
00001000
,
00011000
00000000
00001000
00000000
,
00010000
00000000
00100000
00100000
,
01000000
00000000
10000000
00000000
,
00010000
00000000
10000000
10000000
,
10010000
00000000
01000000
00000000
,
00010000
00000000
00001000
00010000
,
00011000
00000000
00001000
00000000
,
00000100
00000100
00000010
00000010
,
00000100
00000001
00000010
00000000
,
00000100
00001000
00000010
00000000
,
00000100
00001000
00010000
00000000
,
00010000
01000000
10000000
00000000
,
00010000
10000000
00010000
00100000
,
01000000
10000000
01000000
00010000
,
00001000
00010000
00001000
00000100
,
00000001
00001000
00000001
00001000
,
00002002
00000000
00000000
00003003
,
00001001
00000000
00000010
00000010
,
00001001
00001000
00000100
00001000
,
00000001
00000010
00001000
00010000
,
00100000
01000000
00010000
10000000
,
00010000
10000000
10000000
00000000
,
01000000
10000000
00010000
00100000
,
00001000
00010000
00000100
00001000
,
00000001
00000100
00000001
00001000
,
00000010
00010000
00001000
00010000
,
00011000
00010000
01000000
10000000
,
00010000
10000000
00010000
00000000
10000000
00010000
10000000
00000000
,
01000000
00010000
00001000
00000100
,
00000001
00000010
00000001
00000000
00001000
00000000
00000000
00000000
,
00000001
00000010
00001000
00010000
,
00100000
10000000
01000000
00010000
,
00001000
00000000
00000000
01000000
00010000
00000000
00100000
00000000
,
00001000
00010000
00000000
00001000
00000000
00010000
00000010
00000000
,
00001000
00000001
00001000
00000000
00000010
00000100
00000010
00000000
,
00000001
00000100
00001000
00010000
00001000
00000000
00011000
00000000
;

//---------------dance-double - ----------------
#NOTEDATA:;
#CHARTNAME:;
#STEPSTYPE:dance-double;
#DESCRIPTION:;
#CHARTSTYLE:;
#DIFFICULTY:Hard;
#METER:13;
#RADARVALUES:0.645540,0.682876,0.395032,0.048175,0.024087,469.000000,428.000000,41.000000,5.000000,0.000000,0.000000,0.000000,0.000000,0.000000,0.645540,0.682876,0.395032,0.048175,0.024087,469.000000,428.000000,41.000000,5.000000,0.000000,0.000000,0.000000,0.000000,0.000000;
#CREDIT:;
#DISPLAYBPM:185.000000;
#NOTES:
00000000
00000000
00000000
00000000
,
00000000
00000000
00000000
00000000
,
10000000
00010000
02000000
00000000
00000000
00000000
03000000
00000000
,
00010000
10000000
01000000
00010000
01000000
00100000
00001000
00010000
,
00001000
00000010
00000001
00000100
00000010
00001000
00000100
00010000
,
00001000
00000010
00000001
00000100
00001000
00010000
00000100
00000010
,
00000001
00001000
00000200
00000000
00000000
00000000
00000300
00000000
,
00001000
00000001
00000010
00001000
00000010
00000100
00010000
00000010
,
00000100
00000001
00001000
00000100
00010000
00001000
01000000
00100000
,
10000000
01000000
00010000
00001000
00000100
00000001
00001000
00000001
,
00001001
00000000
00000101
00000000
00001100
00000000
00000000
00011000
,
00000000
00000000
01010000
00000000
00000000
11000000
00000000
00000000
,
10010000
00000000
10100000
00000000
00110000
00000000
00000000
00011000
,
00000000
00000000
00001010
00000000
00000000
00000011
00000000
00000000
,
00000001
00000010
00000200
00000000
00000000
00000000
00000300
00000000
,
00000010
00000001
00000100
00000010
00001000
00000100
00000010
00000001
,
00000100
00000010
00010000
00000100
00010000
00001000
00000100
00000001
,
00000000
00000001
00000100
00000000
00000101
00000000
00001100
00000000
,
00000100
00010000
00001000
00010000
00000000
00001000
01000000
00100000
,
10000000
00100000
01000000
00010000
00000000
00000000
10000000
01000000
,
00100000
00001000
00010000
00000010
00000000
00000000
00001000
00000100
,
00001000
00000001
00000100
00000010
00000000
00010000
00001000
00000100
,
00000001
00000000
00000010
00000000
00000001
00000000
00001000
00000010
,
00000000
00000000
00010000
00000000
00010000
00000000
00001000
00000010
,
00000000
00000000
00000001
00000000
00000100
00001000
00010000
01000000
,
00000000
11000000
01010000
10010000
,
01000000
00000000
00000000
00001000
00000000
00000000
00010000
00000000
00001000
00000000
00000000
00000000
00011000
00000000
00000000
00000000
,
00010000
01000000
10000000
01000000
00000000
00100000
00010000
20020000
,
00000000
30030000
01000000
01000000
,
10010000
00000000
01000000
00010000
00000000
00001000
00010000
00001000
,
00000000
00000100
00000001
00000000
00001001
00000000
00000000
00000000
,
00000001
00000010
00000100
00001000
00000000
00000001
00000010
00000001
,
00000000
00000000
00000011
00000000
00001100
00000000
00000001
00000100
,
00000010
00000000
00001000
00000100
00000000
00001100
00000000
00000101
,
00000000
00000000
00000000
00000000
00001001
00000000
00000001
00001000
,
00000001
00000100
00000001
00000100
00001000
00000100
00001000
00010000
,
00001000
00010000
00100000
00010000
00100000
10000000
00100000
10000000
,
01000000
10000000
01000000
00010000
01000000
00010000
00001000
00010000
,
00000000
00001000
00000100
00000000
00000101
00000000
00000000
00000000
,
00000001
00000010
00000100
00001000
00000000
00001000
00000100
00000010
,
00000001
00000100
00000010
00010000
,
00001000
00000000
00010000
01000000
00000000
00000000
00010000
00000000
,
00001000
00000100
00000000
00001000
00000000
00010000
00001000
00000000
,
00010000
00010000
01000000
00100000
00000000
00100000
01000000
00010000
,
00000000
00010000
00001000
00000100
00000001
00000000
00000100
00000000
,
00001000
00001000
00000100
00000010
00000000
00000010
00000100
00001000
,
00000000
00001000
00010000
00100000
10000000
00000000
00100000
00000000
,
00010000
00010000
00100000
01000000
00000000
01000000
00100000
00010000
,
00000000
00010000
00001000
00000010
00000001
00000000
00000010
00000000
,
00001000
00001000
00000010
00000100
00000000
00000100
00000010
00001000
,
00000000
00001000
00010000
00001000
00010000
00000000
00011000
00000000
,
00100000
00001000
00010000
00001000
00000000
00010000
00000100
00000010
,
00000001
00000010
00000100
00001000
00000000
00000000
00000001
00000100
,
00000010
00010000
00001000
00100000
00000000
00100000
00010000
01000000
,
00010000
10000000
01000000
00100000
00000000
00001000
00010000
01000000
,
10000000
00000000
00100000
00000000
10000000
00000000
00010000
00100000
,
00000000
00000000
01000000
00000000
01000000
00000000
10000000
00100000
,
00000000
00000000
01000000
00000000
00001000
00010000
00001000
00000100
,
00000000
00000101
00001100
00001001
,
00000001
00000000
00000100
00000000
00001000
00000000
00010000
00000000
01000000
00000000
10000000
00000000
,
10010000
00000000
01000000
00001000
,
00010000
00001000
00010000
00001000
00000010
00001000
00000010
00000001
,
00000010
00000001
00000100
00000001
00000100
00001000
00000100
00001000
,
00010000
00001000
00010000
00100000
00010000
00100000
10000000
00100000
,
00000000
10000000
01000000
00000000
10010000
00000000
00000000
00000000
,
10000000
01000000
00100000
00010000
00000000
00100000
01000000
10000000
,
00000000
11000000
00110000
00100000
,
00001000
00000000
00010000
00000100
00000000
00001100
00000000
00000011
,
00000000
00000000
00000000
00000000
00000001
00000000
00001000
00000001
,
00001000
00000100
00010000
00000010
00000100
00000001
00000010
00001000
,
00010000
00000100
00010000
00001000
00100000
00010000
01000000
00100000
,
10000000
00010000
00100000
01000000
10000000
01000000
00010000
00001000
,
00010000
01000000
00100000
00001000
00010000
00000000
00000000
00000000
,
00001000
00000010
00000100
00001000
00000000
00000100
00000010
00000001
,
00001000
00000010
00000100
00000010
,
00000101
00000000
00000100
00001000
00000000
00000000
00001100
00000000
,
00001000
00010000
00000000
00011000
00000000
00010000
01000000
00000000
,
00010000
00001000
00000100
00000000
00001000
00010000
01000000
00000000
,
00010000
00001000
00000100
00000001
00000010
00000000
00001001
00000000
;

//---------------dance-single - ----------------
#NOTEDATA:;
#CHARTNAME:;
#STEPSTYPE:dance-single;
#DESCRIPTION:;
#CHARTSTYLE:;
#DIFFICULTY:Challenge;
#METER:15;
#RADARVALUES:0.842368,0.910501,0.443207,0.134889,0.125254,612.000000,566.000000,46.000000,14.000000,0.000000,0.000000,0.000000,0.000000,0.000000,0.842368,0.910501,0.443207,0.134889,0.125254,612.000000,566.000000,46.000000,14.000000,0.000000,0.000000,0.000000,0.000000,0.000000;
#CREDIT:;
#DISPLAYBPM:185.000000;
#NOTES:
// measure 0
0000
0000
0000
0000
,  // measure 1
0000
0000
0000
0000
,  // measure 2
0001
0100
0001
1000
0100
1000
0001
0100
,  // measure 3
1000
0100
0001
1000
1100
0000
0101
0000
,  // measure 4
1000
0010
1000
0001
0010
0001
1000
0010
,  // measure 5
0001
0010
1000
0010
0110
0000
0011
0000
,  // measure 6
0001
0100
1000
0001
0100
1000
0001
0100
,  // measure 7
1000
0100
0001
1000
1100
0000
0010
0100
,  // measure 8
0001
1000
0100
0010
0000
0010
0100
0010
,  // measure 9
0000
1000
0001
1001
1000
0001
0100
0010
,  // measure 10
1000
0100
1000
0010
0001
0100
0001
0010
,  // measure 11
0100
1000
0010
0001
0101
0000
1001
1000
,  // measure 12
0001
1000
0100
0001
1000
0100
0001
1000
,  // measure 13
0010
0001
0010
1000
1010
0000
0011
0000
,  // measure 14
0100
0001
0100
1000
0100
0001
0010
0001
,  // measure 15
0100
1000
0010
1000
1100
0000
1001
0001
,  // measure 16
0101
0000
1000
0001
1000
0100
1000
0010
,  // measure 17
0000
0100
0001
0000
1001
0000
1010
0000
,  // measure 18
1000
0100
0001
0010
0000
0010
0100
0010
,  // measure 19
1000
0001
0100
0001
0000
1000
0100
0001
,  // measure 20
0100
1000
0010
0100
0000
0001
1000
0100
,  // measure 21
0010
0001
1000
0100
0010
0000
0110
0000
,  // measure 22
0100
0001
0100
0001
1000
0010
1000
0010
,  // measure 23
1000
0100
1000
0100
0010
0001
0010
0002
,  // measure 24
0000
0103
1000
0001
0100
0010
1000
0200
,  // measure 25
0000
0310
1000
0001
0100
0010
1000
0100
,  // measure 26
0010
0000
0000
0110
0000
0000
1000
0001
1000
0000
0000
0000
1001
0000
0000
0000
,  // measure 27
1000
0100
0001
0100
1000
0100
0001
0100
,  // measure 28
1000
0010
0100
0001
1000
0010
0100
0001
,  // measure 29
1000
0010
0001
0010
1000
0010
0001
0010
,  // measure 30
1000
0010
0100
0001
2000
3100
0010
0001
,  // measure 31
0100
0010
0100
1000
0100
0010
0100
0001
,  // measure 32
1000
0100
0010
0000
1010
0000
1000
0001
,  // measure 33
0100
1000
0100
0010
0100
0001
1000
0100
,  // measure 34
0010
0000
0011
0000
0101
1000
0100
0010
,  // measure 35
0002
0000
0103
0020
0000
1030
0100
0010
,  // measure 36
0001
0100
1000
0100
0010
0000
0110
0000
,  // measure 37
0001
1000
0100
0010
0000
0001
0100
0010
,  // measure 38
0000
1000
1001
1001
0001
0000
0110
0000
,  // measure 39
1000
0010
1000
0100
1000
0010
1000
0100
,  // measure 40
1000
0001
1000
0100
1000
0001
1000
0010
,  // measure 41
1000
0100
0010
0002
0000
0003
0001
0100
,  // measure 42
1000
0020
0000
0031
1000
0010
0001
0010
,  // measure 43
1000
0100
0010
0001
0000
0001
1000
0100
,  // measure 44
0000
0000
1000
0000
0001
0000
0100
0010
0100
0000
0100
0000
0010
0000
0010
0000
,  // measure 45
1000
0010
0001
0010
0000
0010
1000
0001
,  // measure 46
0000
0010
0001
0100
0010
1000
0100
0010
,  // measure 47
0001
1000
0010
0100
0000
1000
0100
0001
,  // measure 48
0000
0100
1000
0001
0100
1000
0100
0001
,  // measure 49
1000
0010
0100
0001
1000
0100
0010
0001
,  // measure 50
1000
0001
0100
0010
1000
0000
0011
0000
,  // measure 51
0001
0010
0100
1000
0010
0001
0100
1000
,  // measure 52
0010
0100
0001
2000
0000
3001
0100
0010
,  // measure 53
1010
1000
0001
0100
0000
1000
0100
0010
,  // measure 54
0100
0001
1000
0001
0000
0001
1001
1001
,  // measure 55
0001
0100
0010
0100
0001
0100
0010
0100
,  // measure 56
0001
1000
0100
0010
0001
1000
0100
0010
,  // measure 57
0001
0100
0010
1000
0001
0010
0100
1000
,  // measure 58
0002
0000
0103
0010
0100
1000
0100
0010
,  // measure 59
0001
0000
0000
0000
0000
0000
0000
0000
0010
0000
0000
0000
0000
0000
0000
0000
0100
0000
0000
0000
0000
0000
0000
0000
1000
0000
0000
0000
0000
0000
0000
0000
0001
0000
0000
0000
0000
0000
0000
0000
1000
0000
0001
0000
0000
2000
0000
0000
,  // measure 60
0002
3003
1001
0110
,  // measure 61
1000
0001
0100
0110
0000
0010
0100
0101
,  // measure 62
0000
1100
0000
1010
1000
0000
1100
0000
,  // measure 63
1000
0100
0001
1001
0000
0010
0100
0110
,  // measure 64
0000
0011
0000
0101
0001
1000
0100
0010
,  // measure 65
0100
0010
1000
0010
0100
0001
1000
0100
,  // measure 66
0010
0001
1000
0010
0100
0001
1000
0100
,  // measure 67
0010
0001
1000
0010
0001
0010
1000
0001
,  // measure 68
0010
0000
0100
0000
1000
0000
0100
0000
0001
0100
0010
1000
0001
0100
0010
1000
,  // measure 69
0100
0010
1000
0001
1000
0100
0001
0100
,  // measure 70
1000
0000
0010
0000
0100
0000
0001
0000
1000
0100
0010
0001
1000
0100
0010
0001
,  // measure 71
1000
0100
0001
1000
0100
0001
0100
0010
,  // measure 72
1000
0002
0013
1010
1000
1001
0001
0010
,  // measure 73
1000
0100
0010
0100
1000
0001
0100
1000
,  // measure 74
0100
0010
1000
0100
0001
0100
0101
0100
,  // measure 75
0010
0100
1000
0100
0001
0000
0020
0000
0000
0000
0130
0000
0010
0100
1000
0100
,  // measure 76
0001
0201
0000
0310
1000
0100
0010
0001
,  // measure 77
1000
0010
0100
0001
0010
0000
0001
0000
0100
0001
0010
0001
0100
0000
1000
0000
,  // measure 78
0100
0001
1000
0001
0100
0000
0001
0000
0101
0000
0000
0000
1001
0000
0000
0000
;
