#TITLE:Hide-away;
#SUBTITLE:;
#ARTIST:AAA;
#TITLETRANSLIT:;
#SUBTITLETRANSLIT:;
#ARTISTTRANSLIT:;
#GENRE:;
#CREDIT:;
#BANNER:Hide-away.png;
#BACKGROUND:Hide-away-bg.png;
#LYRICSPATH:;
#CDTITLE:;
#MUSIC:Hide-away.ogg;
#OFFSET:0.000000;
#SAMPLESTART:73.419998;
#SAMPLELENGTH:15.000000;
#SELECTABLE:YES;
#BPMS:0.000000=134.000000
;
#STOPS:
;
#BGCHANGES:0.000=Hide-away.avi=1.000=0=0=0=StretchNoLoop====,
99999=-nosongbg-=1.000=0=0=0 // don't automatically add -songbackground-
;
#KEYSOUNDS:;
#ATTACKS:;

//---------------dance-single - ----------------
#NOTES:
     dance-single:
     :
     Beginner:
     1:
     0.084987,0.129278,0.045762,0.000000,0.000000,65.000000,60.000000,5.000000,0.000000,0.000000,0.000000,0.084987,0.129278,0.045762,0.000000,0.000000,65.000000,60.000000,5.000000,0.000000,0.000000,0.000000:
0000
0000
0000
0000
,
0000
0000
0000
0000
,
0000
0000
0000
0000
,
0000
0000
0000
0000
,
0000
0000
0000
0000
,
0010
0000
0000
0000
,
0010
0000
0000
0000
,
0100
0000
0000
0000
,
0100
0000
0000
0000
,
1000
0000
0000
0000
,
1000
0000
0000
0000
,
0001
0000
0000
0000
,
0001
0000
0000
0000
,
0010
0000
0000
0000
,
0100
0000
0000
0000
,
1000
0000
0000
0000
,
0001
0000
0000
0000
,
0010
0000
0000
0000
,
0100
0000
0000
0000
,
0010
0000
0000
0000
,
0100
0000
0000
0000
,
0001
0000
0000
0000
,
1000
0000
0000
0000
,
0001
0000
0000
0000
,
1000
0000
0000
0000
,
0001
0000
0001
0000
,
0000
0000
0000
0000
,
1000
0000
1000
0000
,
0000
0000
0000
0000
,
0010
0000
0010
0000
,
0000
0000
0000
0000
,
0100
0000
0100
0000
,
0000
0000
0000
0000
,
0001
0001
0001
0000
,
0000
0000
0000
0000
,
0100
0000
0000
0000
,
0100
0000
0000
0000
,
1000
1000
1000
0000
,
0000
0000
0000
0000
,
0100
0000
0000
0000
,
0100
0000
0000
0000
,
1001
0000
0000
0000
,
1001
0000
0000
0000
,
0010
0000
0000
0000
,
0100
0000
0000
0000
,
1001
0000
0000
0000
,
1001
0000
0000
0000
,
0010
0010
0010
0000
,
0000
0000
0000
0000
,
1000
0000
1000
0000
,
0100
0000
0100
0000
,
0001
0000
0001
0000
,
0010
0000
0010
0000
,
1000
0000
1000
0000
,
0100
0000
0000
0000
,
0000
0000
0010
0000
,
0000
0000
1001
0000
,
0000
0000
0000
0000
;

//---------------dance-single - ----------------
#NOTES:
     dance-single:
     :
     Easy:
     4:
     0.186970,0.234759,0.009152,0.064067,0.000000,143.000000,142.000000,1.000000,7.000000,0.000000,0.000000,0.186970,0.234759,0.009152,0.064067,0.000000,143.000000,142.000000,1.000000,7.000000,0.000000,0.000000:
0000
0000
0000
0000
,
0000
0000
0000
0000
,
0000
0000
0000
0000
,
0000
0000
0000
0000
,
0000
0000
0000
0000
,
0010
0000
0100
0000
,
0001
0000
1000
0000
,
0100
0100
0100
0100
,
0020
0000
0000
0000
,
0130
1000
0010
0000
,
0100
0001
0010
0000
,
1000
1000
0100
0000
,
0001
0001
0100
0000
,
0010
1000
0100
0000
,
0010
0001
0100
0000
,
1000
1000
0010
0000
,
0001
0001
0010
0000
,
0010
0000
0001
0000
,
1000
0000
0010
0000
,
0100
0000
0010
0000
,
0001
0000
0100
0000
,
1000
0000
0100
0000
,
0010
0000
0001
0000
,
0010
0000
1000
0000
,
2000
0000
3002
0000
,
1003
1000
0100
0100
,
0010
0000
0100
0000
,
0001
0001
0100
0100
,
0010
0000
0100
0000
,
0010
1000
0100
0000
,
0010
0100
0001
0000
,
0002
0000
0000
0003
,
2000
0000
0000
3000
,
0010
0100
0010
0000
,
0100
0010
0100
0000
,
0001
0010
0100
0000
,
1000
0010
0100
0000
,
0100
0010
0100
0000
,
0010
0100
0010
0000
,
1000
0100
0010
0000
,
0001
0001
0000
0000
1000
1000
0000
0000
,
0010
0010
0100
0001
,
0100
0100
0010
0000
,
0001
0001
1000
1000
,
0010
0100
0010
0000
,
0100
0100
0010
0000
,
0010
0010
0100
0000
,
0001
1000
0100
0000
,
0001
0001
0010
0000
,
1000
1000
0010
0000
,
0100
0100
0001
0000
,
0100
0100
1000
0000
,
0100
0001
0100
0001
,
1000
0100
1000
0100
,
0010
0000
0000
0100
,
0000
0000
0010
0000
,
0100
0000
2002
0000
,
3003
0000
0000
0000
,
0000
0000
0000
0000
;

//---------------dance-single - ----------------
#NOTES:
     dance-single:
     :
     Medium:
     7:
     0.274572,0.315071,0.128134,0.183048,0.000000,210.000000,196.000000,14.000000,20.000000,0.000000,0.000000,0.274572,0.315071,0.128134,0.183048,0.000000,210.000000,196.000000,14.000000,20.000000,0.000000,0.000000:
0000
0000
0000
0000
,
0000
0000
0000
0000
,
0000
0000
0000
0000
,
0000
0000
0000
0000
,
0000
0000
0000
0000
,
0010
0000
0010
0000
,
0100
0000
0100
0000
,
0001
0010
0100
1000
,
0020
0100
0100
0130
,
1001
0010
1000
0100
,
0001
0010
1000
0100
,
1001
0010
0001
0100
,
1000
0010
0001
0100
,
1001
0010
1000
0100
,
0010
0100
1000
0010
,
1001
0100
0001
0010
,
0002
0000
0000
0000
,
2003
0000
0001
3001
,
0020
0000
1000
1030
,
0200
0000
0010
0310
,
0002
0000
1000
1003
,
0020
0000
0001
0130
,
0200
0000
0010
1300
,
2000
0000
0001
3010
,
1000
0010
0100
0000
,
1001
0000
0100
0000
1000
0100
1000
0000
,
1000
0010
0001
0100
,
0001
0000
0100
0000
0001
0100
0001
0000
,
0010
0001
0100
1000
,
0001
0000
0010
0000
1000
0010
1000
0000
,
0001
0100
1000
0010
,
0100
0000
0010
0000
0001
0010
0001
0000
,
0100
0000
0010
0000
0100
0010
0100
0000
,
1100
0010
1000
0100
,
0001
0100
0010
0100
,
1000
0010
1000
0010
,
0001
0010
0001
0010
,
0101
0000
0010
0000
0001
0100
0010
0000
,
1000
0100
0010
0000
0100
0000
0010
0000
,
0001
0100
0001
0100
,
0001
0001
0000
0000
1000
1000
0000
0000
,
0200
0000
0000
1300
0100
0000
1001
0000
,
0200
0000
0000
0301
0100
0000
1001
0000
,
1000
0100
0001
0100
,
1000
0100
0001
0100
,
0020
0000
0000
0031
0010
0000
1001
0000
,
0020
0000
0000
1030
0010
0000
1001
0000
,
0002
0000
0000
0013
0100
0000
0000
0000
,
1001
0000
0100
0000
1000
0100
0010
0000
,
0001
0000
0100
0000
0001
0100
0010
0000
,
0100
0000
0010
0000
1000
0001
0100
0000
,
0020
0000
0230
0000
,
0310
0000
1000
0000
0001
0100
0010
0000
,
0100
0000
0001
0000
1000
0100
0010
0000
,
0002
0000
0000
2003
,
0000
0000
3020
0000
,
0230
0000
0000
0300
1001
0000
0000
0000
,
0000
0000
0000
0110
0000
0000
0000
0000
,
0000
0000
0000
0000
;

//---------------dance-single - ----------------
#NOTES:
     dance-single:
     :
     Hard:
     9:
     0.358251,0.424671,0.146438,0.091524,0.068643,274.000000,258.000000,16.000000,10.000000,0.000000,0.000000,0.358251,0.424671,0.146438,0.091524,0.068643,274.000000,258.000000,16.000000,10.000000,0.000000,0.000000:
0000
0000
0000
0000
,
0000
0000
0000
0000
,
0000
0000
0000
0000
,
0000
0000
0000
0000
,
0000
0000
0000
0000
,
1000
0000
1000
0000
,
0001
0000
0001
0000
,
1000
1000
0001
0001
,
0010
0000
0010
0000
0100
0010
0100
0000
,
1001
0000
0100
0000
0001
0010
0001
0000
,
0010
0000
0010
0000
1000
0010
1000
0000
,
0010
0000
0010
0000
0001
0100
0001
0000
,
0100
0000
0100
0000
1000
0100
1000
0000
,
0100
0000
0000
0000
0100
0000
0000
0000
0001
0000
0000
0010
0000
0000
0100
0000
,
1000
0000
0000
0000
0100
0000
0000
0000
1000
0000
0000
0010
0000
0000
0100
0000
,
0001
0000
0000
0000
0100
0000
0000
0000
1000
0000
0000
0100
0000
0000
0010
0000
,
1000
0000
0010
0000
0001
0100
1000
0200
,
0000
0310
0100
0001
0010
0100
0010
0002
,
0000
0000
0003
0000
0000
1000
0010
0200
,
0000
0000
1300
0100
0001
0100
0000
0020
,
0000
1030
0100
0000
0000
1000
0100
2000
,
0000
3001
0010
0001
1000
0002
0000
2003
,
0000
0000
3000
0000
0000
0010
1000
0200
,
0000
1300
0010
0100
0001
0010
1000
0010
,
0100
0001
0010
1000
,
1010
0000
0100
0000
1000
0010
0100
0000
,
0001
0000
1000
0000
0010
0001
1000
0000
,
0001
0000
0010
0000
0001
0100
0010
0000
,
1000
0000
0001
0000
0100
1000
0001
0000
,
1000
0000
0010
0000
1000
0100
0010
0001
,
1000
0010
0100
0010
,
0100
1000
0001
0000
0010
1000
0100
0000
,
0010
0001
1000
0000
0100
0001
0010
0000
,
1001
0000
0010
0001
0010
0000
0100
0000
,
0010
1000
0100
0000
0010
0001
0100
0000
,
0010
0000
1001
0000
0001
0010
0100
0000
,
0010
0100
1000
0001
,
0110
0000
0001
0100
0010
1000
0100
0000
,
1000
0000
0001
0000
0010
0100
0010
0000
,
1000
0000
0001
0000
1000
0001
1000
0000
,
0110
0110
0000
0000
1001
1001
0000
0000
,
1010
0000
0000
0100
0000
0000
0001
0000
0010
0000
0000
0000
0100
0000
0000
0000
,
0011
0000
0000
0100
0000
0000
1000
0000
0010
0000
0000
0000
0100
0000
0000
0000
,
0001
0000
0000
0001
0000
0000
0001
0000
1000
0000
0000
1000
0000
0000
1000
0000
,
0010
0000
0000
0100
0000
0000
0010
0000
0100
0000
0000
0000
0010
0000
0000
0000
,
0101
0000
0000
0010
0000
0000
1000
0000
0100
0000
0000
0000
0010
0000
0000
0000
,
1100
0000
0000
0010
0000
0000
0001
0000
0100
0000
0000
0000
0010
0000
0000
0000
,
1000
0000
0000
0001
0000
0000
0110
0000
1001
0000
0000
0000
0000
0000
0000
0000
,
0100
0000
0010
0000
1000
0100
0010
0000
,
0001
0000
0100
0000
0010
1000
0100
0000
,
0010
0000
0001
0000
0100
0010
1000
0000
,
0100
1000
0010
0000
1000
0010
0100
0000
,
0001
0000
0100
0000
0001
0100
1000
0000
,
0001
0000
0100
0000
1000
0100
0001
0000
,
0010
0000
0000
0001
0000
0000
0001
0000
0000
0000
0100
0000
0010
0000
0000
0010
,
0000
0000
0100
0000
0000
0000
0001
0000
0010
0000
0000
0100
0000
0000
1000
0000
,
0010
0000
0000
0100
0000
0000
0001
0000
0100
0000
0000
0000
0000
0000
0000
0000
,
0000
0000
0000
2002
0000
0000
0000
0000
,
3003
0000
0000
0000
,
0000
0000
0000
0000
;

//---------------dance-double - ----------------
#NOTES:
     dance-double:
     :
     Easy:
     5:
     0.205275,0.286928,0.045762,0.045762,0.000000,157.000000,152.000000,5.000000,5.000000,0.000000,0.000000,0.205275,0.286928,0.045762,0.045762,0.000000,157.000000,152.000000,5.000000,5.000000,0.000000,0.000000:
00000000
00000000
00000000
00000000
,
00000000
00000000
00000000
00000000
,
00000000
00000000
00000000
00000000
,
00000000
00000000
00000000
00000000
,
00000000
00000000
00000000
00000000
,
00000001
00000000
00001000
00000000
,
00000010
00000000
00000100
00000000
,
00010000
00010000
00001000
00001000
,
00020000
00000000
00000000
00000000
,
00031000
00000010
00000001
00000000
,
00000010
00000100
00000010
00000000
,
00001000
00010000
00001000
00000000
,
01000000
00100000
00010000
00000000
,
10000000
01000000
00010000
00000000
,
01000000
00100000
01000000
00000000
,
00010000
00001000
00010000
00000000
,
00000010
00000100
00001000
00000000
,
00000001
00000000
00000001
00000001
,
00000100
00000000
00001000
00001000
,
00000100
00000000
00010000
00010000
,
00001000
00000000
00100000
00100000
,
01000000
00000000
10000000
10000000
,
00010000
00000000
00100000
00100000
,
00001000
00000000
00010000
00010000
,
00002000
00000000
00023000
00000000
,
00030100
00000100
00001000
00001000
,
00000010
00000000
00010000
00000000
,
00001000
00001000
00010000
00010000
,
00100000
00000000
01000000
00000000
,
00010000
00100000
10000000
01000000
,
00100000
00000000
00010000
00000000
,
00001000
00000100
00000001
00000010
,
00001000
00000000
00010000
00000000
,
00010000
00001000
00010000
00000000
,
00001000
00100000
00010000
00000000
,
00001000
00000010
00000100
00000000
,
00000001
00000010
00000100
00000000
,
00001000
00010000
00001000
00000000
,
00010000
00000100
00001000
00000000
,
00010000
01000000
00100000
00000000
,
10000000
10000000
00000000
00000000
00010000
00010000
00000000
00000000
,
00100000
00100000
00010000
00011000
,
00000010
00000010
00001000
00011000
,
00001000
00000000
01000000
00000000
,
00010000
00000000
10000000
00000000
,
01000000
01000000
00010000
00011000
,
00000100
00000100
00001000
00011000
,
00000010
00000000
00000100
00000000
,
00000001
00000001
00000100
00000000
,
00001000
00001000
00010000
00000000
,
00100000
00100000
10000000
00000000
,
01000000
01000000
00010000
00000000
,
00001000
00000100
00001000
00000100
,
00000001
00000100
00000001
00000100
,
00001000
00000000
00000000
00000100
,
00000000
00000000
00010000
00000000
,
00001000
00000000
00022000
00000000
,
00033000
00000000
00000000
00000000
,
00000000
00000000
00000000
00000000
;

//---------------dance-double - ----------------
#NOTES:
     dance-double:
     :
     Medium:
     7:
     0.285032,0.315071,0.100676,0.146438,0.000000,218.000000,207.000000,11.000000,16.000000,0.000000,0.000000,0.285032,0.315071,0.100676,0.146438,0.000000,218.000000,207.000000,11.000000,16.000000,0.000000,0.000000:
00000000
00000000
00000000
00000000
,
00000000
00000000
00000000
00000000
,
00000000
00000000
00000000
00000000
,
00000000
00000000
00000000
00000000
,
00000000
00000000
00000000
00000000
,
00000010
00000000
00000100
00000000
,
00000001
00000000
00001000
00000000
,
00010000
00010000
00001000
00001000
,
00002000
00010000
00010000
00013000
,
00011000
00100000
10000000
01000000
,
00010000
00001000
00000010
00000001
,
00000100
00001000
00010000
00100000
,
10000000
01000000
00010000
00001000
,
00011000
00000100
00000001
00000010
,
00001000
00010000
01000000
10000000
,
00100000
00010000
00001000
00000100
,
00000001
00000010
00001000
00011000
,
00020000
00000000
00000010
00000100
,
00032000
00000000
00100000
01000000
,
00023000
00000000
00000010
00000100
,
00032000
00000000
00100000
01000000
,
00103000
00000000
00010000
00000000
00100000
01000000
00010000
00000000
,
00001000
00000000
00010000
00000000
00001000
00000100
00000010
00000000
,
00000010
00000001
00001000
00000100
,
00010000
00001000
00100000
00010000
,
10010000
00000000
01100000
00000000
10000000
01000000
10000000
00000000
,
00100000
00010000
00100000
01000000
,
00010000
00000000
00011000
00000000
00000100
00001000
00000010
00000000
,
00000100
00000001
00000010
00000100
,
00001001
00000000
00010000
00000000
00001000
00010000
00000100
00000000
,
00001000
00010000
00100000
01000000
,
10000000
00100000
01000000
00000000
00010000
00000000
00100000
00000000
,
00001000
00000000
00100000
02000000
00000000
00000000
03000000
00000000
,
01000000
00000000
00110000
00000000
00100000
00010000
01000000
00000000
,
10000000
01000000
00010000
00000000
10000000
00000000
00010000
00000000
,
01000000
00001000
00010000
00000100
,
00000010
00000001
00001000
00000100
,
00000010
00001000
00000100
00000000
00000001
00000100
00001000
00000000
,
00000100
00001000
00010000
00100000
,
10000000
01000000
00100000
00010000
,
00001000
00001000
00000000
00000000
00010000
00010000
00000000
00000000
,
00002000
00000000
00000000
00013000
00001000
00000000
00010000
00000000
,
00020000
00000000
00000000
00031000
00010000
00000000
00001000
00000000
,
00100000
01000000
00010000
00000000
00010000
00001000
00000100
00000000
,
00000010
00001000
00000001
00000100
,
00020000
00000000
00000000
00031000
00010000
00000000
00001000
00000000
,
00002000
00000000
00000000
00013000
00001000
00000000
00011000
00000000
,
00001000
00000000
00000000
00100000
01000000
00000000
00000000
00000000
,
01100000
00000000
10000000
00000000
00010000
01000000
00100000
00000000
,
10000000
00000000
01000000
00000000
00010000
00001000
00000100
00000000
,
00000010
00000000
00001000
00000000
00000001
00000010
00000100
00000000
,
00002000
00000000
00023000
00000000
,
01030000
00000000
00100000
00000000
10000000
01000000
00100000
00000000
,
00010000
00000000
01000000
00000000
00010000
00100000
00001000
00000000
,
00000020
00000000
00000000
00000230
,
00000000
00000000
00002300
00000000
,
00003002
00000003
00001001
00000000
,
00000000
00000000
00000000
00000100
00000000
00000000
00000000
00000000
,
00000000
00000000
00000000
00000000
;

//---------------dance-double - ----------------
#NOTES:
     dance-double:
     :
     Hard:
     9:
     0.355636,0.398129,0.155591,0.073219,0.077795,272.000000,255.000000,17.000000,8.000000,0.000000,0.000000,0.355636,0.398129,0.155591,0.073219,0.077795,272.000000,255.000000,17.000000,8.000000,0.000000,0.000000:
00000000
00000000
00000000
00000000
,
00000000
00000000
00000000
00000000
,
00000000
00000000
00000000
00000000
,
00000000
00000000
00000000
00000000
,
00000000
00000000
00000000
00000000
,
00000001
00000000
00000010
00000000
,
00000100
00000000
00001000
00000000
,
00010000
01000000
00100000
10000000
,
00100000
00000000
00010000
00000000
00001000
00010000
00001000
00000000
,
00011000
00000000
00000100
00000000
00000001
00000010
00000001
00000000
,
00000100
00000000
00001000
00000000
00000100
00001000
00010000
00000000
,
00001000
00000000
00010000
00000000
00100000
10000000
01000000
00000000
,
00010000
00000000
00100000
00000000
10000000
00010000
01000000
00000000
,
00100000
00000000
00000000
00000000
01000000
00000000
00000000
00000000
00010000
00000000
00000000
00001000
00000000
00000000
00000010
00000000
,
00000100
00000000
00000000
00000000
00000100
00000000
00000000
00000000
00000010
00000000
00000000
00001000
00000000
00000000
00000100
00000000
,
00000010
00000000
00000000
00000000
00000001
00000000
00000000
00000000
00000100
00000000
00000000
00001000
00000000
00000000
00010000
00000000
,
00001000
00000000
00000000
00020000
00000000
00000000
00000000
00001000
,
00000000
00031000
01000000
10000000
01000000
00010000
00100000
01000000
,
20000000
00000000
00000000
00000000
30000000
01000000
00100000
00020000
,
00000000
00000000
00031000
00000100
00000010
00000100
00000000
00002000
,
00000000
00003001
00000100
00000000
00000000
00000001
00000010
00000100
,
00000000
00001000
00000100
00000010
00000100
00020000
00000000
00032000
,
00000000
00000000
00003000
00000000
00000000
00010000
00100000
10000000
,
00000000
00100000
01000000
00010000
00100000
01000000
10000000
01000000
,
00100000
00010000
00001000
00000100
,
00001000
00000000
00000100
00000001
00000010
00000000
00000001
00000000
,
00000100
00000000
00000010
00001000
00000100
00000000
00000010
00000000
,
00001000
00000000
00000100
00010000
00000010
00000000
00001000
00000000
,
00010000
00000000
00000100
00010000
00001000
00000000
00100000
00000000
,
00010000
00000000
01000000
00001000
00010000
00000000
00100000
00000000
,
01000000
00000000
10000000
00010000
01000000
00000000
00010000
00000000
,
10000000
00000000
00100000
10000000
00010000
00000000
01000000
00010000
,
00100000
00000000
00010000
00001000
00000100
00000000
00001000
00000000
,
00000011
00000000
00000001
00000100
00001000
00000000
00000100
00000000
,
00000010
00010000
00001000
00000000
00010000
00001000
00000100
00000000
,
00001000
00000000
00000100
00000000
00001000
00000000
00010000
00001000
,
00100000
00001000
00010000
00100000
,
10010000
00000000
10000000
01000000
00010000
01000000
10000000
00000000
,
00100000
00000000
01000000
00010000
01000000
00100000
10000000
00000000
,
00100000
00000000
01000000
00010000
00100000
00000000
00001000
00000000
,
00011000
00011000
00000000
00000000
00011000
00011000
00000000
00000000
,
00001000
00000000
00000000
00000100
00000000
00000000
00000010
00000000
00000001
00000000
00000000
00000000
00001100
00000000
00000000
00000000
,
00000001
00000000
00000000
00000100
00000000
00000000
00000010
00000000
00001000
00000000
00000000
00000000
00000101
00000000
00000000
00000000
,
00000001
00000000
00000000
00000001
00000000
00000000
00000100
00000000
00001000
00000000
00000000
00001000
00000000
00000000
00010000
00000000
,
01000000
00000000
00000000
01000000
00000000
00000000
10000000
00000000
00100000
00000000
00000000
00000000
10010000
00000000
00000000
00000000
,
00010000
00000000
00000000
00100000
00000000
00000000
01000000
00000000
10000000
00000000
00000000
00000000
00110000
00000000
00000000
00000000
,
10000000
00000000
00000000
00100000
00000000
00000000
01000000
00000000
00010000
00000000
00000000
00000000
10100000
00000000
00000000
00000000
,
10000000
00000000
00000000
00100000
00000000
00000000
01000000
00000000
01010000
00000000
00000000
00000000
00000000
00000000
00000000
00000000
,
00011000
00000000
00000100
00000000
00000001
00000010
00000100
00000000
,
00000010
00000000
00000100
00000000
00000010
00001000
00010000
00000000
,
00001000
00000000
00010000
00000000
00001000
00010000
00100000
00000000
,
01000000
00000000
00010000
00000000
00100000
01000000
10000000
00000000
,
00100000
00000000
00000000
00000000
10000000
00000000
00000000
00000000
01000000
00000000
00000000
00100000
00000000
00000000
00001000
00000000
,
00010000
00000000
00000000
00000000
00011000
00000000
00000000
00000000
00000100
00000000
00000000
00000010
00000000
00000000
00001000
00000000
,
00000001
00000000
00000000
00000010
00000000
00000000
00000100
00000000
00000000
00000000
00000001
00000000
00000100
00000000
00000000
00001000
,
00000000
00000000
00010000
00000000
00000000
00000000
00100000
00000000
10000000
00000000
00000000
00100000
00000000
00000000
00010000
00000000
,
01000000
00000000
00000000
00100000
00000000
00000000
10000000
00000000
01100000
00000000
00000000
00000000
00000000
00000000
00000000
00000000
,
00000000
00000000
00000000
20020000
00000000
00000000
00000000
00000000
,
30030000
00000000
00000000
00000000
,
00000000
00000000
00000000
00000000
;

//---------------dance-single - ----------------
#NOTES:
     dance-single:
     :
     Challenge:
     17:
     0.919162,1.114762,0.347791,0.347791,1.290488,703.000000,665.000000,38.000000,38.000000,0.000000,0.000000,0.919162,1.114762,0.347791,0.347791,1.290488,703.000000,665.000000,38.000000,38.000000,0.000000,0.000000:
// measure 0
0000
0000
0000
0000
,  // measure 1
0000
0000
0000
0000
,  // measure 2
0000
0000
0000
0000
,  // measure 3
0000
0000
0000
0000
,  // measure 4
0000
0000
0000
0000
,  // measure 5
1100
0000
0000
0100
1000
0000
0000
0010
,  // measure 6
0001
0000
0011
0101
,  // measure 7
0010
1000
0010
0001
0100
1000
0100
0010
,  // measure 8
1000
0100
1000
0000
0100
0000
0010
0000
0001
0100
0001
0000
0100
0000
0010
0000
1000
0010
1000
0000
0010
0000
0100
0000
0001
0010
0001
0000
0010
0000
0100
0000
,  // measure 9
0010
1000
0001
0100
0010
1000
0100
0000
0010
0000
1000
0001
0000
0010
1000
0010
,  // measure 10
0001
0100
0010
0001
0100
0010
1000
0001
0100
0000
0010
0001
0000
0100
0010
1000
,  // measure 11
0100
0100
0100
0000
0010
0000
0001
0001
0001
0010
0100
0000
0010
0001
0100
0000
,  // measure 12
1000
1000
1000
0000
0010
0000
0100
0100
0100
0000
0010
0000
0001
0010
1000
0000
,  // measure 13
0100
0000
1000
0010
0100
0001
0010
0000
0001
0000
0100
0010
0000
0001
0010
0100
,  // measure 14
1000
0000
0010
0100
0001
0000
0010
0000
1000
0000
0010
0001
0000
0100
0010
1000
,  // measure 15
0110
0100
1100
0000
0001
0000
0011
0010
1010
0000
0100
0000
1000
0010
0100
0000
,  // measure 16
0101
0001
0011
0000
0010
0000
1010
1000
1001
0000
0100
0000
0010
0100
0001
0000
,  // measure 17
0011
0000
0010
0100
1000
0000
0010
0000
1010
0000
1000
0100
0010
0000
0001
0010
,  // measure 18
1000
0000
0001
1000
0000
0000
1001
0000
0001
0000
1000
0100
0001
0000
0010
0000
,  // measure 19
0110
0000
0100
0000
0010
1000
0100
0000
0010
0000
0001
0000
0101
0000
0100
0010
,  // measure 20
1000
0000
0010
1000
0000
0000
1010
0000
1000
0000
0100
0010
0001
0000
0100
0000
,  // measure 21
0101
0000
0010
0100
1000
0000
0010
0000
1010
0000
0010
0100
0001
0000
0100
0000
,  // measure 22
0001
0000
0100
0010
0000
0000
1010
0000
1000
0000
0010
0100
0001
0000
0010
0000
,  // measure 23
1010
0000
0010
1000
0001
0000
0010
0000
0110
0000
1000
0010
0100
0000
0010
0000
,  // measure 24
0001
0010
0100
0000
1000
0000
0100
0000
0001
0100
0010
0000
1000
0000
0100
0000
0010
0001
0100
0000
0010
0000
1000
0000
0100
0010
0001
0000
0100
0000
0010
0000
,  // measure 25
1000
0000
0100
0010
1000
0000
0010
0000
0011
0000
0001
0100
0010
0000
1000
0000
,  // measure 26
0100
0000
1000
0100
0000
0001
0100
0000
0101
0000
0001
0010
1000
0000
0100
0000
,  // measure 27
0110
0000
0001
0010
1000
0000
0100
0000
0110
0000
1000
0010
0001
0000
0100
0000
,  // measure 28
1100
0000
1000
0010
0000
0001
0100
0000
0011
0000
0001
0100
0010
0000
1000
0000
,  // measure 29
0001
0010
0001
0000
0010
0000
0100
0000
1000
0010
1000
0000
0010
0000
0100
0000
0001
1000
0001
0000
1000
0000
0100
0000
0010
0001
0010
0000
0001
0000
0100
0000
,  // measure 30
0010
0000
0001
0010
0100
0000
1000
0100
0010
0000
0001
0010
0100
1000
0010
0000
,  // measure 31
0001
0000
0100
0000
0001
0000
0010
0000
0100
0000
1000
0000
0010
0000
0100
0000
0001
0000
0010
0000
0100
0000
1000
0000
0010
0000
0100
0000
1000
0010
1000
0010
,  // measure 32
1000
0000
0000
0000
0010
0000
1000
0000
0100
0000
0010
0000
0001
0000
0010
0000
0100
0001
0100
0001
0100
0000
0010
0000
1000
0000
0100
0000
1000
0000
0100
0000
,  // measure 33
0020
0000
0031
0100
0010
1000
0100
0010
0002
0000
0103
0000
1000
0100
0010
0001
,  // measure 34
0200
0000
1300
0000
0001
0010
0100
1000
0020
0000
0031
0000
0010
0100
0001
0010
,  // measure 35
2000
0000
3100
0000
0010
0001
0100
0010
0200
1000
0310
0001
0100
0000
0001
0010
,  // measure 36
0200
0000
0000
0000
1300
0000
0000
0000
0010
0000
0000
0000
1000
0010
0100
0000
0001
0000
0010
0000
0100
0000
1000
0000
0010
1000
0010
0000
1000
0000
0010
0000
,  // measure 37
0200
0000
0000
0000
0310
0000
0000
0000
1000
0100
1000
0000
0100
0000
0010
0000
0001
0000
0100
0000
0010
1000
0010
0000
1000
0000
0100
0000
0020
0000
0000
0000
,  // measure 38
0031
0000
0000
0000
0100
0001
0100
0000
0010
0000
1000
0000
0100
0010
0100
0000
0001
0000
0010
0000
0100
1000
0100
0000
1000
0000
0001
0000
2000
0000
0000
0000
,  // measure 39
3001
0010
0100
1000
0020
0000
0130
0000
0001
0100
0010
1000
0200
0000
0310
0001
,  // measure 40
1000
0001
0000
0000
0010
0100
0010
0000
0100
0000
0000
0000
0110
0000
0000
0000
0100
0010
0000
0000
0001
1000
0001
0000
1000
0000
1001
0000
0001
0000
0010
0000
,  // measure 41
0100
0010
0100
0000
1000
0000
0100
0000
0010
0001
0010
0000
0001
0000
0100
0000
0020
0000
0000
0000
1000
0000
0000
0000
0031
0000
0010
0000
0100
0000
1000
0000
,  // measure 42
0010
0100
0010
0000
0001
0000
0100
0000
1000
0010
1000
0000
0100
0000
0010
0000
0002
0000
0000
0000
0100
0000
0000
0000
0013
0000
0001
0000
0100
0000
0010
0000
,  // measure 43
2000
0000
0000
3200
0000
0000
1300
0000
0020
0000
0000
0230
0000
0000
0301
0000
,  // measure 44
0020
0000
0000
0032
0000
0000
0103
0000
0010
0001
0100
0000
1100
0000
1000
0000
,  // measure 45
0100
1000
0100
0000
0010
0000
0001
0000
0100
0010
0100
0000
1000
0000
0010
0000
0200
0000
0000
0000
1300
0000
0010
0000
0001
0000
0010
0000
1000
0000
0100
0000
,  // measure 46
0010
0001
0010
0000
0001
0000
0100
0000
0010
0100
0010
0000
1000
0000
0100
0000
0020
0000
0000
0000
1030
0000
0100
0000
0010
0000
0001
0000
0100
0000
0010
0000
,  // measure 47
2000
0000
0000
0000
0000
0000
3200
0000
0000
0000
0000
0000
0302
0000
0000
0000
0023
0000
0000
0000
0000
0000
0000
0000
0130
0010
0001
0000
0010
0000
0100
0000
,  // measure 48
1000
0001
1000
0000
0100
0000
0010
0000
0001
0010
0100
0000
1000
0000
0010
0000
0100
0000
0001
0000
0010
0000
0100
0000
1100
0000
1000
0000
0100
0000
0010
0000
,  // measure 49
0001
0100
0010
0000
1000
0000
0100
0000
0010
0001
0100
0000
0010
0000
1000
0000
0100
0000
0010
0000
0001
0000
0010
0000
0110
0000
1000
0000
0100
0000
0010
0000
,  // measure 50
0001
0010
0100
0000
1000
0000
0010
0000
0100
0010
0001
0000
0010
0000
0100
0000
1000
0000
0010
0000
0100
0000
0001
0000
1001
0000
0001
0000
0100
0000
0010
0000
,  // measure 51
1000
0100
1000
0100
1000
0000
0100
0000
0010
0000
0001
0000
0100
0010
0100
0010
0100
0000
0010
0000
0001
0000
1000
0000
0010
0000
0100
0000
0001
0000
0010
0000
,  // measure 52
1000
0100
0010
0000
0001
0000
0010
0000
1000
0010
0100
0000
0010
0000
0001
0000
0100
0010
1000
0000
0100
0000
0010
0000
0001
0010
0100
0000
1000
0000
0010
0000
,  // measure 53
0100
0010
0001
0000
0100
0000
0010
0000
1000
0100
0010
0000
0001
0000
0100
0000
0010
0001
0100
0000
0010
0000
1000
0000
0001
0010
0100
1000
0100
0000
0010
0000
,  // measure 54
0200
0000
0000
0302
0000
0000
1003
0000
0000
0000
0010
0000
1010
0000
0000
1001
,  // measure 55
0000
0000
1100
0000
0000
0000
1000
0000
0200
0000
0000
0320
0000
0000
0032
0000
,  // measure 56
2003
0000
0000
3002
0000
0000
0203
0000
0310
0000
0100
0000
0020
0000
0130
0000
,  // measure 57
2000
3010
0001
2002
0000
0000
0000
0000
,  // measure 58
3003
0000
0000
0000
;
