#VERSION:0.83;
#TITLE:Here We Go;
#SUBTITLE:;
#ARTIST:Ozomatli;
#TITLETRANSLIT:;
#SUBTITLETRANSLIT:;
#ARTISTTRANSLIT:;
#GENRE:;
#ORIGIN:;
#CREDIT:;
#BANNER:Here We Go.png;
#BACKGROUND:Here We Go-bg.png;
#PREVIEWVID:;
#JACKET:Here We Go-jacket.png;
#CDIMAGE:;
#DISCIMAGE:;
#LYRICSPATH:;
#CDTITLE:;
#MUSIC:Here We Go.ogg;
#OFFSET:0.000000;
#SAMPLESTART:9.394000;
#SAMPLELENGTH:15.000000;
#SELECTABLE:YES;
#BPMS:0.000=99.000;
#STOPS:114.000=1.207;
#DELAYS:;
#WARPS:;
#TIMESIGNATURES:0.000=4=4;
#TICKCOUNTS:0.000=4;
#COMBOS:0.000=1;
#SPEEDS:0.000=1.000=0.000=0;
#SCROLLS:0.000=1.000;
#FAKES:;
#LABELS:0.000=Song Start;
#BGCHANGES:0.000=Here We Go.avi=1.000=0=0=0=StretchNoLoop====,
99999=-nosongbg-=1.000=0=0=0 // don't automatically add -songbackground-
;
#KEYSOUNDS:;
#ATTACKS:
;

//---------------dance-single - ----------------
#NOTEDATA:;
#CHARTNAME:;
#STEPSTYPE:dance-single;
#DESCRIPTION:;
#CHARTSTYLE:;
#DIFFICULTY:Beginner;
#METER:1;
#RADARVALUES:0.083778,0.120023,0.000000,0.000000,0.000000,59.000000,59.000000,0.000000,0.000000,0.000000,0.000000,0.000000,0.000000,0.000000,0.083778,0.120023,0.000000,0.000000,0.000000,59.000000,59.000000,0.000000,0.000000,0.000000,0.000000,0.000000,0.000000,0.000000;
#CREDIT:;
#NOTES:
0000
0000
0000
0000
,
0000
0000
0000
0000
,
0000
0000
0000
0000
,
0000
0000
0000
0000
,
1000
0000
0000
0000
,
0001
0000
0000
0000
,
1000
1000
1000
0000
,
0000
0000
0000
0010
,
0000
0000
0000
0100
,
0000
0000
0000
0001
,
0000
0000
0000
0000
,
1000
0000
1000
0000
,
0001
0000
0001
0000
,
1000
0000
1000
0000
,
0001
0000
0001
0000
,
1000
1000
1000
0000
,
0010
0000
0000
0000
,
0001
0001
0001
0000
,
1000
0000
0000
0000
,
0010
0010
0010
0000
,
0001
0000
0000
0000
,
0010
0000
0000
0000
,
0100
0000
0000
0000
,
1000
0000
0000
0000
,
0001
0000
0001
0000
,
1000
0000
1000
0000
,
0100
0000
0000
0000
,
0001
0000
0000
0000
,
0000
0000
0001
0000
,
0000
0100
0000
0000
,
0000
0001
0000
0000
,
0000
1000
0000
0000
,
0000
0000
1000
0000
,
0010
0000
0100
0000
,
0000
0000
1000
1000
,
1000
0000
0001
0000
,
0010
0000
0100
0000
,
1000
0000
0001
0000
,
0100
0000
0010
0000
,
1000
0000
0100
0100
,
0100
0100
0000
0000
;

//---------------dance-single - ----------------
#NOTEDATA:;
#CHARTNAME:;
#STEPSTYPE:dance-single;
#DESCRIPTION:;
#CHARTSTYLE:;
#DIFFICULTY:Easy;
#METER:4;
#RADARVALUES:0.156196,0.180034,0.009940,0.039759,0.000000,110.000000,109.000000,1.000000,4.000000,0.000000,0.000000,0.000000,0.000000,0.000000,0.156196,0.180034,0.009940,0.039759,0.000000,110.000000,109.000000,1.000000,4.000000,0.000000,0.000000,0.000000,0.000000,0.000000;
#CREDIT:;
#NOTES:
0000
0000
0000
0000
,
0000
0000
0000
0000
,
0000
0000
0000
0000
,
0000
0000
0000
0000
,
0001
1000
0001
1000
,
0100
0000
0010
0000
,
0001
1000
0001
1000
,
0000
0100
0000
1000
,
0000
0010
0000
1000
,
0000
0001
0000
0010
,
0000
0001
0000
0100
,
0200
0300
0020
0030
,
0010
0100
0010
0100
,
0002
0003
2000
3000
,
1000
0001
1000
0000
,
0100
0100
0100
0000
,
0010
0100
0010
0000
,
0001
0001
0001
0000
,
1000
0001
1000
0000
,
0010
0010
0010
0000
,
0001
0000
1000
0000
,
0100
0001
0100
0001
,
1000
0000
0001
0000
,
0100
1000
0100
1000
,
0010
0000
0100
0000
,
0010
0010
0100
0100
,
0001
0000
1000
0000
,
0001
0001
1000
1000
,
0001
1000
0001
0000
,
1000
0100
0100
1000
,
0001
0100
0100
0001
,
1000
0010
0010
1000
,
0001
0010
0010
0000
,
0100
0000
0010
0001
,
0010
0001
0100
0000
,
0010
0000
1000
1000
,
0100
0000
0001
0001
,
0100
0000
1000
1000
,
0010
0000
0001
0001
,
0010
0000
1000
0001
,
1000
1001
0000
0000
;

//---------------dance-single - ----------------
#NOTEDATA:;
#CHARTNAME:;
#STEPSTYPE:dance-single;
#DESCRIPTION:;
#CHARTSTYLE:;
#DIFFICULTY:Medium;
#METER:6;
#RADARVALUES:0.242814,0.260049,0.069578,0.009940,0.000000,171.000000,164.000000,7.000000,1.000000,0.000000,0.000000,0.000000,0.000000,0.000000,0.242814,0.260049,0.069578,0.009940,0.000000,171.000000,164.000000,7.000000,1.000000,0.000000,0.000000,0.000000,0.000000,0.000000;
#CREDIT:;
#NOTES:
0000
0000
0000
0000
,
0000
0000
0000
0000
,
0000
0000
0000
0000
,
0000
0000
0000
0000
,
0010
0000
0100
0000
0010
0100
0010
0000
,
0001
0100
0001
0100
,
0010
0000
1000
0000
0001
1000
0001
0000
,
0100
0001
0100
0001
,
0010
0001
0010
0001
,
1000
0100
1000
0100
,
1000
0000
0010
0000
1000
0000
0010
0100
,
0001
0000
0000
0100
1000
0000
0100
0000
,
0001
0000
0010
0000
0100
0000
1000
0001
,
0100
0000
0000
1000
0100
0000
0001
0000
,
0010
0000
1000
0000
0100
0100
0100
0000
,
0001
0000
1000
0000
0001
1000
0001
0000
,
0100
0010
0100
0001
,
0010
0000
0100
0000
0010
0100
0010
0000
,
0100
1000
0001
0010
,
0100
0000
1000
0000
0001
1000
0001
0000
,
0010
0010
0100
0100
,
1000
0010
0001
0010
,
1000
0100
1000
0000
0001
0100
0001
0000
,
0010
0100
1000
0001
,
1000
0101
0101
1000
,
0100
0000
0010
0000
0001
1000
0001
0000
,
0100
1010
1010
0100
,
0001
0010
0100
2000
,
0001
0001
3001
0000
,
1100
0001
0100
0010
,
1000
0100
0011
0011
,
0010
0001
1000
0010
,
0100
0100
0100
0000
0001
0000
1000
0000
,
0001
1000
0001
0000
0100
0000
1000
0000
,
0100
0010
1000
0001
,
1000
0001
1000
0000
0100
0000
0001
0000
,
0100
1000
0100
0000
0010
0000
0001
0000
,
0100
1000
0100
0000
0010
0000
1000
0000
,
0001
0100
0001
0000
0010
0000
0100
0000
,
1000
0100
1000
0000
0010
0000
0100
0000
,
0010
0100
0010
0000
0000
0000
0000
0000
;

//---------------dance-single - ----------------
#NOTEDATA:;
#CHARTNAME:;
#STEPSTYPE:dance-single;
#DESCRIPTION:;
#CHARTSTYLE:;
#DIFFICULTY:Hard;
#METER:10;
#RADARVALUES:0.389071,0.400076,0.258434,0.000000,0.059639,274.000000,248.000000,26.000000,0.000000,0.000000,0.000000,0.000000,0.000000,0.000000,0.389071,0.400076,0.258434,0.000000,0.059639,274.000000,248.000000,26.000000,0.000000,0.000000,0.000000,0.000000,0.000000,0.000000;
#CREDIT:;
#NOTES:
0000
0000
0000
0000
,
0000
0000
0000
0000
,
0000
0000
0000
0000
,
0000
0000
0000
0000
,
0100
0000
0000
0001
0100
0000
0001
0000
0010
0000
0000
0001
0010
0000
0001
0000
,
1000
0000
0000
0010
1000
0000
0010
0000
0100
0000
0000
0010
0100
0000
0010
0000
,
0110
0000
0110
0000
1001
0110
1001
0000
,
0000
0000
1000
0000
0010
1000
0001
0000
,
0010
0001
1000
0010
0001
0010
1000
0000
,
0001
0000
1000
0000
0100
1000
0001
0000
,
0100
0001
1000
0100
0001
0100
0010
0001
,
0100
0000
0010
1000
0100
0000
1001
0000
,
0100
0001
0010
0001
0100
0010
1000
0100
,
0010
0000
0001
0100
0010
0000
1001
0000
,
0100
1000
0010
0100
0001
1000
1001
0000
,
1000
0100
0001
0100
0010
0010
0010
0000
,
1010
0000
0011
0000
0100
1000
0010
0100
,
0001
0010
1000
0010
0100
0100
0100
0000
,
0101
0000
1100
0000
0010
0001
0100
0000
,
0010
0000
0100
0000
0010
0100
1001
0000
,
0100
1000
0010
1000
0001
0100
0010
0000
,
0100
0001
1000
0100
0010
0100
1000
0000
,
0010
0001
0100
0000
0010
1000
0100
0000
,
0001
0100
1000
0100
0010
0001
1000
0000
,
0010
0000
0000
1000
0001
0000
0100
0000
0010
0000
0000
1000
0001
0000
0100
0000
,
0010
1000
0010
0100
0001
1000
0100
0000
,
0010
0000
0000
0001
1000
0000
0100
0000
0010
0000
0000
0001
1000
0000
0100
0000
,
0010
0001
0010
0100
1000
0010
0100
0001
,
1000
0010
0100
0001
1000
0000
0000
0100
,
1000
0000
0000
0001
0010
0000
0001
0000
0100
0000
0000
0010
1000
0000
0010
0000
,
0100
0001
0010
1000
1010
0000
0011
0000
,
1000
0000
0000
0001
0100
0000
0001
0000
0010
0000
0000
0100
1000
0000
0100
0000
,
0110
0001
0110
1000
0001
0100
1000
0100
,
0010
0010
0010
0000
0101
0000
1100
0000
,
0001
0010
0100
1000
0010
0001
0010
1000
,
1001
0001
1001
1000
0100
0001
0100
1000
,
0001
0010
0100
1000
0010
0001
0010
1000
,
0001
0100
0010
1000
0100
0001
0100
1000
,
0001
0010
0100
1000
0001
0100
1000
0100
,
0001
1000
0010
0100
0110
0000
0110
0000
,
1001
0110
1001
0000
0000
0000
0000
0000
;

//---------------dance-double - ----------------
#NOTEDATA:;
#CHARTNAME:;
#STEPSTYPE:dance-double;
#DESCRIPTION:;
#CHARTSTYLE:;
#DIFFICULTY:Easy;
#METER:3;
#RADARVALUES:0.149096,0.160030,0.019880,0.039759,0.000000,105.000000,103.000000,2.000000,4.000000,0.000000,0.000000,0.000000,0.000000,0.000000,0.149096,0.160030,0.019880,0.039759,0.000000,105.000000,103.000000,2.000000,4.000000,0.000000,0.000000,0.000000,0.000000,0.000000;
#CREDIT:;
#NOTES:
00000000
00000000
00000000
00000000
,
00000000
00000000
00000000
00000000
,
00000000
00000000
00000000
00000000
,
00000000
00000000
00000000
00000000
,
00010000
00010000
00001000
00001000
,
00000000
00000100
00000000
00000001
,
00001000
00000001
00001000
00001001
,
00000000
00000010
00000000
00001000
,
00000000
00010000
00000000
01000000
,
00000000
10000000
00000000
00100000
,
00000000
00010000
00000000
00001000
,
00020000
00030000
00002000
00003000
,
00000100
00000010
00000100
00000010
,
00000002
00000003
00002000
00003000
,
00000001
00001000
00000001
00000000
,
00000100
00000100
00000100
00000000
,
00010000
00001000
00010000
00000000
,
00100000
00100000
00100000
00000000
,
10000000
00010000
10000000
00000000
,
01000000
01000000
01000000
00000000
,
00010000
00000000
00001000
00000000
,
00000100
00000100
00000010
00000010
,
00000100
00000000
00000001
00000000
,
00000010
00000010
00000100
00000100
,
00001000
00000000
00010000
00000000
,
00100000
00000000
10000000
00000000
,
01000000
00000000
00010000
00000000
,
00001000
00000000
00000100
00000100
,
00000100
00000100
00000100
00000000
,
00000001
00001000
00000001
00000000
,
00000100
00001000
00000100
00000000
,
00010000
00001000
00010000
00000000
,
01000000
00010000
01000000
00000000
,
00100000
00000000
10000000
00010000
,
10000000
00010000
00100000
00000000
,
00001000
00000000
00010000
00010000
,
00001000
00000000
00000100
00000100
,
00000001
00000000
00000010
00000010
,
00001000
00000000
00010000
00010000
,
00100000
00000000
10000000
00010000
,
10000000
10010000
00000000
00000000
;

//---------------dance-double - ----------------
#NOTEDATA:;
#CHARTNAME:;
#STEPSTYPE:dance-double;
#DESCRIPTION:;
#CHARTSTYLE:;
#DIFFICULTY:Medium;
#METER:6;
#RADARVALUES:0.237134,0.260049,0.049699,0.000000,0.000000,167.000000,162.000000,5.000000,0.000000,0.000000,0.000000,0.000000,0.000000,0.000000,0.237134,0.260049,0.049699,0.000000,0.000000,167.000000,162.000000,5.000000,0.000000,0.000000,0.000000,0.000000,0.000000,0.000000;
#CREDIT:;
#NOTES:
00000000
00000000
00000000
00000000
,
00000000
00000000
00000000
00000000
,
00000000
00000000
00000000
00000000
,
00000000
00000000
00000000
00000000
,
10000000
00000000
01000000
00000000
00010000
01000000
10000000
00000000
,
00100000
00010000
00001000
00000100
,
00000001
00000000
00000010
00000000
00000100
00000010
00000100
00000000
,
00001000
00000001
00000100
00001000
,
00010000
00001000
00010000
00011000
,
00100000
00010000
10000000
00100000
,
01000000
00000000
00010000
00000000
00100000
00000000
00001000
00010000
,
00010000
00000000
00000000
00001000
00001000
00000000
00000100
00000000
,
00000001
00000000
00000010
00000000
00001000
00000000
00010000
00001000
,
00001000
00000000
00000000
00010000
00010000
00000000
01000000
00000000
,
10000000
00000000
00100000
00000000
01000000
00100000
01000000
00000000
,
00010000
00000000
10000000
00000000
00010000
10000000
01000000
00000000
,
00010000
00001000
00000100
00000001
,
00001000
00000000
00000001
00000000
00001000
00000001
00000010
00000000
,
00001000
00010000
00100000
10000000
,
01000000
00000000
01000000
00000000
01000000
01000000
01000000
00000000
,
00000000
10000000
00100000
00100000
,
01000000
00001000
00010000
00010000
,
00000010
00001000
00000100
00000100
,
00000010
00000001
00001001
00000000
,
00000100
00000000
00000001
00000100
00001000
00000000
00010000
00000000
,
00001000
00001000
00010000
00010000
,
00100000
00000000
10000000
00100000
00010000
00000000
00001000
00000000
,
00010000
00010000
00001000
00001000
,
00000100
00000001
00000010
00000000
,
00001001
00000010
00000001
00000100
,
00001000
00010000
00001000
00000000
00011000
00000000
00011000
00000000
,
00100000
00010000
10000000
01000000
,
00100000
00010000
00100000
00000000
00001000
00000000
00010000
00000000
,
00000100
00001000
00000010
00000000
00001000
00000000
00000001
00000000
,
00000100
00001000
00010000
01000000
,
00100000
00010000
01000000
00000000
00010000
00000000
10000000
00000000
,
01000000
10000000
01000000
00000000
00100000
00000000
00001000
00000000
,
00010000
00001000
00010000
00000000
00000100
00000000
00001000
00000000
,
00000001
00000100
00000001
00000000
00001000
00000000
00000010
00000000
,
00000100
00001000
00000100
00000000
00001000
00000000
00010000
00000000
,
00001000
00010000
00001000
00000000
00000000
00000000
00000000
00000000
;

//---------------dance-double - ----------------
#NOTEDATA:;
#CHARTNAME:;
#STEPSTYPE:dance-double;
#DESCRIPTION:;
#CHARTSTYLE:;
#DIFFICULTY:Hard;
#METER:9;
#RADARVALUES:0.374871,0.380072,0.198795,0.059639,0.059639,264.000000,244.000000,20.000000,6.000000,0.000000,0.000000,0.000000,0.000000,0.000000,0.374871,0.380072,0.198795,0.059639,0.059639,264.000000,244.000000,20.000000,6.000000,0.000000,0.000000,0.000000,0.000000,0.000000;
#CREDIT:;
#NOTES:
00000000
00000000
00000000
00000000
,
00000000
00000000
00000000
00000000
,
00000000
00000000
00000000
00000000
,
00000000
00000000
00000000
00000000
,
00110000
00000000
11000000
00000000
00100000
01000000
10000000
00010000
,
01000000
00100000
00010000
00001000
00010000
00001000
00000100
00000010
,
00001000
00000000
00000001
00000000
00001000
00000001
00001001
00000000
,
00000100
00000001
00001000
00000000
00000100
00001000
00000001
00000000
,
00000010
00000100
00010000
00001000
01000000
00100000
10000000
00000000
,
00010000
01000000
00100000
00000000
10000000
01000000
00100000
00000000
,
00010000
01000000
00001000
00010000
00000100
00000010
00000100
00001000
,
00000020
00000000
00000130
00000001
00000020
00000000
00000130
00000000
,
00000001
00000100
00001000
00000010
00000100
00001000
00010000
00100000
,
02000000
00000000
03010000
00100000
02000000
00000000
13000000
00000000
,
00100000
00010000
00001000
00000100
00000010
00000100
00000110
00000000
,
00001010
00000000
00000101
00000000
00001000
00000010
00000100
00000000
,
00000001
00000010
00000100
00010000
00001000
01000000
00100000
01000000
,
01010000
00000000
10100000
00000000
00010000
01000000
00100000
00000000
,
10000000
01000000
00010000
00001000
00010000
00001000
00000100
00000001
,
00001000
00000000
00000001
00000000
00001000
00000001
00001001
00000000
,
00000100
00000000
00000000
00000001
00000100
00000000
00000001
00000000
00001000
00000000
00000000
00000100
00001000
00000000
00000100
00000000
,
00010000
00000000
00000000
00001000
00010000
00000000
00001000
00000000
00100000
00000000
00010000
00000000
01000000
00000000
00100000
00000000
,
10000000
00000000
00000000
00100000
10000000
00000000
00100000
00000000
01000000
00000000
00000000
00010000
01000000
00000000
00010000
00000000
,
00100000
00000000
00000000
00001000
00100000
00000000
00001000
00000000
00022000
00000000
00000000
00000000
00003000
00000000
00000000
00000000
,
00030100
00000000
00000000
00001000
00000001
00000000
00000010
00000000
00000100
00000000
00000010
00000000
00000001
00000000
00000000
00000000
,
00001000
00000010
00000100
00000000
00000001
00000100
00001000
00000000
,
00010000
00000000
00000000
00001000
00100000
00000000
00010000
00000000
01000000
00000000
00010000
00000000
00100000
00000000
00000000
00000000
,
01000000
10000000
00010000
00000000
00100000
01000000
10000000
00010000
,
01000000
00001000
00010000
00000010
00001000
00000000
00000000
00000000
,
00000001
00000000
00000000
00001000
00000100
00000000
00001000
00000000
00000001
00000000
00000000
00000100
00000001
00000000
00001000
00000000
,
00000010
00000100
00001000
00010000
00100000
00000000
00100000
00000000
,
10000000
00000000
00000000
00010000
01000000
00000000
00010000
00000000
10000000
00000000
00000000
01000000
10000000
00000000
00010000
00000000
,
00100000
00001000
00010000
00000100
00001100
00000000
00000101
00000000
,
00001000
00000100
00000001
00000000
00000100
00001000
00000010
00010000
,
00001000
01000000
00100000
10000000
10100000
00000000
00110000
00000000
,
10100000
00110000
10100000
00000000
01000000
00010000
00100000
00010000
,
01000000
00001000
00010000
00000100
00001000
00000010
00001000
00000001
,
00000010
00000001
00000100
00001000
00010000
00001000
00000100
00001000
,
00010000
00100000
01000000
00010000
00100000
00010000
01000000
00100000
,
10000000
00100000
00010000
00001000
00011000
00000000
00011000
00000000
,
00001000
00010000
00011000
00000000
00000000
00000000
00000000
00000000
;

//---------------dance-single - ----------------
#NOTEDATA:;
#CHARTNAME:;
#STEPSTYPE:dance-single;
#DESCRIPTION:;
#CHARTSTYLE:;
#DIFFICULTY:Challenge;
#METER:14;
#RADARVALUES:0.576506,0.600113,0.218675,0.069578,0.775302,406.000000,384.000000,22.000000,7.000000,164.000000,0.000000,0.000000,0.000000,0.000000,0.576506,0.600113,0.218675,0.069578,0.775302,406.000000,384.000000,22.000000,7.000000,164.000000,0.000000,0.000000,0.000000,0.000000;
#CREDIT:;
#NOTES:
// measure 0
0000
0000
0000
0000
,  // measure 1
0000
0000
0000
0000
,  // measure 2
0000
0000
0000
0000
,  // measure 3
0000
0000
0000
0000
,  // measure 4
0100
0000
0001
0100
0001
0000
1000
0100
1000
0000
0110
0000
MMMM
0000
0000
0000
,  // measure 5
1000
0010
1000
0010
0100
0001
0100
0001
1000
0100
1000
0100
0010
0001
0010
0001
,  // measure 6
0100
0000
MMMM
0000
0110
1001
0110
0000
,  // measure 7
1000
0000
0100
1000
0010
0000
0100
0010
0001
0000
0010
0001
0100
0010
1000
0000
,  // measure 8
0100
0010
0001
0010
0100
1000
0100
0010
0100
1000
0001
0100
0010
1000
0100
0010
,  // measure 9
0001
0000
0010
0001
0100
0000
0010
0100
1000
0000
0100
0010
1000
0001
0010
0000
,  // measure 10
0100
0000
0000
1000
0000
0000
0010
0000
0000
0100
0000
0000
0001
0000
0000
1000
0000
0000
0100
0000
0000
0010
0000
0000
0001
0000
0000
0010
0000
0000
0100
0000
0000
1000
0000
0000
0010
0000
0000
0000
0001
0000
0000
0000
0010
0000
0000
0000
,  // measure 11
0100
0000
MMMM
0100
0010
0000
MMMM
0010
1000
0000
MMMM
1000
0001
0000
MMMM
0001
,  // measure 12
0100
0010
0100
1000
0100
0010
0100
0001
0100
0010
0100
1000
0100
0010
0100
0001
,  // measure 13
1000
0000
MMMM
1000
0100
0000
MMMM
0100
0010
0000
MMMM
0010
0001
0000
MMMM
0001
,  // measure 14
1000
0001
0100
0001
0010
0000
0001
0010
0100
0000
1100
0000
0101
0000
1000
0100
,  // measure 15
0010
0000
0001
0010
0100
0000
1000
0010
0100
0000
MMMM
0000
0011
0000
0000
0000
,  // measure 16
0001
0010
0100
1000
0010
0100
0001
1000
0100
0010
0001
0100
0010
1000
0001
0010
,  // measure 17
0100
0000
1000
0100
0010
0000
0001
0010
0100
0000
MMMM
0000
1010
0000
0000
0000
,  // measure 18
1000
0100
0010
0001
1000
0010
0100
0001
0100
1000
0010
0100
0001
1000
0100
0010
,  // measure 19
0001
0000
0000
0000
0000
0000
0000
0000
MMMM
0000
0000
0000
0000
0000
0000
0000
1001
0000
0000
0000
0110
0000
0000
0000
1001
0000
0000
0000
0001
1000
0001
1000
,  // measure 20
0001
0010
0100
1000
0010
0000
MMMM
0000
0100
0010
1000
0001
0100
0000
MMMM
0000
,  // measure 21
1000
0100
0010
0100
1000
0000
MMMM
0000
0001
0010
0100
0010
0001
0000
MMMM
0000
,  // measure 22
0100
0010
1000
0001
0010
0000
MMMM
0000
0010
0100
0001
1000
0100
0000
MMMM
0000
,  // measure 23
1000
0000
0000
0001
0000
0000
0010
0000
0000
0100
0000
0000
1000
0000
0000
0000
0000
0000
MMMM
0000
0000
0000
0000
0000
0001
0000
0000
1000
0000
0000
0100
0000
0000
0010
0000
0000
0001
0000
0000
0000
0010
0000
0000
0000
0100
0000
0000
0000
,  // measure 24
1000
0000
0000
0000
MMMM
0000
0000
0000
1000
0000
0000
0000
0100
0000
0000
0000
0000
0000
MMMM
0000
0000
0100
0000
0000
0010
0000
0000
0000
MMMM
0000
0000
0000
0010
0000
0000
0000
0001
0000
0000
0000
0000
0000
MMMM
0000
0000
0001
0000
0000
,  // measure 25
0100
0010
1000
0100
0010
0001
0100
0010
1000
0001
0010
0100
1000
0001
0100
0010
,  // measure 26
1000
0000
0000
0000
0000
0000
MMMM
0000
0000
1000
0000
0000
0010
0000
0000
0000
MMMM
0000
0000
0000
0010
0000
0000
0000
0001
0000
0000
0000
0000
0000
MMMM
0000
0000
0001
0000
0000
0100
0000
0000
0000
MMMM
0000
0000
0000
0100
0000
0000
0000
,  // measure 27
0010
0001
0100
0010
1000
0100
0010
0001
1000
0100
0001
0100
1000
0010
0100
0001
,  // measure 28
2000
0000
3200
0000
0320
0000
0031
0000
MMMM
0000
0010
0001
0100
0010
1000
0100
,  // measure 29
0020
0000
0000
0000
0130
0000
MMMM
0000
0001
0100
0000
0001
0100
0000
1000
0000
,  // measure 30
0200
0000
0000
0000
0310
0000
0001
0010
0100
0000
MMMM
0000
0101
0000
MMMM
0000
,  // measure 31
2000
0000
0000
0000
3001
0000
MMMM
0000
0001
0100
0000
1000
0100
0000
0010
0000
,  // measure 32
0002
0000
0000
0000
1003
0000
0010
0001
0100
0000
0010
1000
0100
0000
0001
1000
,  // measure 33
0010
0000
MMMM
0000
0101
0000
0000
0000
0010
0001
0100
0001
1000
0100
0010
0100
,  // measure 34
1000
0001
0010
0100
1000
0000
0010
0100
0001
0000
0100
0010
1000
0000
0010
1000
,  // measure 35
1100
0000
0011
0000
1100
0000
1000
0001
0100
0000
0010
1000
0001
0000
0100
0001
,  // measure 36
1000
0000
MMMM
0000
1001
0000
0001
0010
0100
0000
1000
0100
0010
0000
0001
0100
,  // measure 37
0010
0000
MMMM
0000
0110
0000
0100
0001
1000
0000
0010
0100
0001
0000
0100
0010
,  // measure 38
1000
0000
MMMM
0000
1100
0000
1000
0010
0100
0000
0100
0001
0010
0000
0001
0100
,  // measure 39
0010
0000
MMMM
0000
0011
0000
0010
1000
0001
0000
MMMM
0000
0101
0000
0000
0000
,  // measure 40
MMMM
0110
MMMM
0000
0000
0000
0000
0000
;
