#VERSION:0.83;
#TITLE:Here It Goes Again;
#SUBTITLE:;
#ARTIST:OK Go;
#TITLETRANSLIT:;
#SUBTITLETRANSLIT:;
#ARTISTTRANSLIT:;
#GENRE:;
#ORIGIN:;
#CREDIT:;
#BANNER:Here It Goes Again.png;
#BACKGROUND:Here It Goes Again-bg.png;
#PREVIEWVID:;
#JACKET:Here It Goes Again-jacket.png;
#CDIMAGE:;
#DISCIMAGE:;
#LYRICSPATH:;
#CDTITLE:;
#MUSIC:Here It Goes Again.ogg;
#OFFSET:0.000000;
#SAMPLESTART:45.459999;
#SAMPLELENGTH:15.000000;
#SELECTABLE:YES;
#DISPLAYBPM:145.000000;
#BPMS:0.000=155.844,
4.000=155.508,
28.000=145.749,
36.000=146.143,
48.000=145.749,
56.000=144.869,
64.000=143.713,
72.000=145.161,
80.000=145.749,
88.000=144.289,
96.000=146.045,
112.000=145.749,
120.000=146.341,
128.000=145.749,
132.000=144.578,
136.000=146.341,
160.000=146.209,
169.000=145.749,
177.000=145.833,
184.000=144.869,
192.000=147.239,
200.000=146.341,
208.000=146.045,
216.000=145.455,
224.000=146.939,
232.000=145.455,
240.000=146.939,
248.000=145.631;
#STOPS:;
#DELAYS:;
#WARPS:;
#TIMESIGNATURES:0.000=4=4;
#TICKCOUNTS:0.000=4;
#COMBOS:0.000=1;
#SPEEDS:0.000=1.000=0.000=0;
#SCROLLS:0.000=1.000;
#FAKES:;
#LABELS:0.000=Song Start;
#BGCHANGES:0.000=Here It Goes Again.avi=1.000=0=0=0=StretchNoLoop====,
99999=-nosongbg-=1.000=0=0=0 // don't automatically add -songbackground-
;
#KEYSOUNDS:;
#ATTACKS:
;

//---------------dance-single - ----------------
#NOTEDATA:;
#CHARTNAME:;
#STEPSTYPE:dance-single;
#DESCRIPTION:;
#CHARTSTYLE:;
#DIFFICULTY:Beginner;
#METER:3;
#RADARVALUES:0.106751,0.174361,0.009225,0.000000,0.000000,81.000000,80.000000,1.000000,0.000000,0.000000,0.000000,0.000000,0.000000,0.000000,0.106751,0.174361,0.009225,0.000000,0.000000,81.000000,80.000000,1.000000,0.000000,0.000000,0.000000,0.000000,0.000000,0.000000;
#CREDIT:;
#DISPLAYBPM:145.000000;
#NOTES:
0000
0000
0000
0000
,
0000
0000
0000
0000
,
0000
0000
0000
0000
,
0000
0000
0000
0000
,
0000
0000
0000
0000
,
0000
0000
0000
0000
,
0000
0000
0000
0000
,
0000
0000
0000
0000
,
0000
0000
0000
0000
,
1000
0000
1000
0000
,
1000
0000
0000
0000
,
0000
0000
0000
0000
,
0001
0000
0000
0000
,
1000
0000
0000
0000
,
0010
0000
0000
0000
,
0010
0000
0000
0000
,
0010
0000
0000
0000
,
0010
0000
0000
0000
,
0100
0000
0000
0000
,
0100
0000
0000
0000
,
0100
0000
0000
0000
,
0100
0000
0000
0000
,
0000
0000
0000
0001
,
0000
0000
0000
1000
,
1000
0000
1000
0000
,
0001
0000
0001
0000
,
0010
0000
0010
0000
,
0100
0000
0100
0000
,
0000
0000
0000
1000
,
0000
0000
0000
0001
,
0000
0000
0000
1000
,
0000
0000
0000
0010
,
0000
0000
0000
0100
,
0000
0000
0000
0010
,
0000
0000
0000
0000
,
0000
0000
0000
0000
,
1001
0000
0000
0000
,
0000
0000
0000
0000
,
0000
0010
0000
0010
,
0000
1000
0000
1000
,
0000
0001
0000
0001
,
0000
0010
0000
0010
,
0000
1000
0000
1000
,
0000
0100
0000
0100
,
0000
0001
0000
0001
,
0000
0100
0000
0100
,
0000
0000
1000
1000
,
0000
0000
0001
0001
,
0001
0000
1000
0000
,
0001
0000
1000
0000
,
0001
0000
1000
0000
,
0001
0000
1000
0000
,
0000
0000
0010
0010
,
0000
0000
0100
0100
,
0000
0000
0010
0010
,
0000
0000
0001
0001
,
0000
0000
1000
1000
,
0000
0000
0001
0001
,
0000
0000
0100
0100
,
0000
0000
0010
0010
,
0000
0000
0100
0100
,
0100
0000
0000
0000
,
0001
0000
1000
0000
,
0001
0000
0000
0000
,
0000
0000
0000
0000
;

//---------------dance-single - ----------------
#NOTEDATA:;
#CHARTNAME:;
#STEPSTYPE:dance-single;
#DESCRIPTION:;
#CHARTSTYLE:;
#DIFFICULTY:Easy;
#METER:5;
#RADARVALUES:0.213503,0.268806,0.018451,0.036902,0.000000,162.000000,160.000000,2.000000,4.000000,0.000000,0.000000,0.000000,0.000000,0.000000,0.213503,0.268806,0.018451,0.036902,0.000000,162.000000,160.000000,2.000000,4.000000,0.000000,0.000000,0.000000,0.000000,0.000000;
#CREDIT:;
#DISPLAYBPM:145.000000;
#NOTES:
0000
0000
0000
0000
,
0000
0000
0000
0000
,
0000
0000
0000
0000
,
0000
0000
0000
0000
,
0000
0000
0000
0000
,
0000
0000
0000
0000
,
0000
0000
0000
0000
,
0000
0000
0000
0000
,
0000
0000
0000
0000
,
0010
0000
0010
0100
,
2002
0000
0000
0000
,
0000
0000
0000
3003
,
0010
0000
0001
1000
,
0100
0000
0010
0001
,
1000
0000
0000
0000
,
1000
1000
0000
0000
0000
0000
0000
0000
,
0001
0000
0000
0000
,
0010
0010
0000
0000
0000
0000
0000
0000
,
1000
0000
0000
0000
,
0001
0001
0000
0000
0000
0000
0000
0000
,
0010
0000
0000
0000
,
0100
0100
0000
0000
0000
0000
0000
0000
,
0010
0000
0010
0100
,
1000
0000
0100
0001
,
0010
0010
0001
0001
,
0100
0100
1000
1000
,
0010
0010
0001
0001
,
0100
0100
1000
1000
,
0100
0000
1000
0001
,
0010
0000
0100
1000
,
0001
0000
1000
0100
,
1000
0000
0010
0001
,
0100
0000
0100
0001
,
0010
0000
0100
0010
,
1000
0000
0001
0000
,
1000
0100
0001
0000
,
0100
0100
0100
0100
,
0100
0100
0100
0000
,
1000
0001
0010
0000
,
0010
0100
0001
1000
,
0001
0010
1000
0000
,
0001
0100
1000
0010
,
0001
1000
0100
0000
,
0100
0010
1000
0001
,
1000
0100
0001
0000
,
1000
0010
0001
0100
,
0010
0000
0010
0001
,
1000
0000
0001
1000
,
0010
0010
1000
1000
,
0100
0100
0001
0001
,
0010
0010
1000
1000
,
0100
0100
0001
0001
,
0010
0000
0010
1000
,
0001
0000
0100
0001
,
0010
0000
1000
0100
,
0001
0000
0100
0010
,
0100
0000
0100
1000
,
0010
0000
0001
0100
,
0010
0010
0000
0000
1000
0000
1000
0000
,
0010
0010
0000
0000
0001
0000
0001
0000
,
0100
0100
0000
0000
0010
0000
0010
0000
,
0001
0000
1000
0000
,
0001
0100
1000
0000
,
2002
0000
0000
0000
,
0000
0000
0000
3003
,
0000
0000
0000
0000
;

//---------------dance-single - ----------------
#NOTEDATA:;
#CHARTNAME:;
#STEPSTYPE:dance-single;
#DESCRIPTION:;
#CHARTSTYLE:;
#DIFFICULTY:Medium;
#METER:8;
#RADARVALUES:0.357156,0.418143,0.083029,0.055353,0.000000,271.000000,262.000000,9.000000,6.000000,0.000000,0.000000,0.000000,0.000000,0.000000,0.357156,0.418143,0.083029,0.055353,0.000000,271.000000,262.000000,9.000000,6.000000,0.000000,0.000000,0.000000,0.000000,0.000000;
#CREDIT:;
#DISPLAYBPM:145.000000;
#NOTES:
0000
0000
0000
0000
,
0000
0000
0000
0000
,
0000
0000
0000
0000
,
0000
0000
0000
0000
,
0000
0000
0000
0000
,
0000
0000
0000
0000
,
0000
0000
0000
0000
,
0000
0000
0000
0000
,
0000
0000
0000
0000
,
0010
1000
0000
0001
0010
0000
0100
0000
,
2002
0000
0000
0000
,
0000
0000
0000
3003
,
0010
0010
0000
1000
1000
0000
0001
0000
,
0100
0100
0000
0010
0010
0000
1000
0000
,
1001
0100
0100
0100
,
0001
0001
0100
0000
0100
0000
0100
0000
,
1000
0100
0100
0100
,
0010
0010
0100
0000
0100
0000
0100
0000
,
0001
0100
0100
0100
,
1000
1000
0100
0000
0100
0000
0100
0000
,
0010
0100
0100
0100
,
0001
0001
0100
0000
0100
0000
0100
0000
,
0010
0001
0000
1000
0010
0000
0100
0000
,
1000
0100
0000
0001
0100
0000
1000
0000
,
0010
0000
0010
0000
1000
0001
1000
0000
,
0100
0000
0100
0000
0010
0100
0010
0000
,
0001
0000
0001
0000
1000
0010
1000
0000
,
0100
0000
0100
0000
1000
0001
1000
0000
,
0100
0100
0000
0010
0100
0000
1000
0000
,
0010
0010
0000
1000
0100
0000
0101
0000
,
1000
1000
0000
0001
1000
0000
0100
0000
,
0001
0001
0000
1000
0010
0000
0001
0000
,
0100
0100
0000
0001
0100
0000
1100
0000
,
0010
0010
0000
0001
0010
0000
0110
0000
,
0001
0100
1000
0100
,
0001
0010
0001
0000
0100
0000
1000
0000
,
0110
0100
0100
0100
,
0100
0000
0100
0000
0100
0010
0010
0000
,
0001
0000
1000
0000
0010
0100
0001
0000
,
0010
0010
0100
0000
1000
0000
0001
0000
,
1000
0000
0010
0000
0001
1000
0100
0000
,
1000
1000
0100
0000
0001
0000
0010
0000
,
2000
0000
3001
0000
0100
0010
0001
0000
,
0100
0100
0010
0000
0001
0000
1000
0000
,
0002
0000
0103
0000
1000
0100
0010
0000
,
0001
0001
0010
0000
1000
0000
0100
0000
,
0010
1000
0000
0001
0010
0000
1000
0000
,
0001
0100
0000
1000
0100
0000
0001
0000
,
0010
0000
0010
0000
0001
1000
0001
1000
,
0100
0000
0100
0000
0010
0100
0010
0100
,
0001
0000
0001
0000
1000
0010
1000
0010
,
0100
0000
0100
0000
0001
1000
0001
1000
,
0010
0100
0000
0100
0010
0000
0001
0000
,
1000
0010
0000
0001
0100
0000
1100
0000
,
0010
0001
0000
0010
0001
0000
0100
0000
,
1000
1000
0000
0001
0100
0000
0010
0000
,
0100
0100
0000
1000
0100
0000
0101
0000
,
0010
0010
0000
1000
0010
0000
0100
0000
,
0010
0010
0001
0010
0010
0000
1000
0000
,
0010
0010
1000
0010
0010
0000
0001
0000
,
1000
1000
0001
1000
1000
0000
0001
0000
,
1000
0100
0001
0100
,
1000
0010
1000
0000
0100
0000
0001
0000
,
2002
0000
0000
0000
,
0000
0000
0000
3003
,
0000
0000
0000
0000
;

//---------------dance-single - ----------------
#NOTEDATA:;
#CHARTNAME:;
#STEPSTYPE:dance-single;
#DESCRIPTION:;
#CHARTSTYLE:;
#DIFFICULTY:Hard;
#METER:10;
#RADARVALUES:0.466543,0.507745,0.276763,0.055353,0.000000,354.000000,324.000000,30.000000,6.000000,0.000000,0.000000,0.000000,0.000000,0.000000,0.466543,0.507745,0.276763,0.055353,0.000000,354.000000,324.000000,30.000000,6.000000,0.000000,0.000000,0.000000,0.000000,0.000000;
#CREDIT:;
#DISPLAYBPM:145.000000;
#NOTES:
0000
0000
0000
0000
,
0000
0000
0000
0000
,
0000
0000
0000
0000
,
0000
0000
0000
0000
,
0000
0000
0000
0000
,
0000
0000
0000
0000
,
0000
0000
0000
0000
,
0000
0000
0000
0000
,
0000
0000
0000
0000
,
0011
0100
0100
1000
0010
0000
0110
0000
,
2002
0000
0000
0000
,
0000
0000
0000
3003
,
1010
0100
0100
0001
0010
0000
0100
0000
,
0001
0100
0100
1000
0100
0000
0110
0000
,
1001
0100
0100
0100
,
1000
1000
0100
0000
0100
0000
0100
0000
,
0001
0100
0100
0100
,
0010
0010
0100
0000
0100
0000
0100
0000
,
1010
0100
0100
0100
,
0011
0011
0100
0000
0100
0000
0100
0000
,
0110
0100
0100
0100
,
1001
1001
0100
0000
0100
0000
0100
0000
,
0010
1000
1000
0001
0010
0000
1100
0000
,
0001
0100
0100
1000
0100
0000
1001
0000
,
0010
1000
0010
1000
0001
1000
0001
1000
,
0100
1000
0100
1000
0010
0100
0010
0100
,
0001
0100
0001
0100
0001
0010
0001
0010
,
0100
1000
0100
1000
0001
1000
0001
1000
,
0100
0100
1000
0100
0010
0000
1001
0000
,
0010
0010
0001
0010
0100
0000
1100
0000
,
0001
0001
0010
0001
1000
0000
0110
0000
,
1000
1000
0100
0001
0100
0000
1010
0000
,
0100
0100
0010
1000
0100
0000
0101
0000
,
0010
0010
0001
1000
0010
0000
0110
0000
,
1000
0100
0001
0000
0001
0100
1000
0000
,
0100
1000
0010
0100
0001
0001
0010
0000
,
0110
0100
0100
0100
,
0100
0000
0100
0000
0100
0010
0010
0000
,
1000
0000
0001
0100
0010
0100
1000
0000
,
0010
0010
0100
1000
0001
0100
0010
0000
,
0001
0000
0010
0001
1000
0001
0100
0000
,
0001
0001
0100
1000
0100
0001
0010
0000
,
0002
0000
1003
0010
0100
0010
1000
0000
,
0100
0100
0010
0001
1000
0010
0100
0000
,
2000
0000
3100
1000
0001
0100
0010
0000
,
1000
1000
0010
0001
0010
1000
0100
0000
,
0010
0001
0001
1000
0010
0000
0101
0000
,
1000
0100
0100
0001
0100
0000
1001
0000
,
0010
0001
0010
0001
1000
0001
1000
0001
,
0100
0001
0100
0001
0010
0100
0010
0100
,
1000
0100
1000
0100
1000
0010
1000
0010
,
0100
0001
0100
0001
1000
0001
1000
0001
,
0100
0100
0001
0100
0010
0000
1001
0000
,
0010
0010
1000
0010
0100
0000
0101
0000
,
1000
1000
0010
1000
0001
0000
0110
0000
,
0001
0001
0100
1000
0100
0000
0011
0000
,
0100
0100
0010
0001
0100
0000
1100
0000
,
0010
0010
1000
0001
0010
0000
0110
0000
,
0010
0010
1000
0010
0100
0100
0001
0000
,
0010
0010
0001
0010
0100
0100
1000
0000
,
0001
0001
1000
0001
0001
0001
1000
0000
,
0001
0100
1000
0000
1000
0100
0001
0000
,
0100
0001
0010
0100
1000
1000
0010
0000
,
0202
0000
0000
0000
,
0000
0000
0000
0303
,
0000
0000
0000
0000
;

//---------------dance-double - ----------------
#NOTEDATA:;
#CHARTNAME:;
#STEPSTYPE:dance-double;
#DESCRIPTION:;
#CHARTSTYLE:;
#DIFFICULTY:Easy;
#METER:6;
#RADARVALUES:0.201642,0.268806,0.027676,0.036902,0.000000,153.000000,150.000000,3.000000,4.000000,0.000000,0.000000,0.000000,0.000000,0.000000,0.201642,0.268806,0.027676,0.036902,0.000000,153.000000,150.000000,3.000000,4.000000,0.000000,0.000000,0.000000,0.000000,0.000000;
#CREDIT:;
#DISPLAYBPM:145.000000;
#NOTES:
00000000
00000000
00000000
00000000
,
00000000
00000000
00000000
00000000
,
00000000
00000000
00000000
00000000
,
00000000
00000000
00000000
00000000
,
00000000
00000000
00000000
00000000
,
00000000
00000000
00000000
00000000
,
00000000
00000000
00000000
00000000
,
00000000
00000000
00000000
00000000
,
00000000
00000000
00000000
00000000
,
00000001
00000000
00000010
00000100
,
00002002
00000000
00000000
00000000
,
00000000
00000000
00000000
00003003
,
00000100
00000000
00000001
00001000
,
00010000
00000000
01000000
10000000
,
10010000
00000000
00000000
00000000
,
01000000
01000000
00000000
00000000
00000000
00000000
00000000
00000000
,
00010000
00000000
00000000
00000000
,
00000100
00000100
00000000
00000000
00000000
00000000
00000000
00000000
,
00000001
00000000
00000000
00000000
,
00000010
00000010
00000000
00000000
00000000
00000000
00000000
00000000
,
00001000
00000000
00000000
00000000
,
00100000
00100000
00000000
00000000
00000000
00000000
00000000
00000000
,
00010000
00000000
01000000
10000000
,
00010000
00000000
00001000
00010000
,
00000100
00000100
00000001
00000001
,
00000010
00000010
00001000
00001000
,
00010000
00010000
01000000
01000000
,
10000000
10000000
00100000
00100000
,
01000000
00000000
00100000
10000000
,
00010000
00000000
00001000
00000010
,
00000001
00000000
00000001
00000010
,
00000100
00000000
00001000
00100000
,
01000000
00000000
00100000
10000000
,
01000000
00000000
01000000
10000000
,
00100000
00000000
00100000
00000000
,
00001000
00000000
00001000
00000000
,
00000100
00000000
00000000
00000000
,
00000000
00000000
00000000
00000000
,
00001000
00000001
00000100
00000000
,
00000001
00001000
00010000
00100000
,
01000000
10000000
00010000
00000000
,
00100000
00001000
00000010
00000100
,
00000001
00001000
00000010
00000000
,
00010000
01000000
10000000
00010000
,
00100000
10000000
00100000
00000000
,
00001000
00000100
00000001
00000010
,
00001000
00000000
00000100
00000010
,
00001000
00000000
00010000
00001000
,
01000000
01000000
10000000
10000000
,
00100000
00100000
00010000
00010000
,
00001000
00001000
00000010
00000010
,
00000001
00000001
00000100
00000100
,
00000010
00000000
00000010
00000001
,
00001000
00000000
00001000
00100000
,
10000000
00000000
10000000
00100000
,
01000000
00000000
01000000
00001000
,
00000100
00000000
00000100
00000001
,
00000010
00000000
00000010
00000001
,
00001000
00000000
00000100
00010000
,
00001000
00000000
00100000
01000000
,
10000000
00000000
00010000
01000000
,
00100000
00000000
00100000
00000000
,
00010000
00001000
00010000
00000000
,
00022000
00000000
00000000
00000000
,
00000000
00000000
00000000
00033000
,
00000000
00000000
00000000
00000000
;

//---------------dance-double - ----------------
#NOTEDATA:;
#CHARTNAME:;
#STEPSTYPE:dance-double;
#DESCRIPTION:;
#CHARTSTYLE:;
#DIFFICULTY:Medium;
#METER:7;
#RADARVALUES:0.334751,0.358408,0.027676,0.036902,0.000000,254.000000,251.000000,3.000000,4.000000,0.000000,0.000000,0.000000,0.000000,0.000000,0.334751,0.358408,0.027676,0.036902,0.000000,254.000000,251.000000,3.000000,4.000000,0.000000,0.000000,0.000000,0.000000,0.000000;
#CREDIT:;
#DISPLAYBPM:145.000000;
#NOTES:
00000000
00000000
00000000
00000000
,
00000000
00000000
00000000
00000000
,
00000000
00000000
00000000
00000000
,
00000000
00000000
00000000
00000000
,
00000000
00000000
00000000
00000000
,
00000000
00000000
00000000
00000000
,
00000000
00000000
00000000
00000000
,
00000000
00000000
00000000
00000000
,
00000000
00000000
00000000
00000000
,
10000000
01000000
00000000
00010000
01000000
00000000
00100000
00000000
,
20020000
00000000
00000000
00000000
,
00000000
00000000
00000000
30030000
,
00100000
00100000
00000000
10000000
10000000
00000000
00010000
00000000
,
00000100
00000100
00000000
00000010
00000010
00000000
00000001
00000000
,
00001001
00000100
00000100
00000100
,
00000010
00000010
00000100
00000000
00000100
00000000
00000100
00000000
,
00001000
00010000
00010000
00010000
,
00100000
00100000
01000000
00000000
01000000
00000000
01000000
00000000
,
10000000
01000000
01000000
01000000
,
00100000
00100000
01000000
00000000
01000000
00000000
01000000
00000000
,
00010000
00001000
00001000
00001000
,
00000100
00000100
00000010
00000000
00000010
00000000
00000010
00000000
,
00001000
00000010
00000000
00000001
00000010
00000000
00000100
00000000
,
00001000
00000100
00000000
00000001
00000100
00000000
00001000
00000000
,
00100000
00000000
00100000
00000000
10000000
00010000
10000000
00000000
,
01000000
00000000
01000000
00000000
00100000
01000000
00100000
00000000
,
00010000
00000000
00010000
00000000
00001000
00010000
00001000
00000000
,
00000100
00000000
00000100
00000000
00000001
00001000
00000001
00000000
,
00000010
00001000
00000000
00000010
00000100
00000000
00000001
00000000
,
00001000
00000100
00000000
00010000
00001000
00000000
01000000
00000000
,
10000000
10000000
00000000
00010000
10000000
00000000
01000000
00000000
,
00100000
00010000
00000000
00001000
00010000
00000000
00000100
00000000
,
00000010
00000100
00000000
00001000
00000100
00000000
00000001
00000000
,
00000010
00000010
00000000
00000100
00000010
00000000
00000001
00000000
,
00000100
00001000
00000100
00001000
,
00010000
00001000
00010000
00001000
,
00100000
01000000
01000000
01000000
,
01000000
01000000
01000000
01000000
,
00010000
00000000
10000000
00000000
00100000
01000000
00010000
00000000
,
10000000
01000000
00010000
00000000
00000100
00000000
00000001
00000000
,
00000010
00000000
00000001
00000000
00001000
00000010
00000100
00000000
,
00010000
01000000
10000000
00100000
,
10000000
00000000
00010000
00000000
01000000
00100000
00010000
00000000
,
00001000
00000100
00000010
00000000
00000001
00000000
00001000
00000000
,
00000100
00000010
00000001
00000000
00000100
00001000
00000010
00000000
,
00010000
00100000
10000000
01000000
,
00010000
00100000
00000000
10000000
00100000
00000000
01000000
00000000
,
00010000
01000000
00000000
10000000
01000000
00000000
00010000
00000000
,
00000010
00000000
00000010
00000000
00000001
00001000
00000001
00000000
,
00000100
00000000
00000100
00000000
00000010
00000100
00000010
00000000
,
00001000
00000000
00001000
00000000
00010000
00001000
00010000
00000000
,
01000000
00000000
01000000
00000000
10000000
00010000
10000000
00000000
,
00100000
00010000
00000000
00100000
01000000
00000000
10000000
00000000
,
00010000
01000000
00000000
00001000
00010000
00000000
00000100
00000000
,
00000001
00000001
00000000
00001000
00000001
00000000
00000100
00000000
,
00000010
00001000
00000000
00010000
00001000
00000000
01000000
00000000
,
00100000
01000000
00000000
00010000
01000000
00000000
10000000
00000000
,
00100000
00100000
00000000
01000000
00100000
00000000
10000000
00000000
,
10000000
01000000
00010000
00000000
00001000
00000000
00000001
00000000
,
00000001
00000100
00001000
00000000
00010000
00000000
10000000
00000000
,
00100000
10000000
01000000
00000000
00100000
00000000
01000000
00000000
,
00010000
01000000
00010000
01000000
,
00001000
00010000
00001000
00010000
,
00022000
00000000
00000000
00000000
,
00000000
00000000
00000000
00033000
,
00000000
00000000
00000000
00000000
;

//---------------dance-double - ----------------
#NOTEDATA:;
#CHARTNAME:;
#STEPSTYPE:dance-double;
#DESCRIPTION:;
#CHARTSTYLE:;
#DIFFICULTY:Hard;
#METER:11;
#RADARVALUES:0.436231,0.507745,0.156832,0.073803,0.000000,331.000000,314.000000,17.000000,8.000000,0.000000,0.000000,0.000000,0.000000,0.000000,0.436231,0.507745,0.156832,0.073803,0.000000,331.000000,314.000000,17.000000,8.000000,0.000000,0.000000,0.000000,0.000000,0.000000;
#CREDIT:;
#DISPLAYBPM:145.000000;
#NOTES:
00000000
00000000
00000000
00000000
,
00000000
00000000
00000000
00000000
,
00000000
00000000
00000000
00000000
,
00000000
00000000
00000000
00000000
,
00000000
00000000
00000000
00000000
,
00000000
00000000
00000000
00000000
,
00000000
00000000
00000000
00000000
,
00000000
00000000
00000000
00000000
,
00000000
00000000
00000000
00000000
,
10000000
00010000
00100000
00001000
00010000
00000000
00000110
00000000
,
00002002
00000000
00000000
00000000
,
00000000
00000000
00000000
00003003
,
00000010
00010000
00000100
00001000
00000010
00000000
00000101
00000000
,
00000100
00001000
00010000
00100000
10000000
00000000
11000000
00000000
,
00100000
01000000
01000000
01000000
,
00010000
00010000
00000100
00000000
00000100
00000000
00000100
00000000
,
00000010
00000100
00000100
00000100
,
00000001
00000001
00001000
00000000
00001000
00000000
00001000
00000000
,
00010000
00001000
00001000
00001000
,
00010000
00010000
01000000
00000000
01000000
00000000
01000000
00000000
,
00100000
01000000
01000000
01000000
,
10000000
10000000
00100000
00000000
00100000
00000000
00100000
00000000
,
10000000
01000000
00010000
01000000
10000000
00000000
00010000
00000000
,
00001000
00000010
00000001
00000010
00001000
00000000
00000001
00000000
,
00000010
00000001
00000010
00000001
00001000
00000010
00001000
00000010
,
00000100
00010000
00000100
00010000
01000000
00100000
01000000
00100000
,
10000000
01000000
10000000
01000000
00100000
01000000
00100000
01000000
,
00010000
00001000
00010000
00001000
00000100
00000001
00000100
00000001
,
00000010
00000100
00000001
00000100
00000010
00000000
00001001
00000000
,
00000010
00001000
00010000
00001000
00000100
00000000
00000101
00000000
,
00001000
00010000
00100000
01000000
00100000
00000000
10010000
00000000
,
00100000
01000000
00100000
00010000
00100000
00000000
11000000
00000000
,
00010000
01000000
00001000
00010000
00000100
00000000
00001010
00000000
,
00000001
00000010
00001000
00000010
00000001
00000000
00000110
00000000
,
00000001
00000100
00001000
00000000
00010000
00001000
01000000
00000000
,
00100000
10000000
01000000
00100000
01000000
00000000
10000000
00000000
,
00100000
01000000
01000000
01000000
,
01000000
00000000
01000000
00000000
01000000
00100000
00100000
00000000
,
00020000
00000010
01000000
00030010
,
00001000
00010000
00000100
00001000
00000010
00000100
00000001
00000000
,
00000020
00001000
00000001
00001030
,
00000100
00010000
00001000
00100000
00010000
01000000
00100000
00000000
,
20000000
00100000
01000000
30100000
,
01000000
00010000
00001000
00000100
00000001
00000010
00000100
00000000
,
00002000
00100000
00000010
00103000
,
00001000
01000000
00010000
00100000
00010000
10000000
00100000
00000000
,
10000000
01000000
00010000
01000000
10000000
00000000
00010000
00000000
,
00001000
00000010
00000001
00000010
00001000
00000000
00000001
00000000
,
00000010
00000001
00000010
00000001
00001000
00000010
00001000
00000010
,
00000100
00010000
00000100
00010000
01000000
00100000
01000000
00100000
,
10000000
01000000
10000000
01000000
00100000
01000000
00100000
01000000
,
00010000
00001000
00010000
00001000
00000100
00000001
00000100
00000001
,
00000010
00000100
00000001
00000100
00000010
00000000
00001001
00000000
,
00000010
00001000
00010000
00001000
00000100
00000000
00000101
00000000
,
00001000
00010000
00100000
01000000
00100000
00000000
10010000
00000000
,
00100000
01000000
00100000
00010000
00100000
00000000
11000000
00000000
,
00010000
01000000
00001000
00010000
00000100
00000000
00001010
00000000
,
00000001
00000010
00001000
00000010
00000001
00000000
00000110
00000000
,
00001000
00000001
00000100
00001000
00010000
00100000
00100000
00000000
,
00010000
00001000
00010000
01000000
00100000
01000000
01000000
00000000
,
10000000
10000000
10000000
00010000
01000000
01000000
01000000
00000000
,
10000000
01000000
00010000
00000000
00001000
00010000
00000100
00000000
,
00000010
00000001
00000100
00000010
00000100
00000000
00000001
00000000
,
00000202
00000000
00000000
00000000
,
00000000
00000000
00000000
00000303
,
00000000
00000000
00000000
00000000
;

//---------------dance-single - ----------------
#NOTEDATA:;
#CHARTNAME:;
#STEPSTYPE:dance-single;
#DESCRIPTION:;
#CHARTSTYLE:;
#DIFFICULTY:Challenge;
#METER:16;
#RADARVALUES:0.865873,1.192387,0.341341,0.055353,1.167017,657.000000,620.000000,37.000000,6.000000,184.000000,0.000000,0.000000,0.000000,0.000000,0.865873,1.192387,0.341341,0.055353,1.167017,657.000000,620.000000,37.000000,6.000000,184.000000,0.000000,0.000000,0.000000,0.000000;
#CREDIT:;
#DISPLAYBPM:145.000000;
#NOTES:
// measure 0
0000
0000
0000
0000
,  // measure 1
0000
0000
0000
0000
,  // measure 2
0000
0000
0000
0000
,  // measure 3
0000
0000
0000
0000
,  // measure 4
0000
0000
0000
0000
,  // measure 5
0000
0000
0000
0000
,  // measure 6
0000
0000
0000
0000
,  // measure 7
0000
0000
0000
0000
,  // measure 8
0000
0000
0000
0000
,  // measure 9
1000
0100
MMMM
0001
0100
0000
0101
MMMM
,  // measure 10
1100
0000
MMMM
MMMM
MMMM
0100
0100
0100
,  // measure 11
0100
0100
0100
0100
0100
0110
0110
0000
,  // measure 12
0001
0010
0100
1000
0002
0000
1003
0000
,  // measure 13
1000
0100
0010
0001
2000
0000
3001
0000
,  // measure 14
1000
0000
0010
0100
1000
0000
0100
0010
0001
0000
0100
0001
1000
0100
0010
0000
,  // measure 15
1100
0000
1100
0000
0100
1000
0010
0000
0100
0001
0010
0000
0001
0010
0100
1000
,  // measure 16
1100
0000
1010
0000
0010
0000
0100
0001
1000
0000
0100
0010
1000
0001
0010
0000
,  // measure 17
0110
0000
0110
0000
0100
0001
1000
0000
0100
0010
1000
0000
0100
0010
0001
0010
,  // measure 18
1010
0000
MMMM
0000
0001
0010
0100
0000
0010
0100
1000
0000
1000
0100
0010
0001
,  // measure 19
0101
0000
0101
0000
MMMM
0000
0100
0001
1000
0000
0010
0100
0001
1000
0100
0010
,  // measure 20
0110
0000
MMMM
0000
0010
0100
1000
0000
0100
0010
0001
0000
1000
0010
0100
0001
,  // measure 21
0011
0000
0011
0000
MMMM
0000
0010
0001
0100
0000
0010
1000
0100
0010
0001
0100
,  // measure 22
0010
1000
0010
1000
0010
1000
0010
0100
0001
1000
0100
0000
1001
0000
0000
0000
,  // measure 23
0010
0001
0100
1000
0100
0010
0001
0100
0010
0000
MMMM
0000
1001
0000
0000
0000
,  // measure 24
1000
0100
1000
0000
1000
0010
1000
0000
1000
0001
1000
0000
1000
0001
1000
0010
,  // measure 25
0100
1000
0100
0000
0100
0010
0100
0000
0100
0001
0100
0000
0100
0001
0100
1000
,  // measure 26
0010
0100
0010
0000
0010
1000
0010
0000
0010
0001
0010
0000
0010
0100
0010
1000
,  // measure 27
0001
0010
0001
0000
0001
0100
0001
0000
0001
1000
0001
0000
0001
0010
0001
0100
,  // measure 28
0010
0001
0100
0010
1000
0000
0100
0000
0010
0010
0010
0000
MMMM
0000
0010
0000
,  // measure 29
0100
0100
0100
0000
MMMM
0000
0100
0000
1000
0000
0100
1000
0000
0000
0000
1000
,  // measure 30
0100
0000
0010
0000
0001
0000
0010
0000
0100
0000
0010
0000
0100
0000
0000
0000
0000
0000
0100
0000
0000
0010
0000
0000
0100
0000
0000
0000
0000
0000
1000
0000
0000
0000
0000
0000
0001
0000
0000
0000
0000
0000
0010
0000
0000
1000
0000
0000
,  // measure 31
0010
0100
0001
1000
0100
0010
0001
0010
0100
0100
0100
0000
MMMM
0000
0100
0000
,  // measure 32
1000
1000
1000
0000
MMMM
0000
1000
0000
0001
0000
0100
0001
0000
0000
0000
0001
,  // measure 33
0010
0000
0100
0000
1000
0000
0100
0000
0010
0000
0001
0000
0100
0000
0000
0000
0000
0000
0010
0000
0000
0100
0000
0000
0010
0000
0000
0000
0000
0000
1000
0000
0000
0100
0000
0000
0001
0000
0000
0010
0000
0000
0001
0000
0000
0100
0000
0000
,  // measure 34
0020
0100
0100
1000
1000
0100
0100
1000
,  // measure 35
1030
0000
1000
0000
0100
0000
0100
0000
0010
0000
0001
0010
0000
0000
0000
0000
,  // measure 36
0110
0000
MMMM
MMMM
MMMM
MMMM
MMMM
MMMM
MMMM
MMMM
MMMM
MMMM
MMMM
MMMM
MMMM
MMMM
,  // measure 37
MMMM
MMMM
MMMM
MMMM
MMMM
MMMM
MMMM
MMMM
MMMM
0000
1001
0000
1001
0000
0000
0000
,  // measure 38
1100
0000
0100
1000
0010
0000
0100
0001
0010
0000
1000
0100
0010
0001
0010
0100
,  // measure 39
1100
0000
1100
0000
1000
0100
0010
0001
0100
0010
1000
0001
0010
0100
1000
0010
,  // measure 40
0101
0000
0101
0000
0100
0010
1000
0100
0010
0001
0100
0010
1000
0001
0010
0100
,  // measure 41
1010
1010
1000
MMMM
0010
MMMM
0001
MMMM
,  // measure 42
0101
0000
0100
0010
1000
0000
0010
0100
0001
1000
0100
0010
0001
0000
0100
0010
,  // measure 43
1010
0000
1000
0100
0010
0000
0001
0100
0010
1000
0100
0000
0110
0000
0010
1000
,  // measure 44
1001
0000
0001
0100
0010
0000
1000
0100
0010
0000
0001
0100
0010
1000
0100
0000
,  // measure 45
0110
0000
0010
1000
0001
0000
0100
0001
1000
0000
0010
0001
0100
0010
1000
0100
,  // measure 46
0010
0001
0100
1000
0100
0001
0010
1000
0100
0001
1000
0000
MMMM
0000
0000
0000
,  // measure 47
0001
0010
0100
1000
0010
0100
0001
1000
0100
0010
0001
0000
MMMM
0000
0000
0000
,  // measure 48
0100
0001
0100
0001
0100
0010
0100
0010
0100
1000
0100
1000
0100
0010
0100
0001
,  // measure 49
1000
0100
1000
0100
1000
0010
1000
0010
1000
0001
1000
0001
1000
0010
1000
0100
,  // measure 50
0010
0001
0010
0001
0010
0100
0010
0100
0010
1000
0010
1000
0010
0001
0010
0100
,  // measure 51
0001
1000
0001
1000
0001
0100
0001
0100
0001
0010
0001
0010
0001
1000
0001
0100
,  // measure 52
0010
0001
0100
0010
1000
0100
0010
0001
0100
0100
0100
0000
MMMM
0000
0101
0000
,  // measure 53
0001
0001
0001
0000
MMMM
0000
1100
0000
1000
0000
0100
0001
0000
0000
0010
0001
,  // measure 54
0100
0000
0010
0000
0100
0000
1000
0000
0100
0000
0010
0000
0001
0000
0000
0000
0000
0000
0010
0000
0000
0100
0000
0000
1000
0000
0000
0000
0000
0000
0010
0000
0000
0100
0000
0000
0001
0000
0000
0000
0000
0000
1000
0000
0000
0100
0000
0000
,  // measure 55
0010
0001
0100
1000
0100
0001
0010
0100
1000
1000
1000
0000
MMMM
0000
1010
0000
,  // measure 56
0010
0010
0010
0000
MMMM
0000
0011
0000
0001
0000
0100
0010
0000
0100
0010
0001
,  // measure 57
1000
0000
0100
0000
0010
0000
0001
0000
0010
0000
0100
0000
1000
0000
0000
0000
0000
0000
0010
0000
0000
0100
0000
0000
0001
0000
0000
0000
0000
0000
0100
0000
0000
0010
0000
0000
1000
0000
0000
0000
0000
0000
0100
0000
0000
0001
0000
0000
,  // measure 58
1000
0100
0010
0001
0010
0100
1000
0010
0200
0000
0000
0000
0301
0000
0000
0000
,  // measure 59
0001
0010
0100
1000
0010
0100
0001
1000
0020
0000
0000
0000
0130
0000
0000
0000
,  // measure 60
1000
0100
1000
0000
0100
0000
1000
0000
0010
0000
0100
0000
0001
0000
1000
0000
0100
0010
0100
0000
0010
0000
0100
0000
0001
0010
0001
0000
0010
0000
0100
0000
,  // measure 61
1000
0010
1000
0000
0010
0000
1000
0000
0100
0000
0010
0000
0100
0000
0010
0000
0001
0010
0001
0000
0010
0000
0001
0000
0100
0000
0010
0000
1000
0000
0100
0000
,  // measure 62
0010
0001
0010
0000
0001
0000
0010
0000
0100
0010
0100
0000
0010
0000
0100
0000
1000
0001
1000
0000
0001
0000
1000
0000
0001
1000
0001
1000
0001
0000
0100
0000
,  // measure 63
0020
0000
0000
0000
,  // measure 64
0000
0000
0000
0000
1030
0100
0010
0001
0100
0010
1000
0000
0000
0000
0000
0000
;
