#TITLE:Heatstroke;
#SUBTITLE:;
#ARTIST:TAG feat. Angie Lee;
#TITLETRANSLIT:;
#SUBTITLETRANSLIT:;
#ARTISTTRANSLIT:;
#GENRE:;
#CREDIT:;
#BANNER:Heatstroke.png;
#BACKGROUND:Heatstroke-bg.png;
#LYRICSPATH:;
#CDTITLE:;
#MUSIC:Heatstroke.ogg;
#OFFSET:0.000000;
#SAMPLESTART:70.300003;
#SAMPLELENGTH:15.000000;
#SELECTABLE:YES;
#DISPLAYBPM:140.000000;
#BPMS:0.000000=139.399994
,4.000000=140.000000
;
#STOPS:
;
#BGCHANGES:;
#KEYSOUNDS:;
#ATTACKS:;

//---------------dance-single - ----------------
#NOTES:
     dance-single:
     :
     Beginner:
     2:
     0.122942,0.163513,0.057373,0.000000,0.000000,90.000000,84.000000,6.000000,0.000000,0.000000,0.000000,0.122942,0.163513,0.057373,0.000000,0.000000,90.000000,84.000000,6.000000,0.000000,0.000000,0.000000:
0000
0000
0000
0000
,
0000
0000
0000
0000
,
0000
0000
0000
0000
,
0000
0000
0000
0000
,
0000
0000
0000
0000
,
0100
0000
0000
0000
,
0001
0000
0000
0000
,
1000
0000
0000
0000
,
0010
0000
0000
0000
,
1000
0000
1000
0000
,
0100
0000
0100
0000
,
0010
0000
0010
0000
,
0001
0000
0000
0000
,
1000
0000
0000
0000
,
1000
0000
0000
0000
,
0100
0000
0000
0000
,
0100
0000
0000
0000
,
0010
0000
0010
0000
,
0010
0000
0000
0000
,
0001
0000
0001
0000
,
0001
0000
0000
0000
,
0010
0000
0010
0000
,
1000
0000
1000
0000
,
0010
0000
0010
0000
,
0001
0000
0001
0000
,
0100
0000
0000
0000
,
0001
0001
0001
0000
,
1000
0000
0000
0000
,
0100
0100
0100
0000
,
1000
0000
1000
0000
,
0010
0000
0010
0000
,
0001
0000
0001
0000
,
0010
0000
0010
0000
,
0100
0000
0100
0000
,
1000
0000
1000
0000
,
1001
0000
0000
0000
,
0010
0000
0000
0000
,
0100
0000
0100
0000
,
1000
0000
1000
0000
,
0001
0000
0000
0000
,
1001
0000
0000
0000
,
0010
0000
0010
0000
,
1000
1000
1000
0000
,
0100
0000
0100
0000
,
0001
0001
0001
0000
,
0010
0000
0010
0000
,
1000
1000
1000
0000
,
0001
0000
0001
0000
,
0100
0000
0000
0000
,
1001
0000
0000
0000
,
0000
0000
0000
0000
,
1001
0000
0000
0000
,
0000
0000
0000
0000
,
1001
0000
0000
0000
,
0010
0000
0010
0000
,
0100
0000
0100
0000
,
1000
0000
0000
0000
,
1001
0000
0000
0000
,
0000
0000
0000
0000
;

//---------------dance-single - ----------------
#NOTES:
     dance-single:
     :
     Easy:
     6:
     0.265008,0.354278,0.191243,0.411172,0.000000,194.000000,174.000000,20.000000,43.000000,0.000000,0.000000,0.265008,0.354278,0.191243,0.411172,0.000000,194.000000,174.000000,20.000000,43.000000,0.000000,0.000000:
0000
0000
0000
0000
,
0000
0000
0000
0000
,
0000
0000
0000
0000
,
0000
0000
0000
0000
,
0000
0000
0000
0000
,
0010
0000
1000
0100
,
0010
0000
0001
0100
,
0010
0000
1000
0100
,
0010
0000
0001
0100
,
0020
0000
1000
0130
,
2000
3000
0002
0103
,
0010
1000
0100
0100
,
0110
0000
0000
0000
,
0000
0100
0000
0100
,
0000
0100
0010
0010
,
0000
0100
0000
0100
,
0000
0100
0010
0010
,
2002
0003
0100
3100
,
2002
3000
0100
0103
,
0202
0303
0001
0100
,
0010
1000
1001
0000
,
0010
0020
1030
2000
,
3100
0200
0301
0002
,
0103
0200
1300
1000
,
0010
1000
0001
0100
,
0010
1010
0001
0011
,
0100
2100
3010
0001
,
0010
0011
1000
1100
,
0010
0001
0010
1000
,
0010
0001
2000
3100
,
1000
0010
0200
0301
,
2000
3001
0100
0100
,
0020
1030
0020
0031
,
0010
1000
0002
0103
,
0001
0010
0002
1003
,
2002
0000
0000
3003
,
1000
1000
0001
0100
,
0010
1010
0001
0011
,
0100
1100
0001
0011
,
0002
0003
0010
0010
,
0001
1000
1001
0000
,
0010
1000
0001
0100
,
0010
1000
0010
0001
,
0020
1030
0002
0103
,
0020
1030
0020
0031
,
0010
1000
0100
0001
,
0100
1000
0100
0001
,
0200
1300
0002
0013
,
0002
0103
0002
0013
,
2002
0000
0000
0000
,
0000
3003
0010
0001
,
0022
0003
2000
3000
,
0002
0033
1000
0100
,
2200
3000
0002
0003
,
2000
3300
1000
0100
,
0001
0100
1000
0100
,
0001
0100
0010
0010
,
1001
0000
0000
0000
,
0000
0000
0000
0000
;

//---------------dance-single - ----------------
#NOTES:
     dance-single:
     :
     Medium:
     8:
     0.303257,0.354278,0.028686,0.382486,0.014343,222.000000,219.000000,3.000000,40.000000,0.000000,0.000000,0.303257,0.354278,0.028686,0.382486,0.014343,222.000000,219.000000,3.000000,40.000000,0.000000,0.000000:
0000
0000
0000
0000
,
0000
0000
0000
0000
,
0000
0000
0000
0000
,
0000
0000
0000
0000
,
0000
0000
0000
0000
,
1000
0000
0010
0000
1000
0000
0100
1000
,
0001
0000
0010
0000
0001
0000
0100
0001
,
1000
0000
0100
0000
1000
0000
0010
1000
,
0001
0000
0100
0000
0001
0000
0010
0001
,
1000
0000
0010
0000
1000
0000
0100
1000
,
0001
0000
0010
0000
0001
0000
0100
0001
,
1000
0000
0100
0000
1000
0000
0010
1000
,
0001
0000
0000
0000
,
2000
0000
0000
3000
,
0020
0000
0002
0030
,
0200
0000
0000
0303
,
0002
0000
0023
0030
,
0200
1300
2000
3010
,
0020
0000
0031
0000
0002
0000
0103
0001
,
0020
2030
3200
0302
,
0203
0000
0000
0300
,
0001
0010
1000
0010
,
0001
0000
0010
0000
1000
0000
0100
0010
,
1000
0010
0001
0010
,
1000
0010
0001
0010
,
0001
0000
0000
0100
0000
0000
0010
0000
1000
0000
0000
0100
0000
0000
0010
0000
,
0001
0010
0001
0000
1000
0010
1000
0000
,
0100
0000
1000
0000
0010
0001
0100
0001
,
0010
2000
0001
3100
,
0010
0001
0100
0000
0010
0000
1000
0000
,
0010
1000
0100
0000
0010
0000
0001
0010
,
0100
2000
0010
3010
,
0001
0000
0001
0000
0100
0000
0100
0001
,
0010
0100
0010
0001
,
0010
0001
0100
0000
0010
0000
1000
0100
,
0020
0000
1030
0020
0000
0031
0020
0000
,
0200
0000
0330
1000
0010
0100
0002
0000
,
0010
0010
0010
0023
,
1000
0000
1000
0000
1000
0000
1030
0010
,
0001
0000
0010
0000
0001
0100
0001
0000
,
0100
0000
0000
1000
0000
0000
0001
0000
1000
0000
0000
0000
1001
0000
0000
0000
,
0001
0010
1000
0000
1000
0010
0001
0000
,
0100
0000
0001
0000
1000
0010
0001
0010
,
1000
1000
1000
1000
,
0100
0100
0100
0100
,
1000
0010
0001
0000
0001
0010
1000
0000
,
0100
0000
1000
0000
0001
0010
1000
0010
,
0001
0001
0001
0001
,
0100
0100
0100
0100
,
2020
0000
0000
0000
,
0000
0030
0200
3000
,
0002
0000
0000
0300
,
0200
0003
2300
3010
,
0200
0301
0002
0013
,
0020
0000
1030
0000
2000
0000
3100
1000
,
0020
0032
0203
2300
,
3200
0000
0302
0000
0013
2000
3010
0000
,
0011
0000
0000
0000
,
0000
0000
0000
0000
;

//---------------dance-single - ----------------
#NOTES:
     dance-single:
     :
     Hard:
     10:
     0.428931,0.499144,0.019124,0.057373,0.377705,314.000000,312.000000,2.000000,6.000000,0.000000,0.000000,0.428931,0.499144,0.019124,0.057373,0.377705,314.000000,312.000000,2.000000,6.000000,0.000000,0.000000:
// measure 0
0000
0000
0000
0000
,  // measure 1
0000
0000
0000
0000
,  // measure 2
0000
0000
0000
0000
,  // measure 3
0000
0000
0000
0000
,  // measure 4
1000
0000
0000
0000
0000
0000
0000
0000
0000
0100
0000
0000
0000
0000
0000
0000
0000
0000
0001
0000
0000
0000
0000
0000
0010
0000
0000
0000
0100
0000
0000
0000
1000
0000
0000
0000
0010
0000
0000
0000
0000
0000
0000
0000
0000
0000
0000
0000
,  // measure 5
1000
0000
0000
0001
1000
0000
0000
0000
0100
0000
0000
1000
0100
0000
0000
0000
,  // measure 6
0010
0000
0000
0001
0010
0000
0000
0000
0001
0000
0000
1000
0001
0000
1000
0000
,  // measure 7
0100
0000
0000
0010
0001
0000
0000
0000
1000
0000
0000
0001
1000
0000
0001
0000
,  // measure 8
0100
0000
0000
0001
0100
0000
0000
0001
0000
1000
0000
0001
1000
0000
0010
0000
,  // measure 9
0100
0000
0000
1000
0100
0000
1000
0000
0001
0000
0000
0100
0001
0000
0100
0000
,  // measure 10
0010
0000
0000
1000
0010
0000
1000
0000
0001
0000
0000
1000
0001
0000
1000
0000
,  // measure 11
0100
0000
0000
1000
0100
0000
1000
0000
0010
0000
0000
0001
0010
0000
0001
0000
,  // measure 12
1000
0000
0000
0000
0001
0000
0000
0000
1000
0000
0000
0000
0000
0000
0000
0000
0001
0000
0000
0000
1000
0000
0000
0000
0001
0000
0000
0000
0000
0000
0000
0000
0000
1000
0000
0000
0000
0000
0000
0000
0000
0000
0100
0000
0000
0000
0000
0000
,  // measure 13
0010
0001
1000
0100
,  // measure 14
1000
0100
0001
0100
,  // measure 15
0010
1000
0001
1000
,  // measure 16
0100
0010
0001
1000
,  // measure 17
0100
0000
0000
1000
0100
0000
0000
0000
0001
0000
0000
0100
0001
0000
0000
0000
,  // measure 18
1000
0000
0000
0001
1000
0000
0000
0001
0000
1000
0000
0001
0010
0000
0100
0000
,  // measure 19
1000
0000
0000
0100
1000
0000
0000
0000
0001
0000
0000
0100
0001
0000
0000
0000
,  // measure 20
0110
0000
0000
0000
0000
0000
0000
1000
0000
0001
0000
1000
0001
0000
0010
0000
,  // measure 21
1000
0000
0000
0100
1000
0000
0000
0000
0001
0000
0000
0100
0001
0000
0100
0000
,  // measure 22
0010
0000
0000
1000
0010
0000
0000
0000
1000
0000
0000
0001
1000
0000
0001
0000
,  // measure 23
0010
0000
0000
0100
0010
0000
0000
0000
0001
0000
0000
1000
0001
0000
1000
0000
,  // measure 24
0010
0000
0000
1000
0010
0000
0000
0000
0100
0000
0000
0001
0100
0000
0001
0000
,  // measure 25
1000
0000
0100
0010
0001
0000
1000
0001
,  // measure 26
0100
0000
0000
0000
0010
0000
0000
0000
1000
0000
0000
0010
1000
0000
0001
0000
,  // measure 27
0010
0000
0100
1000
0001
0000
0100
0001
,  // measure 28
1000
0000
0100
0000
0001
0000
0100
0001
,  // measure 29
1000
0000
0000
0000
0100
0000
0000
0000
0010
0000
0000
0001
1000
0000
0001
0000
,  // measure 30
1000
0000
0000
0000
0100
0000
0000
0000
0010
0000
0000
0001
1000
0000
0001
0000
,  // measure 31
0100
0000
0000
0000
0010
0000
0000
0000
1000
0000
0000
0001
1000
0000
0001
0000
,  // measure 32
0010
0000
0000
0000
0100
0000
0000
0000
1000
0000
0000
0001
1000
0000
0001
0000
,  // measure 33
0100
0000
0000
0000
0001
0000
0000
0000
1000
0000
0000
0010
1000
0000
0010
0000
,  // measure 34
1000
0000
0000
0000
0100
0000
0000
0000
0010
0000
0000
0001
1000
0000
0001
0000
,  // measure 35
1000
0000
0000
0001
1000
0000
0000
0000
0100
0000
0000
1000
0100
0000
0000
0000
,  // measure 36
0010
0000
0000
0001
0010
0000
0000
0000
0001
0000
0000
1000
0001
0000
0000
0000
,  // measure 37
0100
0000
0000
0010
0100
0000
0000
0000
0001
0000
0000
1000
0001
0000
0000
0000
,  // measure 38
1000
0000
0000
0100
1000
0000
0000
0000
0001
0000
0000
0010
0001
0000
0000
0000
,  // measure 39
1000
0000
0100
0010
0001
0000
1000
0001
,  // measure 40
0100
0000
0000
0010
0000
0000
1000
0000
0001
0000
0000
0000
1001
0000
0000
0000
,  // measure 41
0100
0000
0000
1000
0001
0000
0000
0000
0100
0000
0000
0010
1000
0000
0000
0000
,  // measure 42
0100
0000
0000
0010
0001
0000
0000
0000
0100
0000
0000
0010
1000
0000
0000
0000
,  // measure 43
0001
0000
0000
1000
0001
0000
0000
0000
0100
0000
0000
0010
1000
0000
0000
0000
,  // measure 44
0001
0000
0000
0000
0010
0000
0000
0000
0100
0000
0000
1000
0100
0000
0000
0000
,  // measure 45
0010
0000
0000
0001
0010
0000
0000
0000
0001
0000
0000
1000
0001
0000
1000
0000
,  // measure 46
0100
0000
0000
0010
0001
0000
0000
0000
1000
0000
0000
0001
0100
0000
0010
0000
,  // measure 47
1000
0000
0000
0001
1000
0000
0000
0000
0100
0000
0000
0010
0001
0000
0000
0000
,  // measure 48
1000
0000
0000
0000
0100
0000
0000
0000
0010
0000
0000
0001
1000
0000
0001
0000
,  // measure 49
2000
0000
0000
0000
,  // measure 50
0002
0000
0000
3000
,  // measure 51
0020
0000
0000
0003
,  // measure 52
0200
0000
0000
0330
,  // measure 53
1000
0000
0000
0000
0001
0000
1000
0000
0100
0000
0000
0010
0001
0000
1000
0000
,  // measure 54
0010
0000
0000
0000
0100
0000
0001
0000
1000
0000
0000
0100
0010
0000
0001
0000
,  // measure 55
1000
0000
0000
0000
0001
0000
0100
0000
0010
0000
0000
1000
0001
0000
1000
0000
,  // measure 56
0001
0000
0000
0000
0000
0000
0000
0100
0000
0001
0000
0100
0010
0000
0002
0000
,  // measure 57
2000
0000
0000
0000
,  // measure 58
3003
0000
0000
0000
;

//---------------dance-single - ----------------
#NOTES:
     dance-single:
     :
     Challenge:
     8:
     0.277302,0.354278,0.019124,0.363362,0.014343,203.000000,201.000000,2.000000,38.000000,80.000000,0.000000,0.277302,0.354278,0.019124,0.363362,0.014343,203.000000,201.000000,2.000000,38.000000,80.000000,0.000000:
0000
0000
0000
0000
,
0000
0000
0000
0000
,
0000
0000
0000
0000
,
0000
0000
0000
0000
,
0000
0000
0000
0000
,
1000
0000
MMMM
0000
1000
0000
0100
1000
,
0001
0000
MMMM
0000
0001
0000
0100
0001
,
1000
0000
MMMM
0000
1000
0000
0010
1000
,
0001
0000
MMMM
0000
0001
0000
0010
0001
,
1000
0000
MMMM
0000
1000
0000
0100
1000
,
0001
0000
MMMM
0000
0001
0000
0100
0001
,
1000
0000
MMMM
0000
1000
0000
0010
1000
,
0001
0000
0000
0000
,
2000
0000
0000
3000
,
0020
0000
0002
0030
,
0200
0000
0000
0303
,
0002
0000
0013
MMMM
,
0200
1300
2000
3010
,
0020
0000
0031
0000
0002
0000
0103
0001
,
0020
2030
3200
0302
,
0203
0000
0300
MMMM
,
0001
0010
1000
0010
,
0001
0000
MMMM
0000
1000
0000
0100
0010
,
1000
0010
0001
0010
,
1000
MMMM
0001
0010
,
0001
0000
0000
0100
0000
0000
0010
0000
1000
0000
0000
0100
0000
0000
0010
0000
,
0001
0010
0001
0000
1000
0010
1000
0000
,
0100
0000
MMMM
0000
0010
0001
0100
0001
,
0010
2000
0001
3100
,
0010
0001
0100
0000
0010
0000
MMMM
0000
,
0010
1000
0100
0000
0010
0000
0001
0010
,
0100
2000
0010
3010
,
0001
0000
0001
0000
0100
0000
0100
0001
,
0010
0100
0010
MMMM
,
0010
0001
0100
0000
0010
0000
1000
0100
,
0020
0000
1030
0020
0000
0031
0020
0000
,
0200
0000
0330
1000
0010
0100
0002
0000
,
0010
0010
0010
0023
,
1000
0000
1000
0000
1000
0000
1030
0010
,
0001
0000
0010
0000
0001
0100
0001
0000
,
0100
0000
0000
1000
0000
0000
0001
0000
1000
0000
0000
0000
MMMM
0000
0000
0000
,
0001
0010
1000
0000
1000
0010
0001
0000
,
0100
0000
0001
0000
1000
0010
0001
0010
,
1000
1000
1000
MMMM
,
0100
0100
0100
MMMM
,
1000
0010
0001
0000
0001
0010
1000
0000
,
0100
0000
1000
0000
0001
0010
1000
0010
,
0001
0001
0001
MMMM
,
0100
0100
0100
MMMM
,
2020
0000
0000
0000
,
0000
0030
0200
3000
,
0002
0000
0000
0300
,
0200
0003
1300
MMMM
,
0200
0301
0002
0013
,
0020
0000
1030
0000
2000
0000
3100
1000
,
0020
0032
0203
2300
,
3200
0000
0302
0000
0013
2000
3010
0000
,
0011
0000
0000
0000
,
0000
0000
0000
0000
;

//---------------dance-double - ----------------
#NOTES:
     dance-double:
     :
     Easy:
     6:
     0.245884,0.272521,0.095621,0.420735,0.000000,180.000000,170.000000,10.000000,44.000000,0.000000,0.000000,0.245884,0.272521,0.095621,0.420735,0.000000,180.000000,170.000000,10.000000,44.000000,0.000000,0.000000:
00000000
00000000
00000000
00000000
,
00000000
00000000
00000000
00000000
,
00000000
00000000
00000000
00000000
,
00000000
00000000
00000000
00000000
,
00000000
00000000
00000000
00000000
,
00100000
00000000
01000000
00010000
,
00001000
00000000
00000100
00000001
,
00000100
00000000
00001000
00010000
,
01000000
00000000
10000000
01000000
,
00020000
00030000
00001000
00000100
,
00000002
00000003
00000200
00001300
,
00010000
00000000
00100000
10000000
,
00100000
00000000
00000000
00000000
,
00000000
10000000
00000000
01000000
,
00000000
00010000
00000000
00001000
,
00000000
00000100
00000000
00000001
,
00000000
00000010
00000000
00001000
,
00022000
00033000
01000000
01000000
,
22000000
33000000
01000000
01000000
,
02020000
03030000
00001000
00000100
,
00000001
00000000
00001000
00001000
,
00010000
00020000
10030000
20000000
,
31000000
02000000
03010000
00020000
,
00031000
00002000
00003100
00000100
,
00000001
00000100
00001000
00010000
,
00100000
00100000
00010000
00010000
,
00001000
00000100
00000001
00000100
,
00001000
00010000
00100000
10000000
,
00100000
00010000
00001000
00000100
,
00000001
00000100
00002000
00013000
,
00100000
10000000
00200000
00310000
,
00002000
00003010
00001000
00001000
,
00020000
01030000
10000000
10000000
,
00010000
00001000
00000200
00000301
,
00000100
00001000
00020000
00130000
,
00220000
00330000
22000000
33000000
,
00010000
00010000
00001000
00000010
,
00001000
00000010
00001000
00010000
,
01000000
10000000
01000000
00010000
,
00002000
00003000
00000010
00000000
,
00001000
00010000
00110000
00000000
,
10000000
01000000
00100000
00010000
,
00001000
00000100
00000001
00000100
,
00002000
00013000
00200000
10300000
,
00200000
00310000
00002000
00003010
,
00001000
00010000
01000000
10000000
,
01000000
00010000
00001000
00000100
,
00000002
00000103
00002000
00013000
,
00200000
10300000
00200000
00310000
,
00022000
00000000
00000000
00030000
,
00000020
00003030
00000010
00001000
,
00022000
00003000
00200000
00030000
,
20000000
30300000
00100000
00010000
,
00022000
00030000
00000200
00003000
,
00000002
00000303
00000100
00001000
,
00010000
01000000
10000000
01000000
,
00010000
00000000
00000010
00000000
,
00001010
00000000
00000000
00000000
,
00000000
00000000
00000000
00000000
;

//---------------dance-double - ----------------
#NOTES:
     dance-double:
     :
     Medium:
     8:
     0.314185,0.437946,0.095621,0.315551,0.004781,230.000000,220.000000,10.000000,33.000000,0.000000,0.000000,0.314185,0.437946,0.095621,0.315551,0.004781,230.000000,220.000000,10.000000,33.000000,0.000000,0.000000:
00000000
00000000
00000000
00000000
,
00000000
00000000
00000000
00000000
,
00000000
00000000
00000000
00000000
,
00000000
00000000
00000000
00000000
,
00000000
00000000
00000000
00000000
,
00100000
00000000
10000000
00000000
01000000
00000000
00010000
01000000
,
00010000
00000000
00001000
00000000
00000100
00000000
00000001
00000100
,
00000001
00000000
00000010
00000000
00001000
00000000
00000010
00001000
,
00010000
00000000
00100000
00000000
01000000
00000000
00100000
00010000
,
00100000
00000000
10000000
00000000
01000000
00000000
00010000
01000000
,
00010000
00000000
00001000
00000000
00000100
00000000
00000001
00000100
,
00000001
00000000
00000010
00000000
00001000
00000000
00000010
00001000
,
00011000
00000000
00000000
00000000
,
00010000
00000000
01000000
00000000
,
00010000
00000000
00001000
00000100
,
00000001
00000000
00000010
00000000
,
00001000
00000000
00010000
00100000
,
20000000
31000000
02000000
03010000
,
00020000
00031000
00002000
00003100
,
00000002
00000023
00001000
00002030
,
00010000
00003000
00200000
00300000
,
01000000
00000000
00010000
02000000
00100000
00000000
23000000
00000000
,
00100000
30200000
00010000
00301000
,
00000010
00000000
00001000
00000020
00000100
00000000
00000032
00000000
,
00000100
00000203
00001000
00010300
,
01000000
00000000
00010000
01000000
10000000
00000000
00100000
10000000
,
00100000
00000000
00010000
00100000
00010000
00000000
00001000
00010000
,
00001000
00000010
00000001
00000100
,
00001000
00000100
00001000
00000000
00010000
00000000
01000000
00000000
,
10000000
00000000
00100000
10000000
01000000
00000000
00010000
00000000
,
00001000
00000000
00000100
00001000
00000100
00000000
00000001
00000000
,
00000010
00000000
00000010
00000000
00010000
00001000
00010000
00000000
,
00100000
00000000
00100000
00000000
00010000
00001000
00000010
00000000
,
00000001
00000000
00000010
00000001
00000100
00000000
00001000
00000000
,
00010000
00000000
01000000
00010000
01000000
00000000
10000000
00100000
,
00010000
00000000
00001000
00010000
00000000
00001000
00000010
00000000
,
00001000
00000000
00000000
00000010
00001000
00010000
00100000
00000000
,
10100000
00000000
11000000
00000000
00010000
00001000
00000100
00000000
,
00000101
00000000
00000011
00000000
00001000
00010000
00100000
00000000
,
20200000
00000000
00000000
00300000
,
31000000
00000000
00000000
00010000
00000000
00000000
00001000
00000000
00000100
00000000
00000000
00000000
00000101
00000000
00000000
00000000
,
00000001
00000010
00001000
00000000
00010000
00100000
00010000
00000000
,
00002000
00000000
00013000
00000000
00100000
00010000
01000000
00010000
,
00001000
00000010
00000001
00000100
,
00001000
00010000
01000000
10000000
,
10000000
01000000
00010000
00000000
00001000
00000100
00001000
00000000
,
00020000
00000000
00031000
00000000
00000010
00001000
00000100
00001000
,
00010000
00100000
10000000
01000000
,
00010000
00000000
00001000
00000000
00000100
00000000
00000001
00000010
,
00000202
00000000
00000000
00000000
,
00000000
00000003
00001300
00010000
,
00022000
00000000
00000000
00003000
,
02000000
00030000
13000000
00100000
,
20000000
31000000
02000000
03010000
,
00020000
00031000
00002000
00003100
,
00000002
00000023
00001000
00002030
,
00020000
00033000
00100000
00100000
,
02020000
03030000
00000000
00000000
,
00000000
00000000
00000000
00000000
;

//---------------dance-double - ----------------
#NOTES:
     dance-double:
     :
     Hard:
     10:
     0.411172,0.490538,0.009562,0.038249,0.349018,301.000000,300.000000,1.000000,4.000000,0.000000,0.000000,0.411172,0.490538,0.009562,0.038249,0.349018,301.000000,300.000000,1.000000,4.000000,0.000000,0.000000:
00000000
00000000
00000000
00000000
,
00000000
00000000
00000000
00000000
,
00000000
00000000
00000000
00000000
,
00000000
00000000
00000000
00000000
,
00000000
00000000
00000000
00000000
,
10000000
00000000
00000000
01000000
00010000
00000000
00000000
00000000
00001000
00000000
00000000
00000100
00000001
00000000
00000000
00000000
,
00001000
00000000
00000000
00000010
00000100
00000000
00000000
00000000
00000001
00000000
00000000
00001000
00000001
00000000
00000100
00000000
,
00001000
00000000
00000000
00010000
01000000
00000000
00000000
00000000
10000000
00000000
00000000
00010000
10000000
00000000
01000000
00000000
,
00010000
00000000
00000000
00001000
00000100
00000000
00000000
00000001
00000000
00001000
00000000
00000001
00000000
00000000
00000100
00000000
,
00001000
00000000
00000000
00010000
01000000
00000000
10000000
00000000
00010000
00000000
00000000
10000000
00010000
00000000
00100000
00000000
,
01000000
00000000
00000000
00010000
00001000
00000000
00000100
00000000
00000001
00000000
00000000
00001000
00000010
00000000
00000100
00000000
,
00001000
00000000
00000000
00010000
01000000
00000000
10000000
00000000
01000000
00000000
00000000
10000000
01000000
00000000
00100000
00000000
,
00010000
00000000
00000000
00000000
10000000
00000000
00000000
00000000
00010000
00000000
00000000
00000000
00000000
00000000
00000000
00000000
00100000
00000000
00000000
00000000
01000000
00000000
00000000
00000000
00100000
00000000
00000000
00000000
00000000
00000000
00000000
00000000
00000000
01000000
00000000
00000000
00000000
00000000
00000000
00000000
00000000
00000000
00010000
00000000
00000000
00000000
00000000
00000000
,
00001000
00000100
00000001
00001000
,
00000010
00000100
00001000
00010000
,
01000000
10000000
00010000
00100000
,
01000000
00010000
00001000
00000100
,
00000001
00000000
00000000
00001000
00000001
00000000
00000000
00000000
00000100
00000000
00000000
00001000
00010000
00000000
00000000
00000000
,
01000000
00000000
00000000
10000000
00010000
00000000
00000000
00100000
00000000
01000000
00000000
00010000
00001000
00000000
00001000
00000000
,
00000100
00000000
00000000
00000001
00000100
00000000
00000000
00000000
00000001
00000000
00000000
00001000
00000010
00000000
00000000
00000000
,
00000100
00000000
00000000
00000000
00000000
00000000
00000000
00010000
00000000
01000000
00000000
00010000
00100000
00000000
00010000
00000000
,
01000000
00000000
00000000
00010000
00001000
00000000
00000000
00000000
00000100
00000000
00000000
00000001
00001000
00000000
00000010
00000000
,
00000100
00000000
00000000
00001000
00010000
00000000
00000000
00000000
01000000
00000000
00000000
10000000
00010000
00000000
00100000
00000000
,
01000000
00000000
00000000
00010000
00001000
00000000
00000000
00000000
00000100
00000000
00000000
00000001
00000100
00000000
00000001
00000000
,
00001000
00000000
00000000
00000010
00000100
00000000
00000000
00000000
00001000
00000000
00000000
00010000
01000000
00000000
00000000
00000000
,
10000000
00000000
00010000
00100000
01000000
00000000
10000000
01000000
,
00010000
00000000
00000000
00000000
00001000
00000000
00000000
00000000
00000100
00000000
00000000
00000001
00001000
00000000
00000001
00000000
,
00000100
00000000
00001000
00010000
01000000
00000000
10000000
00010000
,
10000000
00000000
01000000
00000000
00010000
00000000
00001000
00000100
,
00000001
00000000
00000000
00000000
00000100
00000000
00000000
00000000
00001000
00000000
00000000
00010000
01000000
00000000
10000000
00000000
,
00010000
00000000
00000000
00000000
00100000
00000000
00000000
00000000
01000000
00000000
00000000
00010000
00001000
00000000
00000100
00000000
,
00000001
00000000
00000000
00000000
00000100
00000000
00000000
00000000
00001000
00000000
00000000
00010000
01000000
00000000
10000000
00000000
,
00010000
00000000
00000000
00000000
10000000
00000000
00000000
00000000
01000000
00000000
00000000
00010000
00001000
00000000
00000100
00000000
,
00000001
00000000
00000000
00000000
00000100
00000000
00000000
00000000
00001000
00000000
00000000
00010000
00001000
00000000
00010000
00000000
,
01000000
00000000
00000000
00000000
10000000
00000000
00000000
00000000
00010000
00000000
00000000
10000000
01000000
00000000
00010000
00000000
,
00001000
00000000
00000000
00000100
00000001
00000000
00000000
00000000
00001000
00000000
00000000
00000010
00000100
00000000
00000000
00000000
,
00001000
00000000
00000000
00010000
01000000
00000000
00000000
00000000
10000000
00000000
00000000
00010000
10000000
00000000
00000000
00000000
,
01000000
00000000
00000000
00100000
01000000
00000000
00000000
00000000
00010000
00000000
00000000
00001000
00000100
00000000
00000000
00000000
,
00000001
00000000
00000000
00001000
00000001
00000000
00000000
00000000
00000100
00000000
00000000
00001000
00010000
00000000
00000000
00000000
,
01000000
00000000
10000000
01000000
00010000
00000000
00001000
00000100
,
00000001
00000000
00000000
00001000
00000000
00000000
00000001
00000000
00001000
00000000
00000000
00000000
00000010
00000000
00000000
00000000
,
00000100
00000000
00000000
00001000
00010000
00000000
00000000
00000000
01000000
00000000
00000000
10000000
01000000
00000000
00000000
00000000
,
00100000
00000000
00000000
00010000
00100000
00000000
00000000
00000000
01000000
00000000
00000000
00010000
00001000
00000000
00000000
00000000
,
00000100
00000000
00000000
00000001
00000100
00000000
00000000
00000000
00000001
00000000
00000000
00001000
00000010
00000000
00000000
00000000
,
00000100
00000000
00000000
00000000
00001000
00000000
00000000
00000000
00010000
00000000
00000000
01000000
10000000
00000000
10000000
00000000
,
01000000
00000000
00000000
00010000
00001000
00000000
00000000
00000000
00000100
00000000
00000000
00000001
00001000
00000000
00000001
00000000
,
00000100
00000000
00000000
00001000
00010000
00000000
00000000
00000000
01000000
00000000
00000000
10000000
00010000
00000000
00000000
00000000
,
00100000
00000000
00000000
01000000
00010000
00000000
00000000
00000000
00001000
00000000
00000000
00000100
00000001
00000000
00000000
00000000
,
00001000
00000000
00000000
00000000
00000010
00000000
00000000
00000000
00000100
00000000
00000000
00001000
00010000
00000000
01000000
00000000
,
20000000
00000000
00000000
00000000
,
02000000
00000000
00000000
30000000
,
00020000
00000000
00000000
03000000
,
00002000
00000000
00000000
00033000
,
00000100
00000000
00000001
00001000
00000010
00000000
00000100
00001000
,
00010000
00000000
01000000
10000000
00010000
00000000
00100000
01000000
,
00010000
00000000
00001000
00000100
00000001
00000000
00001000
00000010
,
00000100
00000000
00000000
00000000
00000000
00000000
00000000
00010000
00000000
00001000
00000000
00010000
00001000
00000000
00010000
00000000
,
00011000
00000000
00000000
00000000
,
00000000
00000000
00000000
00000000
;

//---------------dance-double - ----------------
#NOTES:
     dance-double:
     :
     Challenge:
     8:
     0.286864,0.437946,0.086059,0.305989,0.004781,210.000000,201.000000,9.000000,32.000000,160.000000,0.000000,0.286864,0.437946,0.086059,0.305989,0.004781,210.000000,201.000000,9.000000,32.000000,160.000000,0.000000:
00000000
00000000
00000000
00000000
,
00000000
00000000
00000000
00000000
,
00000000
00000000
00000000
00000000
,
00000000
00000000
00000000
00000000
,
00000000
00000000
00000000
00000000
,
00100000
00000000
MMMMMMMM
00000000
01000000
00000000
00010000
01000000
,
00010000
00000000
MMMMMMMM
00000000
00000100
00000000
00000001
00000100
,
00000001
00000000
MMMMMMMM
00000000
00001000
00000000
00000010
00001000
,
00010000
00000000
MMMMMMMM
00000000
01000000
00000000
00100000
00010000
,
00100000
00000000
MMMMMMMM
00000000
01000000
00000000
00010000
01000000
,
00010000
00000000
MMMMMMMM
00000000
00000100
00000000
00000001
00000100
,
00000001
00000000
MMMMMMMM
00000000
00001000
00000000
00000010
00001000
,
00011000
00000000
00000000
00000000
,
00010000
00000000
01000000
00000000
,
00010000
00000000
00001000
00000100
,
00000001
00000000
00000010
00000000
,
00001000
00000000
00010000
MMMMMMMM
,
20000000
31000000
02000000
03010000
,
00020000
00031000
00002000
00003100
,
00000002
00000023
00001000
00002030
,
00010000
00003000
00100000
MMMMMMMM
,
01000000
00000000
00010000
02000000
00100000
00000000
23000000
00000000
,
00100000
30200000
00010000
00301000
,
00000010
00000000
00001000
00000020
00000100
00000000
00000032
00000000
,
00000100
00000203
00001300
MMMMMMMM
,
01000000
00000000
00010000
01000000
10000000
00000000
00100000
10000000
,
00100000
00000000
00010000
00100000
00010000
00000000
00001000
00010000
,
00001000
00000010
00000001
00000100
,
00001000
00000100
00001000
00000000
00010000
00000000
01000000
00000000
,
10000000
00000000
00100000
10000000
01000000
00000000
MMMMMMMM
00000000
,
00001000
00000000
00000100
00001000
00000100
00000000
MMMMMMMM
00000000
,
00000010
00000000
00000010
00000000
00010000
00001000
00010000
00000000
,
00100000
00000000
00100000
00000000
00010000
00001000
00000010
00000000
,
00000001
00000000
00000010
00000001
00000100
00000000
MMMMMMMM
00000000
,
00010000
00000000
01000000
00010000
01000000
00000000
10000000
00100000
,
00010000
00000000
00001000
00010000
00000000
00001000
00000010
00000000
,
MMMMMMMM
00000000
00000000
00000010
00001000
00010000
00100000
00000000
,
10100000
00000000
11000000
00000000
00010000
00001000
00000100
00000000
,
00000101
00000000
00000011
00000000
00001000
00010000
00100000
00000000
,
20200000
00000000
00000000
00300000
,
31000000
00000000
00000000
00010000
00000000
00000000
00001000
00000000
00000100
00000000
00000000
00000000
MMMMMMMM
00000000
00000000
00000000
,
00000001
00000010
00001000
00000000
00010000
00100000
00010000
00000000
,
00002000
00000000
00013000
00000000
00100000
00010000
01000000
00010000
,
00001000
00000010
00000001
MMMMMMMM
,
00001000
00010000
01000000
MMMMMMMM
,
10000000
01000000
00010000
00000000
00001000
00000100
00001000
00000000
,
00020000
00000000
00031000
00000000
00000010
00001000
00000100
00001000
,
00010000
00100000
10000000
MMMMMMMM
,
00010000
00000000
00001000
00000000
00000100
00000000
00000001
00000010
,
00000202
00000000
00000000
00000000
,
00000000
00000003
00001300
00010000
,
00022000
00000000
00000000
00003000
,
02000000
00030000
13000000
MMMMMMMM
,
20000000
31000000
02000000
03010000
,
00020000
00031000
00002000
00003100
,
00000002
00000023
00001000
00002030
,
00020000
00033000
00100000
MMMMMMMM
,
02020000
03030000
00000000
00000000
,
00000000
00000000
00000000
00000000
;

//---------------dance-single - Edit----------------
#NOTES:
     dance-single:
     :
     Edit:
     16:
     0.907038,0.887367,0.325113,0.363362,1.687719,664.000000,630.000000,34.000000,38.000000,0.000000,0.000000,0.907038,0.887367,0.325113,0.363362,1.687719,664.000000,630.000000,34.000000,38.000000,0.000000,0.000000:
0000
0000
0000
0000
,
0000
0000
0000
0000
,
0000
0000
0000
0000
,
0000
0000
0000
0000
,
1001
0000
0000
0000
0000
0000
0000
0000
0000
0101
0000
0000
0000
0000
0000
0000
0000
0000
1100
0000
0000
0000
0000
0000
1000
0000
0000
0000
0100
0000
0000
0000
0010
0000
0000
0000
0001
0000
0000
0000
0000
0000
0000
0000
0000
0000
0000
0000
,
0011
0000
1000
0010
0000
0101
0000
0011
0000
0101
0000
1000
0001
0100
0010
1000
,
0100
0000
0010
1000
0000
1100
0000
1010
0000
1100
0000
1000
0100
0010
0001
0100
,
0010
0000
0001
0010
0000
1010
0000
1001
0000
1100
0000
1000
0100
0010
0001
0010
,
0100
0000
0010
1000
0000
1001
0000
0101
0000
0001
0010
0001
0100
0000
1100
0000
,
0010
0000
1000
0020
0000
0001
0000
1000
0000
0001
0000
0130
0010
1000
0001
0010
,
0100
0000
1000
0200
0000
0001
0000
1000
0000
0001
0000
0310
0100
0001
0100
0010
,
1000
0000
0100
2000
0000
0010
0000
0100
0000
0010
0000
3001
1000
0100
0010
0001
,
0100
0000
0001
0000
0100
0000
0000
0000
0001
0000
0000
0000
0000
0000
0000
0000
1000
0000
0100
0000
1000
0000
0000
0000
0100
0000
0000
0000
0000
0000
0000
0000
0000
0110
0000
0000
0000
0000
0000
0000
0000
0000
1001
0000
0000
0000
0000
0000
,
1000
0100
0010
0100
0002
0100
0000
0010
0000
1000
0000
0100
0000
0013
0100
1000
,
0010
0000
0100
0000
0001
0000
2000
0000
0000
0000
3010
0000
0000
0000
0100
0001
0000
0000
0010
0001
0000
0000
1000
0010
0000
0000
0100
0000
0001
0000
1000
0000
,
0100
0010
0001
0010
0200
0001
0000
1000
0000
0001
0000
0010
0000
1300
0010
0100
,
0001
0000
0010
0000
1000
0000
0020
0000
0000
0000
1030
0000
0000
0000
0001
0010
0000
0000
0010
0100
0000
0000
0100
1000
0000
0000
0100
0000
1000
0000
0010
0000
,
0100
0001
1000
0100
0020
0001
0000
1000
0000
0001
0000
1000
0000
0031
0010
0100
,
1000
0000
0010
0000
0100
0000
0002
0000
0010
0000
1003
0000
0000
0000
0001
0010
0000
0000
0100
1000
0000
0000
0010
0100
0000
0000
1000
0000
0100
0000
0010
0000
,
0001
1000
0010
0001
0200
0010
0000
1000
0000
0001
0000
0010
0000
0310
0001
1000
,
0010
0000
0001
0000
0100
0000
0020
0000
0000
0000
1030
0000
0000
0000
0001
0100
0000
0000
0010
1000
0000
0000
0100
1000
0000
0000
0010
0000
0100
0000
0001
0000
,
1000
0000
0100
1000
0000
0100
1000
0100
0010
0001
0010
0100
1000
0010
0100
0001
,
0020
0000
0000
0031
0010
0000
0100
0010
1000
0000
1001
0000
0101
0000
0001
0010
,
0100
0000
1000
0010
0000
0010
0100
0001
1000
0100
0010
0001
0100
0010
1000
0001
,
0200
0000
0000
0000
0000
0000
0001
0000
0000
0001
0000
0000
0000
0000
0000
0010
0000
0000
0310
0000
0000
0000
0000
0000
1000
0000
0100
0000
1000
0000
0000
0000
0100
0000
0000
0000
0010
0000
0000
0000
0001
0000
0000
0000
1000
0000
0000
0000
,
0001
0000
0010
0001
0000
0001
0100
0001
1000
0100
0010
0100
0000
0100
0010
1000
,
0001
1000
0010
0001
0100
0000
0100
0010
0000
0100
1000
0000
0100
1000
0100
0010
,
0002
0000
0000
0000
0000
0000
1000
0000
0000
1000
0000
0000
0000
0000
0000
0010
0000
0000
0013
0000
0000
0000
0000
0000
0001
0000
0010
0000
0001
0000
0000
0000
0010
0000
0000
0000
0100
0000
0000
0000
1000
0000
0000
0000
0010
0000
0000
0000
,
0200
0000
0000
0000
0000
0000
0000
0000
0000
0001
0000
0000
0000
0000
0000
0000
1000
0000
0000
0000
0000
0000
0000
0000
0010
0000
0000
0000
0000
0000
0000
0000
0000
0301
0000
0000
0000
0000
0000
1000
0000
0000
0100
0000
0000
0010
0000
0000
,
0001
0000
0100
0001
0000
0001
0100
0000
0010
1000
0100
0010
0001
0000
0010
0100
,
1000
0000
0100
1000
0000
1000
0100
0000
0010
0100
0001
1000
0100
0000
0010
1000
,
0001
0000
0010
0001
0000
0001
0100
0000
0010
1000
0000
1000
0100
0000
0010
1000
,
0001
0000
0100
0001
0000
0001
1000
0000
0100
1000
0000
1000
0010
0000
0100
0001
,
1000
0000
0100
1000
0000
1000
0010
0000
0100
0001
1000
0100
0010
0000
0001
0010
,
0100
0000
0000
0000
0000
0000
0010
0000
0000
1000
0000
0000
0000
0000
0000
1000
0000
0000
0010
0000
0000
0000
0000
0000
0100
0000
0000
0000
0001
0000
0000
0000
1000
0000
0000
0000
0100
0000
0000
0010
0000
0000
0001
0000
0000
0010
0000
0000
,
0100
0001
1000
0100
0010
0001
0100
0010
1000
0010
0100
0001
1000
0100
0010
0001
,
0200
0000
0000
0000
0000
0000
0301
1000
0010
0000
0011
0000
1001
0000
1100
0000
,
1000
0000
0001
0200
0000
1300
0010
0000
0001
0010
0100
0000
0001
0010
0100
1000
,
0010
0000
0100
0002
0000
0013
1000
0000
0010
0100
0001
0000
1000
0100
0010
0000
,
0001
0010
0001
0010
0100
1000
0100
1000
0010
0000
0010
0001
0100
0000
1100
0000
,
2000
0000
0000
0000
0000
0000
0010
0000
0000
0010
0000
0000
0000
0000
0000
0100
0000
0000
3100
0000
0000
0000
0000
0000
1000
0000
0010
0000
0100
0000
0000
0000
0010
0000
0000
0000
0002
0000
0000
0000
0000
0000
0000
0000
0000
0000
0000
0000
,
0103
0001
0100
0000
0002
0000
0010
0000
0103
0010
0100
0000
0200
0000
1000
0010
,
1300
0000
0010
0100
0010
0000
0001
0010
0100
1000
0010
0100
0001
0000
1001
0000
,
1000
0200
0000
0001
0310
0000
0100
0020
0000
1000
0031
0000
0010
0001
0100
0000
,
1100
0000
0000
1100
0000
0000
0110
0000
0000
0011
0000
0000
1001
0000
0001
0010
,
0100
1000
0100
0000
2000
0000
0010
0000
3100
0001
0100
0000
0020
0000
1000
0001
,
1030
0000
0100
0010
0100
0000
0010
0001
1000
0010
0100
0000
0001
0010
0100
0000
,
0010
2000
0000
0001
3100
0000
0010
0002
0000
1000
0103
0000
0010
0001
1000
0001
,
0010
0200
0000
0001
0310
0000
1000
0020
0000
1000
0031
0000
0100
0010
1000
0001
,
0100
0000
0020
0000
0000
0000
0001
0000
0000
0000
1030
0000
0000
0000
0010
0001
0000
0000
1000
0100
0000
0000
0001
0010
0000
0000
0100
0000
1000
0000
0100
0000
,
0010
0000
0002
0000
0000
0000
0100
0000
0000
0000
0013
0000
0000
0000
0100
0001
0000
0000
1000
0100
0000
0000
0010
0001
0000
0000
1000
0000
0010
0000
0100
0000
,
0001
0000
2000
0000
0000
0000
0010
0000
0000
0000
3100
0000
0000
0000
0010
1000
0000
0000
0001
0100
0000
0000
0001
0010
0000
0000
0001
0000
0010
0000
0100
0000
,
1000
0200
0000
0010
0000
0301
0000
0010
0100
0001
0000
0010
0000
1000
0100
0010
,
0001
0010
0100
1000
0010
0100
0001
1000
0100
0010
0001
0010
0100
1000
0010
0100
,
0001
1000
0100
0010
0001
0010
0000
1100
0000
0110
0000
0011
0000
0001
0010
0100
,
1000
0000
0010
0000
0100
0000
0001
0000
0020
0000
1000
0000
0030
0000
0100
0001
0000
0000
1000
0100
0000
0000
0010
0001
0000
0000
0100
0000
0010
0000
1000
0000
,
0001
0000
0010
0000
0100
0000
1000
0000
0200
0000
0010
0000
0300
0000
0010
0001
0000
0000
1000
0100
0000
0000
0010
0100
0000
0000
1000
0000
0010
0000
0100
0000
,
0202
0000
0000
0000
,
0303
0000
0000
0000
;
