#VERSION:0.83;
#TITLE:Healing Vision;
#SUBTITLE:;
#ARTIST:DE-SIRE;
#TITLETRANSLIT:;
#SUBTITLETRANSLIT:;
#ARTISTTRANSLIT:;
#GENRE:;
#ORIGIN:;
#CREDIT:;
#BANNER:Healing Vision.png;
#BACKGROUND:Healing Vision-bg.png;
#PREVIEWVID:;
#JACKET:Healing Vision-jacket.png;
#CDIMAGE:;
#DISCIMAGE:;
#LYRICSPATH:;
#CDTITLE:;
#MUSIC:Healing Vision.ogg;
#OFFSET:0.000000;
#SAMPLESTART:79.602997;
#SAMPLELENGTH:15.000000;
#SELECTABLE:YES;
#DISPLAYBPM:49.000000:196.000000;
#BPMS:0.000=98.093,
4.000=97.993,
36.000=196.007,
204.000=48.966,
209.000=196.040,
275.000=96.000;
#STOPS:;
#DELAYS:;
#WARPS:;
#TIMESIGNATURES:0.000=4=4;
#TICKCOUNTS:0.000=4;
#COMBOS:0.000=1;
#SPEEDS:0.000=1.000=0.000=0;
#SCROLLS:0.000=1.000;
#FAKES:;
#LABELS:0.000=Song Start;
#BGCHANGES:;
#KEYSOUNDS:;
#ATTACKS:
;

//---------------dance-single - ----------------
#NOTEDATA:;
#CHARTNAME:;
#STEPSTYPE:dance-single;
#DESCRIPTION:;
#CHARTSTYLE:;
#DIFFICULTY:Beginner;
#METER:4;
#RADARVALUES:0.145119,0.160180,0.018639,0.000000,0.000000,109.000000,107.000000,2.000000,0.000000,0.000000,0.000000,0.000000,0.000000,0.000000,0.145119,0.160180,0.018639,0.000000,0.000000,109.000000,107.000000,2.000000,0.000000,0.000000,0.000000,0.000000,0.000000,0.000000;
#CREDIT:;
#DISPLAYBPM:49.000000:196.000000;
#NOTES:
0000
0000
0000
0000
,
0000
0000
0000
0000
,
0000
0000
0000
0000
,
1000
0000
0000
0000
,
1000
0000
0000
0000
,
0001
0000
0000
0000
,
0010
0000
0000
0000
,
0001
0000
0000
0000
,
0001
0000
0000
0000
,
1000
0000
0000
0000
,
0100
0000
0100
0000
,
0001
0000
0000
0000
,
0100
0000
0100
0000
,
1000
0000
0000
0000
,
0100
0000
0100
0000
,
0001
0000
0000
0000
,
0100
0000
0100
0000
,
1000
0000
0000
0000
,
0010
0000
0010
0000
,
0001
0000
0000
0000
,
0010
0000
0010
0000
,
1000
0000
0000
0000
,
0010
0000
0010
0000
,
0001
0000
0000
0000
,
0010
0000
0010
0000
,
0001
0000
0001
0000
,
0001
0000
0001
0000
,
0100
0000
0100
0000
,
0010
0000
0010
0000
,
1000
0000
1000
0000
,
1000
0000
1000
0000
,
0100
0000
0100
0000
,
0010
0000
0010
0000
,
0001
0000
0001
0000
,
0010
0000
0001
0000
,
0010
0000
0001
0000
,
0010
0000
0001
0000
,
1000
0000
1000
0000
,
0010
0000
1000
0000
,
0010
0000
1000
0000
,
0010
0000
1000
0000
,
0010
0000
0000
0000
,
0000
0000
0000
0000
,
0100
0000
0000
0000
,
0100
0000
0000
0000
,
0001
0000
1000
0000
,
1001
0000
0000
0000
,
0010
0000
0000
0000
,
0010
0000
0000
0000
,
0001
0000
1000
0000
,
1001
0000
0000
0000
,
0010
0000
0000
0000
,
0000
1000
0000
1000
,
0000
1000
0000
1000
,
0000
1000
0000
1000
,
0000
1000
0000
1000
,
0000
0001
0000
0001
,
0000
0001
0000
0001
,
0000
0001
0000
0001
,
0000
0001
0000
0001
,
0000
1000
0000
1000
,
0000
0100
0000
0100
,
0000
0001
0000
0001
,
0000
1000
0000
1000
,
0000
0001
0000
0001
,
0000
0100
0000
0100
,
0000
1000
0000
1000
,
0000
0001
0000
0001
,
0000
0000
0000
0010
,
0000
0000
0000
0000
;

//---------------dance-single - ----------------
#NOTEDATA:;
#CHARTNAME:;
#STEPSTYPE:dance-single;
#DESCRIPTION:;
#CHARTSTYLE:;
#DIFFICULTY:Easy;
#METER:5;
#RADARVALUES:0.170415,0.226699,0.000000,0.000000,0.000000,128.000000,128.000000,0.000000,0.000000,0.000000,0.000000,0.000000,0.000000,0.000000,0.170415,0.226699,0.000000,0.000000,0.000000,128.000000,128.000000,0.000000,0.000000,0.000000,0.000000,0.000000,0.000000,0.000000;
#CREDIT:;
#DISPLAYBPM:49.000000:196.000000;
#NOTES:
0000
0000
0000
0000
,
0000
0000
0000
0000
,
0000
0000
0000
0000
,
1000
0000
0001
0000
,
1000
1000
1000
0100
,
0001
0000
1000
0000
,
0010
0000
0100
0000
,
0001
0000
0001
0000
,
1000
0000
1000
0000
,
0010
0000
0010
0000
,
0100
0000
0100
0000
,
0001
0000
1000
0000
,
0001
0000
1000
0000
,
0010
0000
0100
0000
,
0001
0000
1000
0000
,
0001
0000
1000
0000
,
0010
0000
0100
0000
,
1000
0000
0100
0000
,
0010
0001
0100
0000
,
0001
0000
1000
0000
,
1000
0100
0010
0000
,
0010
0000
0001
0000
,
1000
0001
0100
0000
,
1000
0000
0100
0000
,
0001
1000
0100
0000
,
0001
0000
0100
0000
,
0010
0000
0010
0000
,
0001
0000
0100
0000
,
1000
0000
0100
0000
,
0001
0000
0001
0000
,
1000
0000
1000
0000
,
0010
0000
0010
0000
,
1000
1000
1000
0000
,
0010
0000
0100
0000
,
0010
0000
0100
0000
,
0001
0000
0100
0000
,
1000
0000
0100
0000
,
0001
0000
0000
0000
,
0001
0000
0000
0000
,
1000
0000
0000
0000
,
1000
0000
0000
0000
,
0010
0000
0000
0000
,
0000
0000
0000
0000
,
0100
0000
0100
0000
,
0100
0000
0100
0000
,
0001
0000
1000
0000
,
0000
0000
0000
0000
,
0010
0000
0000
0000
,
0010
0000
0000
0000
,
0100
0000
0000
0000
,
0100
0000
0000
0000
,
0010
0000
0000
1000
0000
0000
0000
0000
,
0000
1000
0000
1000
,
0000
1000
0000
1000
,
0000
1000
0000
1000
,
0000
1000
0000
1000
,
0000
0001
0000
0100
,
0000
1000
0000
0100
,
0000
0001
0000
0100
,
0000
0100
0000
0100
,
0000
1000
0000
1000
,
0000
1000
0000
1000
,
0000
0001
0000
0100
,
0000
1000
0000
1000
,
0000
0010
0000
0010
,
0000
1000
0000
1000
,
0000
0001
0000
0001
,
0000
0100
0000
0100
,
0000
0000
0000
0010
,
0010
0010
0010
0000
,
0000
0000
0000
0000
;

//---------------dance-single - ----------------
#NOTEDATA:;
#CHARTNAME:;
#STEPSTYPE:dance-single;
#DESCRIPTION:;
#CHARTSTYLE:;
#DIFFICULTY:Medium;
#METER:7;
#RADARVALUES:0.366126,0.422526,0.027959,0.000000,0.009320,275.000000,272.000000,3.000000,0.000000,0.000000,0.000000,0.000000,0.000000,0.000000,0.366126,0.422526,0.027959,0.000000,0.009320,275.000000,272.000000,3.000000,0.000000,0.000000,0.000000,0.000000,0.000000,0.000000;
#CREDIT:;
#DISPLAYBPM:49.000000:196.000000;
#NOTES:
0000
0000
0000
0000
,
0000
0000
0000
0000
,
0000
0000
0000
0000
,
1000
1000
0100
0000
0001
0001
0100
0000
,
0010
0000
1000
0000
0100
0100
0100
0000
,
0001
1000
0100
0000
1000
0001
0100
0000
,
0010
0000
0100
0000
1000
1000
0001
0000
,
0100
0000
0010
0000
0001
0001
1000
0000
,
0010
0010
1000
0100
0001
1000
0100
0000
,
0001
0001
1000
1000
,
0001
0001
1000
1000
,
0010
1000
0010
1000
,
0001
1000
0100
0000
,
0001
0100
1000
0100
,
0010
0010
0001
0001
,
1000
1000
0100
0100
,
0001
1000
0100
0000
,
0010
0000
0010
0000
0001
1000
0000
0000
,
0001
0000
0001
0000
0010
0100
0000
0000
,
1000
0000
1000
0000
0001
0100
0000
0000
,
1000
0000
0100
0000
0001
1000
0000
0000
,
0010
0000
0001
0000
1000
0100
0000
0000
,
0001
0000
0001
0000
1000
0100
0000
0000
,
0010
0000
0001
0000
0100
0010
0000
0000
,
1000
0000
0001
0000
0010
0100
0000
0000
,
0001
0000
1000
0000
0001
1000
0000
0000
,
0010
0000
0100
0000
0010
0100
0000
0000
,
1000
0000
0001
0000
1000
0001
0000
0000
,
0100
0000
0010
0000
0100
0010
0000
0000
,
0010
0000
0001
0000
1000
0100
0000
0000
,
0010
0000
1000
0000
0001
0100
0000
0000
,
0010
0000
0001
0000
1000
0100
0000
0000
,
0010
0000
1000
0000
0001
0100
0000
0000
,
0001
0000
1000
0000
0001
1000
0001
0000
,
0100
0000
0010
0000
0100
0010
0100
0000
,
0001
0000
1000
0000
0100
0010
0100
0000
,
1000
0000
0001
0000
0100
0010
0100
0000
,
0001
0000
0100
0000
1000
0100
0010
0000
,
1000
0000
0100
0000
0001
0100
0010
0000
,
0001
0000
0100
0000
1000
0100
0010
0000
,
1000
0000
0100
0000
0001
0100
0010
0000
,
1001
0000
0000
0000
,
0000
0000
0000
0000
,
0001
0001
1000
1000
,
0010
0010
0100
0100
,
0001
1000
0001
0000
1000
0001
1000
0000
,
0001
1000
0001
0000
0110
0000
0000
0000
,
0010
0010
0010
0010
,
0100
0100
0100
0100
,
0010
0010
0100
0100
,
1001
0000
0000
0000
,
1000
0000
0000
0000
0000
0000
1000
0000
0000
1000
0000
0000
0000
1000
0000
0000
,
1000
1000
1000
0001
,
0001
1000
1000
0001
,
0001
0010
0100
0010
,
0100
0001
0001
1000
,
0100
0001
0001
0100
,
0001
1000
1000
0100
,
1000
0001
0100
1000
,
0100
0001
1000
0100
,
0000
0010
0000
1000
,
1000
0100
0000
0001
,
0100
1000
0000
0100
,
0100
0000
0010
0000
0000
0000
0001
1000
,
0100
0001
0100
1000
,
0100
0000
0001
0000
0100
0000
1000
0100
,
0010
0001
0100
1000
,
0100
0000
0001
0000
0100
0000
0001
1000
,
0100
0000
0000
0010
,
0001
0100
1000
0010
,
0000
0000
0000
0000
;

//---------------dance-single - ----------------
#NOTEDATA:;
#CHARTNAME:;
#STEPSTYPE:dance-single;
#DESCRIPTION:;
#CHARTSTYLE:;
#DIFFICULTY:Hard;
#METER:11;
#RADARVALUES:0.471304,0.747547,0.009320,0.000000,0.097856,354.000000,353.000000,1.000000,0.000000,0.000000,0.000000,0.000000,0.000000,0.000000,0.471304,0.747547,0.009320,0.000000,0.097856,354.000000,353.000000,1.000000,0.000000,0.000000,0.000000,0.000000,0.000000,0.000000;
#CREDIT:;
#DISPLAYBPM:49.000000:196.000000;
#NOTES:
0000
0000
0000
0000
,
0000
0000
0000
0000
,
0000
0000
0000
0000
,
0010
0000
1000
0000
0001
1000
0100
0000
0010
0000
0001
0000
1000
0001
0100
0000
,
0100
0010
0000
0000
0010
1000
0000
0000
0001
1000
0100
0010
0001
0010
0100
0000
,
1000
0000
1000
0000
0001
0100
0010
0000
0010
0000
1000
0000
0010
1000
0100
0000
,
0100
0000
1000
0000
0001
0100
0001
0000
0001
0000
1000
0000
0001
1000
0100
0000
,
0010
0000
0010
0000
0010
0001
0100
0000
0001
0000
0100
0000
1000
0100
0010
0000
,
0001
0000
1000
0000
0001
0100
0010
0000
1000
0000
0100
0000
0000
0000
0000
0000
,
0010
0000
0010
0000
0010
0001
0100
0000
,
1000
0000
0100
0000
0001
0100
0010
0000
,
1000
0000
0100
0000
0010
0001
1000
0000
,
0001
0000
0100
0000
0001
1000
0100
0000
,
0010
0000
0000
0001
0000
1000
0100
0000
,
0001
0000
0000
1000
0000
0001
0100
0000
,
0010
0000
0000
1000
0000
1000
0100
0000
,
0010
0000
0000
0001
0000
0000
0000
0000
,
0010
0001
1000
0100
0000
0001
0100
0000
,
0010
1000
0100
1000
0000
0001
0010
0000
,
0100
1000
0001
0100
0000
0010
1000
0000
,
0100
0010
0001
0100
0000
1000
0100
0000
,
0001
1000
0001
1000
0010
1000
0100
0000
,
1000
0100
1000
0100
0010
0001
0100
0000
,
0001
0100
0001
0100
0010
1000
0100
0000
,
1000
0001
1000
0001
0000
0100
0010
0000
,
0010
0000
0000
1000
0000
1000
0000
0000
,
0001
0000
0000
0100
0000
0100
0000
0000
,
0010
0000
0000
1000
0000
0100
0000
0000
,
0010
0000
0000
0001
0000
0100
0000
0000
,
1000
0100
1000
0001
0000
0100
0000
0000
,
0001
1000
0100
0010
0000
0001
0000
0000
,
0001
1000
0001
0100
0000
0010
0000
0000
,
0001
0100
0001
1000
0000
0100
0000
0000
,
0010
0001
0100
0010
1000
0100
0010
0000
,
0001
1000
0100
0010
0001
0100
0010
0000
,
0010
1000
0001
0100
0010
1000
0001
0000
,
0010
0001
1000
0100
0010
0001
0100
0000
,
0001
0001
1000
1000
,
0100
0100
0010
0010
,
0001
0000
1000
0000
,
0010
1000
0100
0000
,
0001
0000
0000
1000
0000
0000
0100
0000
,
0000
0001
0000
0000
0100
0000
0000
0000
,
0001
1000
0001
0000
1000
0001
1000
0000
,
0010
0100
0010
0000
0100
0010
0100
0000
,
0001
1000
0100
0000
1000
0001
0100
0000
,
0001
1000
0100
0000
1001
0000
0000
0000
,
0010
1000
0100
0000
1000
1000
1000
0000
,
0010
0001
0100
0000
0001
0001
0001
0000
,
1000
0001
0100
0000
0010
0010
0010
0000
,
0100
0100
0100
0000
0000
0000
,
0010
0010
0000
0000
0000
0000
1000
1000
0000
0100
0100
0000
0000
0001
0001
0000
,
0100
0100
0000
0000
1000
0000
0000
0000
0100
0000
0000
0000
0001
0000
0100
0000
,
0001
0000
0001
0000
0100
0000
1000
0100
,
1000
0000
1000
0000
0100
0000
0001
0100
,
0001
0000
0001
0000
0100
0000
1000
0100
,
1000
0000
0010
0000
0010
0000
0010
1000
,
0100
0000
0001
0000
0001
0000
0001
1000
,
0100
0000
1000
0000
1000
0000
1000
0001
,
0100
0000
0001
1000
0010
1000
0001
1000
,
0100
0000
0001
0000
0000
0000
0010
1000
,
0100
0000
1000
0000
0000
0000
0010
0001
,
0100
0000
0010
0000
0000
0000
0001
1000
,
0010
0100
0000
0001
,
1000
0100
0100
0100
,
0100
0100
0100
0100
,
0100
0100
0100
0100
,
0100
0000
0100
0000
0100
0000
0100
0100
,
0100
0000
0000
0010
,
0001
0100
1000
0100
,
0000
0000
0000
0000
;

//---------------dance-double - ----------------
#NOTEDATA:;
#CHARTNAME:;
#STEPSTYPE:dance-double;
#DESCRIPTION:;
#CHARTSTYLE:;
#DIFFICULTY:Easy;
#METER:4;
#RADARVALUES:0.181066,0.226699,0.000000,0.000000,0.000000,136.000000,136.000000,0.000000,0.000000,0.000000,0.000000,0.000000,0.000000,0.000000,0.181066,0.226699,0.000000,0.000000,0.000000,136.000000,136.000000,0.000000,0.000000,0.000000,0.000000,0.000000,0.000000,0.000000;
#CREDIT:;
#DISPLAYBPM:49.000000:196.000000;
#NOTES:
00000000
00000000
00000000
00000000
,
00000000
00000000
00000000
00000000
,
00000000
00000000
00000000
00000000
,
00100000
00000000
10000000
00000000
,
01000000
00010000
00001000
00000100
,
00000001
00000000
00000100
00000000
,
00001000
00000000
00010000
00000000
,
00001000
00000000
00000100
00000000
,
00001000
00000000
00010000
00000000
,
01000000
00000000
01000000
00000000
,
01000000
00000000
01000000
00000000
,
10000000
00000000
00100000
00000000
,
00010000
00000000
00001000
00000000
,
00000010
00000000
00000001
00000000
,
00000010
00000000
00000001
00000000
,
00000001
00000000
00001000
00000000
,
00000100
00000000
00010000
00000000
,
00001000
00000000
00000100
00000000
,
00000001
00000000
00000010
00000000
,
00000010
00000000
00000001
00000000
,
00000100
00000000
00001000
00000000
,
00010000
00000000
01000000
00000000
,
10000000
00000000
00100000
00000000
,
00010000
00000000
00001000
00000000
,
00010000
00000000
01000000
00000000
,
00001000
00000000
00010000
00000000
,
00001000
00000100
00000001
00000000
,
00000001
00000000
00000100
00000000
,
00001000
00000000
00000100
00000000
,
00010000
00000000
00001000
00000000
,
00001000
00010000
01000000
00000000
,
10000000
00000000
00100000
00000000
,
00100000
10000000
01000000
00000000
,
10000000
00000000
01000000
00000000
,
00010000
00000000
00001000
00000000
,
00000001
00000000
00000100
00000000
,
00010000
00000000
00001000
00000000
,
00000010
00000000
00001000
00000000
,
00010000
00000000
00001000
00000000
,
00000010
00000000
00001000
00000000
,
00010000
00001000
01000000
00000000
,
00100000
00000000
00000000
00000000
,
00000000
00000000
00000000
00000000
,
00001000
00000000
00010000
00000000
,
00000100
00000000
00000010
00000000
,
00000001
00000000
00000100
00000000
,
00001000
00000000
00000000
00000000
,
00010000
00000000
01000000
00000000
,
10000000
00000000
00100000
00000000
,
00010000
00000000
00001000
00000000
,
00000100
00000000
00000000
00000000
,
00000001
00000000
00000000
00001000
00000000
00000000
00000000
00000000
,
00000000
00100000
00000000
00100000
,
00000000
00100000
00000000
01000000
,
00000000
10000000
00000000
01000000
,
00000000
00010000
00000000
00001000
,
00000000
00000100
00000000
00000001
,
00000000
00001000
00000100
00010000
,
00000000
00001000
00000000
00010000
,
00000000
00010000
00001000
01000000
,
00000000
00100000
00000000
00100000
,
00000000
00100000
00000000
00100000
,
00000000
10000000
00000000
01000000
,
00000000
00010000
00000000
00001000
,
00000000
00010000
00000000
00001000
,
00000000
00001000
00000000
00000010
,
00000000
00000010
00000000
00000001
,
00000000
00000001
00000000
00000100
,
00000000
00000000
00000000
00000000
,
00001000
00001000
00001000
00000000
,
00000000
00000000
00000000
00000000
;

//---------------dance-double - ----------------
#NOTEDATA:;
#CHARTNAME:;
#STEPSTYPE:dance-double;
#DESCRIPTION:;
#CHARTSTYLE:;
#DIFFICULTY:Medium;
#METER:8;
#RADARVALUES:0.368789,0.520032,0.018639,0.000000,0.009320,277.000000,275.000000,2.000000,0.000000,0.000000,0.000000,0.000000,0.000000,0.000000,0.368789,0.520032,0.018639,0.000000,0.009320,277.000000,275.000000,2.000000,0.000000,0.000000,0.000000,0.000000,0.000000,0.000000;
#CREDIT:;
#DISPLAYBPM:49.000000:196.000000;
#NOTES:
00000000
00000000
00000000
00000000
,
00000000
00000000
00000000
00000000
,
00000000
00000000
00000000
00000000
,
00100000
10000000
01000000
00000000
00100000
00010000
01000000
00000000
,
00001000
00000000
00010000
00000000
00000010
00010000
00001000
00000000
,
00001000
00000100
00000001
00000001
00000010
00000001
00000100
00000100
,
00001000
00010000
00001000
00001000
00010000
01000000
10000000
00000000
,
10000000
00010000
01000000
01000000
00001000
00010000
00001000
00001000
,
00000010
00000001
00000100
00000100
00001000
00010000
00000100
00000000
,
00001000
01000000
00100000
10000000
,
10000000
01000000
00100000
00010000
,
00010000
01000000
00001000
00010000
,
00001000
00000100
00000001
00000000
,
00000001
00000010
00000100
00010000
,
00001000
00000100
00001000
00010000
,
01000000
10000000
00100000
00010000
,
00001000
00000010
00000100
00000000
,
00001000
00010000
00000100
00001000
,
00010000
00001000
00000100
00001000
,
00010000
00001000
00000010
00001000
,
00010000
00001000
00100000
00010000
,
00001000
00010000
00100000
00010000
,
00001000
00010000
00100000
00010000
,
00001000
00010000
01000000
00010000
,
00001000
00010000
01000000
00010000
,
10000000
00000000
01000000
00000000
00100000
00010000
01000000
00000000
,
00001000
00000000
00010000
00000000
00001000
00010000
00000100
00000000
,
00000010
00000000
00000001
00000000
00001000
00000100
00000010
00000000
,
00000001
00000000
00000100
00000000
00001000
00010000
00000100
00000000
,
00010000
00000000
00001000
00000000
00010000
00001000
00100000
00000000
,
00010000
00000000
01000000
00000000
10000000
01000000
00100000
00000000
,
00001000
00000000
00010000
00000000
01000000
00100000
00010000
00000000
,
01000000
00000000
00001000
00000000
00010000
00001000
00000100
00000000
,
00000001
00000010
00000100
00000000
,
00000001
00000100
00001000
00000000
,
00001000
00010000
01000000
00000000
,
10000000
00100000
01000000
00000000
,
00010000
10000000
01000000
00000000
,
00010000
00001000
00000100
00000000
,
00000001
00001000
00000100
00000000
,
00000010
00000100
00001000
00000000
,
00010000
00000000
00001000
00000000
,
00100000
00000000
01000000
00000000
,
10000000
10000000
01000000
01000000
,
00010000
00001000
00000100
00000100
,
00000001
00001000
00000100
00000000
00001000
00000001
00000100
00000000
,
00001000
00010000
00001000
00000000
01100000
00000000
00000000
00000000
,
00100000
10000000
01000000
01000000
,
00010000
00001000
00000100
00000100
,
00000010
00000010
00000100
00000100
,
00001001
00000000
00000000
00000000
,
00000001
00000000
00000000
00000000
00000000
00000000
00000100
00000000
00000000
00001000
00000000
00000000
00000000
00010000
00000000
00000000
,
01000000
10000000
10000000
00010000
,
00010000
00001000
00010000
01000000
,
00010000
00001000
00010000
01000000
,
00010000
00001000
00001000
00000100
,
00000100
00000001
00000100
00001000
,
00010000
01000000
10000000
00100000
,
00100000
00001000
00010000
01000000
,
00010000
00001000
00010000
01000000
,
00010000
00010000
00000000
10000000
,
01000000
00100000
00000000
00001000
,
00010000
00000010
00000000
00000100
,
00000001
00000000
00000010
00000000
00000000
00000000
00000100
00001000
,
00000100
00010000
00001000
00010000
,
01000000
00000000
10000000
00000000
00010000
00000000
10000000
01000000
,
00100000
01000000
00010000
00001000
,
00000100
00000000
00000001
00000000
00001000
00000000
00000100
00000010
,
00000001
00000000
00000000
00000100
,
00001000
00010000
00100000
00100000
,
00000000
00000000
00000000
00000000
;

//---------------dance-double - ----------------
#NOTEDATA:;
#CHARTNAME:;
#STEPSTYPE:dance-double;
#DESCRIPTION:;
#CHARTSTYLE:;
#DIFFICULTY:Hard;
#METER:13;
#RADARVALUES:0.491275,0.650041,0.102515,0.000000,0.079216,369.000000,358.000000,11.000000,0.000000,0.000000,0.000000,0.000000,0.000000,0.000000,0.491275,0.650041,0.102515,0.000000,0.079216,369.000000,358.000000,11.000000,0.000000,0.000000,0.000000,0.000000,0.000000,0.000000;
#CREDIT:;
#DISPLAYBPM:49.000000:196.000000;
#NOTES:
00000000
00000000
00000000
00000000
,
00000000
00000000
00000000
00000000
,
00000000
00000000
00000000
00000000
,
00100000
00000000
10000000
00000000
00010000
10000000
01000000
00000000
00010000
00000000
00001000
00000000
00000100
00000000
00000001
00000000
,
00000001
00000100
00000000
00000000
00000100
00000010
00000000
00000000
00000010
00001000
00000000
00000000
00000010
00001000
00000100
00010000
,
00001000
00000000
00010000
00000000
01000000
00000000
00000000
00000000
01000000
10000000
00100000
00000000
01000000
00000000
00000000
00000000
,
00010000
00000000
10000000
00000000
01000000
00000000
00000000
00000000
00100000
00010000
01000000
00000000
00001000
00000000
00000000
00000000
,
00010000
00000000
00001000
00000000
00000100
00000000
00000000
00000000
00000001
00000010
00000100
00000000
00000001
00000000
00000000
00000000
,
00001000
00000000
00000010
00000000
00000100
00000000
00000000
00000000
00000100
00001000
00010000
00000000
00001000
00000000
00000000
00000000
,
00010000
00000000
01000000
00000000
10000000
00010000
01000000
00000000
,
00001000
00000000
00010000
00000000
00100000
01000000
00010000
00000000
,
00001000
00000000
00000100
00000000
00000001
00000010
00000100
00000000
,
00000001
00000000
00000100
00000000
00001000
00010000
00000100
00000000
,
00001000
00000000
00010000
01000000
10000000
00100000
01000000
00000000
,
10000000
00000000
01000000
00100000
00010000
10000000
01000000
00000000
,
00010000
00000000
00001000
00000100
00000001
00000010
00000100
00000000
,
00000001
00001000
00000110
00000000
,
00001000
00000000
00010000
00001000
00000000
01000000
00010000
00000000
,
10000000
00000000
00010000
01000000
00000000
00001000
00010000
00000000
,
00001000
00000000
00010000
00001000
00000000
01000000
00010000
00000000
,
10000000
00000000
00010000
01000000
00000000
00001000
00010000
00000000
,
00001000
00010000
01000000
10000000
00000000
01000000
00010000
00000000
,
00001000
00000100
00000001
00000010
00000000
00000001
00000100
00000000
,
00000010
00000100
00001000
00010000
00000000
01000000
10000000
00000000
,
00100000
00010000
00011000
00000000
,
00000010
00001000
00000001
00000100
00000000
00001000
00000000
00000000
,
00010000
00001000
00010000
01000000
00000000
10000000
00000000
00000000
,
00100000
00010000
00001000
00010000
00000000
01000000
00000000
00000000
,
00010000
00001000
00010000
00000100
00000000
00010000
00000000
00000000
,
00001000
00000000
00000000
00100000
01000000
00000000
10010000
00000000
,
10000000
00000000
00000000
00010000
01000000
00000000
00011000
00000000
,
00000010
00000000
00000000
00000001
00000100
00000000
00001001
00000000
,
00000000
00000100
00000000
00001000
00000000
00000000
00000000
00000000
,
00011000
00000000
01000000
00000000
00100000
00010000
01000000
00000000
,
00011000
00000000
00000100
00000000
00000010
00001000
00000100
00000000
,
00001001
00000000
00000100
00000000
00001000
00010000
01000000
00000000
,
10010000
00000000
01000000
00000000
00010000
00001000
00000100
00000000
,
00000001
00000010
00000001
00000100
00001000
00010000
00001000
00000000
,
01000000
10000000
01000000
00010000
00100000
01000000
00010000
00000000
,
00001000
00000100
00000001
00000010
00000001
00000100
00001000
00000000
,
00010000
01000000
10010000
00000000
,
00011000
00000000
00000000
00000100
00000000
00000000
00000001
00000000
,
00000000
00000000
00000000
00000000
,
00001000
00010000
01000000
10000000
00100000
10000000
01000000
00000000
,
00010000
00001000
00000100
00000001
00000010
00000001
00000100
00000000
,
00001000
00010000
00001000
00000100
00000001
00000010
00000100
00000000
,
00010000
00000000
00000000
00000000
,
00100000
10000000
01000000
00010000
01000000
10000000
00100000
00000000
,
00010000
00001000
00000010
00000001
00000100
00001000
00010000
00000000
,
00001000
00010000
01000000
10000000
00100000
10000000
01000000
00000000
,
00010000
00001000
00000100
00000000
00000000
00000000
,
00000001
00000001
00000000
00000000
00000000
00000000
00001000
00001000
00000000
01000000
01000000
00000000
00000000
10000000
10000000
00000000
,
00010000
00010000
00000000
00000000
00100000
00000000
00000000
00000000
00001000
00000000
00010000
00000000
00001000
00000000
00000100
00000000
,
00000001
00000000
00000010
00000000
00000100
00001000
00000001
00000100
,
00001000
00000000
00010000
00000000
01000000
10000000
00100000
10000000
,
01000000
00000000
00010000
00000000
00001000
00000100
00000001
00000010
,
00001000
00000000
00000001
00000000
00000100
00000000
00000010
00001000
,
00000100
00000000
00010000
00000000
01000000
00000000
10000000
00100000
,
00010000
00000000
00100000
00000000
10000000
00000000
01000000
00010000
,
00001000
00000000
00000100
00000000
00000001
00000000
00000010
00000001
,
00000100
00001000
00000000
00100000
,
01000000
10000000
00000000
10000000
,
01000000
00010000
00000000
00001000
,
00000100
00000001
00000000
00000010
,
00000001
00000000
00000100
00001000
00010000
01000000
10000000
00100000
,
00010000
00100000
10000000
01000000
00010000
00001000
00000100
00000010
,
00001000
00000100
00000001
00000100
00001000
00000001
00000100
00001000
,
00010000
01000000
10000000
00100000
10000000
01000000
00010000
00001000
,
00010000
00000000
00000000
00100000
,
10000000
01000000
00010000
00001000
,
00000000
00000000
00000000
00000000
;

//---------------dance-single - ----------------
#NOTEDATA:;
#CHARTNAME:;
#STEPSTYPE:dance-single;
#DESCRIPTION:;
#CHARTSTYLE:;
#DIFFICULTY:Challenge;
#METER:17;
#RADARVALUES:0.873378,0.978556,0.279587,0.186392,0.745566,656.000000,626.000000,30.000000,20.000000,0.000000,0.000000,0.000000,0.000000,0.000000,0.873378,0.978556,0.279587,0.186392,0.745566,656.000000,626.000000,30.000000,20.000000,0.000000,0.000000,0.000000,0.000000,0.000000;
#CREDIT:;
#DISPLAYBPM:49.000000:196.000000;
#NOTES:
// measure 0
0000
0000
0000
0000
,  // measure 1
0000
0000
0000
0000
,  // measure 2
0000
0000
0000
0000
,  // measure 3
0001
0000
0010
0100
1000
0000
0010
0000
1000
0000
0001
0010
0100
0000
1000
0000
,  // measure 4
0001
0010
0000
0000
0100
1000
0000
0000
0001
0010
0000
0000
0100
1000
0001
0100
,  // measure 5
0010
0000
1000
0010
1000
0000
0001
0010
0001
0000
1000
0001
0100
0000
0001
1000
,  // measure 6
0001
0010
0100
1000
0010
1000
0001
1000
0010
0000
1000
0001
0100
0000
0001
0010
,  // measure 7
0100
0000
0010
0100
1000
0000
0001
0100
0010
0000
1000
0010
0100
0001
1000
0000
,  // measure 8
0200
1000
1000
1000
1000
2000
0000
3300
,  // measure 9
1000
0100
0010
0000
1000
0000
0001
0000
0100
0000
0010
0000
1000
0001
1000
0000
,  // measure 10
0001
0100
0001
0000
0010
0000
0001
0000
0010
0000
0100
0000
1000
0010
1000
0000
,  // measure 11
0001
0100
0001
0000
0010
0000
1000
0000
0001
0000
1000
0000
0100
1000
0100
0000
,  // measure 12
2000
0001
3001
0000
0002
0100
0103
0000
,  // measure 13
0010
1000
0010
0000
0001
0000
0100
0000
0010
0000
1000
0000
0001
1000
0001
0000
,  // measure 14
0100
1000
0100
0000
0001
0000
0010
0000
0100
0000
1000
0000
0001
0100
0001
0000
,  // measure 15
0010
1000
0010
0000
0001
0000
0100
0000
0010
0000
1000
0000
0001
0010
0001
0000
,  // measure 16
0010
0001
0010
0000
0001
0000
0100
0000
0010
0000
1000
0000
0100
0000
0000
0000
,  // measure 17
1000
0100
1000
0000
0010
0000
0100
0000
0001
0000
1000
0000
0001
0010
0001
0000
,  // measure 18
1000
0001
1000
0000
0001
0000
0100
0000
1000
0000
0100
0000
0010
0100
0010
0000
,  // measure 19
0100
0010
0100
0000
0010
0000
0001
0000
0100
0000
0010
0000
1000
0001
1000
0000
,  // measure 20
2000
0100
3100
0000
0002
1000
1003
0000
,  // measure 21
1000
0001
1000
0000
0001
0000
0010
0000
0100
0000
1000
0000
0001
1000
0001
1000
,  // measure 22
0001
0100
0001
0000
0010
0000
0100
0000
1000
0000
0001
0000
1000
0001
1000
0000
,  // measure 23
0010
0001
0010
0000
0001
0000
1000
0000
0100
0000
0010
0000
0001
0100
0001
0000
,  // measure 24
0010
1000
0010
0000
0001
0100
0001
0000
0020
0000
0000
0000
0031
0000
0000
0000
,  // measure 25
0001
0010
0001
0010
0001
0000
1000
0000
0001
0000
1000
0000
0001
1000
0001
1000
,  // measure 26
0001
0100
0001
0100
0001
0000
1000
0000
0001
0000
0010
0000
0100
1000
0100
1000
,  // measure 27
0100
1000
0100
1000
0100
0000
1000
0000
0010
0000
0100
0000
0001
0010
0001
0010
,  // measure 28
0002
0010
0013
0001
0200
1000
1300
0100
,  // measure 29
1000
0100
1000
0100
1000
0000
0010
0000
0100
0000
0001
0000
0010
0001
0010
0001
,  // measure 30
1000
0001
1000
0001
0100
0000
0001
0000
1000
0000
0001
0000
0010
0001
0010
0001
,  // measure 31
0010
0001
0010
0001
0010
0000
0001
0000
0100
0000
0010
0000
1000
0000
0001
0000
,  // measure 32
1001
0110
1001
0110
,  // measure 33
1000
0010
0100
0010
1000
0000
0010
0000
0100
0000
0001
0000
1000
0001
1000
0001
,  // measure 34
1000
0001
0010
0100
1000
0000
0001
0000
0010
0000
0100
0000
1000
0100
1000
0100
,  // measure 35
1000
0010
0100
0001
1000
0000
0001
0000
0000
0000
1001
0000
0000
0000
0000
0000
,  // measure 36
2000
0000
0010
0000
3010
0000
1000
0000
0200
0000
0001
0000
0301
0000
0100
0001
,  // measure 37
0010
0000
0001
0000
0010
0000
0001
0000
1000
0000
0001
0000
1000
0001
1000
0001
,  // measure 38
1000
0001
0100
0001
0010
0000
0001
0000
0100
0000
0010
0000
1000
0100
1000
0100
,  // measure 39
1000
0010
0100
0010
1000
0000
0100
0000
0010
0000
1000
0000
0001
0100
0010
1000
,  // measure 40
0001
0000
1000
0000
0001
0000
1000
0000
0001
0000
1000
0000
0001
0010
0100
2000
,  // measure 41
0002
0000
0000
0000
,  // measure 42
3003
0000
0000
0000
0000
0100
1000
0100
1000
0100
0000
0100
1000
0000
0000
0000
,  // measure 43
1100
1000
0001
1000
1001
0001
1001
1001
,  // measure 44
1001
0001
0100
0010
1010
1010
0101
0101
,  // measure 45
1001
0000
0001
0000
0010
0000
0100
0000
1000
0001
1000
0001
1000
0000
0001
0000
,  // measure 46
0101
1010
1100
0011
,  // measure 47
0001
0100
0001
0100
1000
0100
1000
0100
,  // measure 48
0010
0001
0010
0001
1000
0010
1000
0010
,  // measure 49
0100
0001
1000
0100
0010
0001
0100
0010
,  // measure 50
0100
0000
0110
0000
2002
0000
0000
0000
0000
0000
0000
3003
,  // measure 51
0001
0001
0000
0000
0000
0000
1000
1000
0000
0010
0010
0000
0000
0100
0100
0010
,  // measure 52
0001
0000
1000
0000
0001
0000
0100
0000
0001
0100
0001
0100
0001
0100
0001
0100
0001
0000
0000
0000
0000
0000
0000
0000
0000
0000
0000
0000
0000
0000
0000
0000
0010
0000
0000
0000
0000
0000
0000
0000
0000
0000
0000
0000
0000
0000
0000
0000
0100
0000
0000
0000
0000
0000
0000
0000
0000
0000
0000
0000
0000
0000
0000
0000
,  // measure 53
1000
0000
0100
0000
1000
0100
1000
0100
1000
0100
1000
0100
1000
0100
1000
0100
,  // measure 54
1000
0100
1000
0100
1000
0000
0010
0000
0100
0000
0001
0000
1000
0000
0001
0000
,  // measure 55
0100
0001
0002
0100
0103
0001
0020
0001
,  // measure 56
0031
0000
0010
0001
1000
0000
0001
0000
0100
0000
0010
0000
1000
0000
0001
1000
,  // measure 57
0001
1000
0001
1000
0010
0100
0010
0100
0010
0100
0010
0100
0010
0100
0010
0100
,  // measure 58
0010
0100
0010
0100
0010
0000
0000
0000
0110
0000
0000
0000
1001
0000
0000
0000
,  // measure 59
0110
1010
0101
0011
,  // measure 60
1100
0000
0000
0000
1000
0100
0010
0100
1000
0000
0001
0000
1000
0000
0001
0000
,  // measure 61
0010
0001
1000
0001
0100
0001
0100
0001
0100
0001
0100
0001
0100
0001
0100
0001
,  // measure 62
0100
0001
0100
0001
0100
0000
0001
0000
1000
0000
0001
0000
0000
0000
1001
0000
,  // measure 63
0000
0000
2000
0001
3001
1000
0020
0100
,  // measure 64
0130
0000
0010
0100
0001
0000
1000
0000
0001
0000
0010
0000
0001
0000
1000
0000
,  // measure 65
0100
1000
0100
1000
0010
0100
0010
0100
0001
0010
0001
0010
0001
1000
0001
1000
,  // measure 66
0001
1000
0001
1000
0001
0000
0010
0000
0100
0000
1000
0000
0001
0000
1000
0000
,  // measure 67
0001
0000
0010
0010
0010
1000
0100
0100
,  // measure 68
0100
0001
0000
0000
0000
0000
2001
0000
,  // measure 69
0001
0001
0001
0001
,  // measure 70
3000
0000
0000
0000
;
