#TITLE:He Said She Said;
#SUBTITLE:;
#ARTIST:Ashley Tisdale;
#TITLETRANSLIT:;
#SUBTITLETRANSLIT:;
#ARTISTTRANSLIT:;
#GENRE:;
#CREDIT:;
#BANNER:He Said She Said.png;
#BACKGROUND:He Said She Said-bg.png;
#LYRICSPATH:;
#CDTITLE:;
#MUSIC:He Said She Said.ogg;
#OFFSET:0.000000;
#SAMPLESTART:22.957001;
#SAMPLELENGTH:15.000000;
#SELECTABLE:YES;
#BPMS:0.000000=115.000000
;
#STOPS:
;
#BGCHANGES:0.000=He Said She Said.avi=1.000=0=0=0=StretchNoLoop====,
99999=-nosongbg-=1.000=0=0=0 // don't automatically add -songbackground-
;
#KEYSOUNDS:;
#ATTACKS:;

//---------------dance-single - ----------------
#NOTES:
     dance-single:
     :
     Beginner:
     1:
     0.079923,0.116554,0.020721,0.000000,0.000000,54.000000,52.000000,2.000000,0.000000,0.000000,0.000000,0.079923,0.116554,0.020721,0.000000,0.000000,54.000000,52.000000,2.000000,0.000000,0.000000,0.000000:
0000
0000
0000
0000
,
0000
0000
0000
0000
,
0000
0000
0000
0000
,
1000
0000
0000
0000
,
0001
0000
0000
0000
,
1000
0000
0000
0000
,
0001
0000
0000
0000
,
0010
0000
0000
0000
,
0100
0000
0000
0000
,
0010
0000
0000
0000
,
0100
0000
0100
0000
,
0100
0000
0000
0000
,
1000
0000
0000
0000
,
0010
0000
0000
0000
,
0001
0000
0010
0000
,
1000
0000
0000
0000
,
0100
0000
0000
0000
,
0001
0000
0000
0000
,
0100
0000
1000
0000
,
0010
0000
0000
0000
,
0100
0000
0000
0000
,
0001
0000
0000
0000
,
1000
0000
0001
0000
,
1000
0000
0000
0000
,
0100
0000
0000
0000
,
0010
0000
0000
0000
,
0001
0000
0001
0000
,
0001
0000
0000
0000
,
1000
0000
0000
1001
,
0001
0000
0000
0000
,
0010
0000
0000
0000
,
0100
0000
0000
0000
,
0000
1000
0000
0000
,
0000
0100
0000
0000
,
0000
0010
0000
0000
,
0000
0001
0000
0000
,
1000
0000
0001
0000
,
0100
0000
0000
0000
,
0010
0000
0000
0000
,
1000
0000
0000
0000
,
0001
0000
1000
0000
,
0100
0000
0000
0000
,
0010
0000
0000
0000
,
0001
0000
0000
0000
,
1000
0000
0001
0000
,
1001
0000
0000
0000
;

//---------------dance-single - ----------------
#NOTES:
     dance-single:
     :
     Easy:
     4:
     0.190926,0.209797,0.000000,0.041441,0.000000,129.000000,129.000000,0.000000,4.000000,0.000000,0.000000,0.190926,0.209797,0.000000,0.041441,0.000000,129.000000,129.000000,0.000000,4.000000,0.000000,0.000000:
0000
0000
0000
0000
,
0000
0000
0000
0000
,
0000
0000
0000
0000
,
1000
0001
0000
0100
,
0001
0010
0000
0100
,
1000
0010
0000
0100
,
1000
0100
0001
0100
,
0000
0010
1000
0100
,
0000
0010
0001
0100
,
0000
0010
0100
0010
,
0100
0001
1000
0100
,
0000
0001
0100
1000
,
0000
1000
0100
0001
,
0000
0001
0100
0010
,
0000
0010
0001
1000
,
0100
0000
1000
0010
,
0100
0000
0001
0100
,
0010
0000
1000
0100
,
0010
0001
0100
1000
,
0100
0100
0000
0001
,
0001
0010
0000
1000
,
0100
0100
0000
0010
,
0002
0003
2000
3000
,
0010
0100
0000
0001
,
0010
0100
0000
1000
,
0010
0100
0000
0001
,
1000
1000
0001
0001
,
0010
0000
0100
0000
,
1000
1000
1000
0001
,
0100
0000
0000
1000
,
0100
0000
0000
0001
,
0100
0000
0000
1000
,
0200
0300
0020
0030
,
0001
0100
0000
1000
,
0100
0001
0000
0001
,
0010
1000
0000
0100
,
0001
1000
0001
1000
,
0010
0001
0010
1000
,
0000
1000
0100
0001
,
0000
0001
0010
1000
,
0000
0100
1000
0010
,
0100
0000
0010
1000
,
0100
0000
0010
0001
,
1000
0000
0010
0100
,
0001
0010
1000
0010
,
0001
0000
0000
0000
;

//---------------dance-single - ----------------
#NOTES:
     dance-single:
     :
     Medium:
     7:
     0.272329,0.301356,0.145045,0.176126,0.000000,184.000000,170.000000,14.000000,17.000000,0.000000,0.000000,0.272329,0.301356,0.145045,0.176126,0.000000,184.000000,170.000000,14.000000,17.000000,0.000000,0.000000:
0000
0000
0000
0000
,
0000
0000
0000
0000
,
0000
0000
0000
0000
,
0101
0000
0001
0000
0000
1000
0000
0010
,
0010
0000
0010
0000
0000
0100
0000
0001
,
0001
0000
0001
0000
0000
0010
0000
0100
,
0100
1000
0001
2002
,
3003
1000
1000
0001
,
0001
0100
0010
0100
,
0010
1000
1000
0001
,
0001
0010
0100
0220
,
0330
0000
1000
0000
0001
0010
0200
0000
,
0300
0000
1000
0000
0010
0100
0002
0000
,
0003
0000
0010
0000
0100
1000
0020
0000
,
0130
0010
1010
0101
,
0001
0000
1000
0000
0010
0000
0100
0001
,
0001
0000
0010
0000
0100
0000
1000
0001
,
0001
0000
0010
0000
1000
0000
0010
0001
,
0001
1000
1100
0101
,
2000
0010
0000
3010
,
0200
0001
0000
0301
,
2000
0100
0000
3100
,
0010
0001
1000
0010
,
0210
0001
0000
0301
,
0200
0010
0000
0310
,
0200
1000
0000
1300
,
0100
0001
0010
1000
,
0010
0001
0100
0010
,
1000
1000
1000
1000
1000
1000
0001
0000
,
1002
0000
0000
0000
0000
0100
0103
0000
,
0010
0000
1000
0000
0000
0100
0100
0000
,
0010
0000
0001
0000
0000
1000
1000
0000
,
0010
0100
0001
1000
,
0100
0000
0020
0000
0000
0001
0031
0000
,
0100
0000
0020
0000
0000
1000
1030
0000
,
0100
0000
0020
0000
0000
0100
0130
0000
,
1000
0010
0100
0110
,
0001
0000
0100
0000
0001
0010
0100
0000
,
0000
0000
1000
0000
0010
0100
0001
0000
,
0000
0000
0010
0000
0100
1000
0100
0000
,
0010
0001
1100
0101
,
1000
0000
0010
0000
0100
0000
0001
1000
,
1000
0000
0100
0000
0010
0000
0001
1000
,
1000
0000
0010
0000
0001
0000
0100
0010
,
0010
1000
1100
0101
;

//---------------dance-single - ----------------
#NOTES:
     dance-single:
     :
     Hard:
     11:
     0.421814,0.419593,0.321170,0.331531,0.000000,285.000000,254.000000,31.000000,32.000000,0.000000,0.000000,0.421814,0.419593,0.321170,0.331531,0.000000,285.000000,254.000000,31.000000,32.000000,0.000000,0.000000:
0000
0000
0000
0000
,
0000
0000
0000
0000
,
0000
0000
0000
0000
,
2001
0000
3100
0000
0000
0010
1000
0100
,
1002
0000
0013
0000
0000
0100
0001
0010
,
2001
0000
3100
0000
0000
0010
0100
1000
,
0010
0001
0010
1000
0100
0010
1001
0000
,
0101
0000
2000
0000
0000
3100
1000
1010
,
1001
0000
0020
0000
0000
0130
1000
1100
,
1001
0000
0200
0000
0000
0310
0100
0001
,
0010
0010
0100
0100
0010
0100
1001
0000
,
1010
1000
0100
0010
0100
1000
0020
0000
,
0130
0001
0010
0100
0010
0001
0200
0000
,
0310
1000
0001
0100
1000
0100
0002
0000
,
0013
0100
0010
0001
1000
1000
0001
0001
,
1001
0001
0100
0010
0100
0001
0020
0100
,
0130
1000
0010
0100
0010
1000
0200
0010
,
0310
0001
1000
0100
0001
0100
2000
0010
,
3010
0100
0010
1000
0001
0001
1000
1000
,
0110
0000
0100
0000
0000
0001
0010
0100
,
1100
0000
1000
0000
0000
0010
0100
0001
,
0011
0000
0010
0000
0000
0100
1000
0001
,
0020
0230
2300
3002
,
0103
0000
0101
0000
0000
0010
0100
0001
,
0010
0000
0011
0000
0000
0100
1000
0010
,
0100
0000
0101
0000
0000
1000
0010
0100
,
0001
1000
0101
1100
,
2000
3200
0320
0032
,
1003
0001
1000
0001
1000
0001
0110
0000
,
0002
0000
0013
0000
0000
0001
0010
0100
,
2000
0000
3010
0000
0000
1000
0010
0100
,
0002
0000
1003
0000
0000
0100
1000
0001
,
0011
1010
1100
0101
,
1000
0000
0200
0000
0000
0301
0100
0010
,
0001
0000
0200
0000
0000
1300
0100
0010
,
1000
0000
0002
0000
0000
0103
0001
1000
,
1100
0011
0101
1010
,
0101
0001
0010
1000
0010
0001
0200
0000
,
0310
1000
0100
0001
0100
1000
0020
0000
,
0130
0001
1000
0010
0100
0001
2000
0000
,
3100
1000
0010
1000
0100
0100
0010
0010
,
0001
1000
0010
0001
0010
1000
0200
0010
,
0310
0001
0100
1000
0100
0001
0020
0100
,
0130
1000
0001
0010
0100
1000
0002
0100
,
0103
0010
1000
0001
0100
0100
0010
0010
,
1001
0000
0000
0000
;

//---------------dance-double - ----------------
#NOTES:
     dance-double:
     :
     Easy:
     3:
     0.179086,0.209797,0.020721,0.031081,0.000000,121.000000,119.000000,2.000000,3.000000,0.000000,0.000000,0.179086,0.209797,0.020721,0.031081,0.000000,121.000000,119.000000,2.000000,3.000000,0.000000,0.000000:
00000000
00000000
00000000
00000000
,
00000000
00000000
00000000
00000000
,
00000000
00000000
00000000
00000000
,
00100000
01000000
00000000
10000000
,
01000000
00010000
00000000
00001000
,
00000100
00000001
00000000
00001000
,
00000100
00000100
00000010
00000110
,
00000000
00001000
00000000
00000100
,
00000000
00010000
00000000
00001000
,
00000000
01000000
00000000
00100000
,
00000000
10000000
00000000
10010000
,
00000000
00100000
00010000
00100000
,
00000000
00001000
00010000
00001000
,
00000000
00000010
00001000
00000010
,
00000000
00000100
00000001
00000100
,
00001000
00000000
00010000
00001000
,
00010000
00000000
01000000
00010000
,
01000000
00000000
10000000
00100000
,
10000000
00010000
01000000
01000000
,
00000000
00010000
00000000
00100000
,
00000000
00001000
00000000
00010000
,
00000000
00000100
00000000
00001000
,
00000010
00000010
00000100
00000100
,
00000000
00000001
00000000
00000010
,
00000000
00001000
00000000
00010000
,
00000000
00100000
00000000
10000000
,
01000000
01000000
00100000
00100000
,
00020000
00000000
00000000
00030000
,
01000000
00100000
00010000
00001000
,
00010000
00000000
00000000
00000100
,
00001000
00000000
00000000
00000010
,
00000001
00000000
00000000
00000100
,
00002000
00003000
00020000
00030000
,
01000000
10000000
00000000
00100000
,
00010000
00100000
00000000
00010000
,
00001000
00010000
00000000
00000010
,
00001000
00001000
00000001
00000001
,
00000100
00000010
00001000
00000010
,
00000000
00010000
00001000
00010000
,
00000000
00100000
00010000
00100000
,
00000000
01000000
10000000
01000000
,
00010000
00000000
00001000
00010000
,
00001000
00000000
00000100
00001000
,
00000100
00000000
00000001
00000010
,
00000001
00001000
00000100
00000100
,
00001000
00000000
00000000
00000000
;

//---------------dance-double - ----------------
#NOTES:
     dance-double:
     :
     Medium:
     5:
     0.266409,0.282837,0.041441,0.196846,0.000000,180.000000,176.000000,4.000000,19.000000,0.000000,0.000000,0.266409,0.282837,0.041441,0.196846,0.000000,180.000000,176.000000,4.000000,19.000000,0.000000,0.000000:
00000000
00000000
00000000
00000000
,
00000000
00000000
00000000
00000000
,
00000000
00000000
00000000
00000000
,
00011000
00000000
00010000
00000000
00000000
00000100
00000000
00001000
,
00000100
00000000
00000010
00000000
00000000
00000001
00000000
00000100
,
00000001
00000000
00000010
00000000
00000000
00001000
00000000
00010000
,
00001000
00010000
00100000
20000000
,
30000000
00010000
10000000
10000000
,
01000000
00010000
00001000
00001000
,
00010000
00001000
00000100
00000100
,
00000010
00001000
00000001
00000200
,
00000300
00000000
00001000
00000000
00010000
00000000
00001000
00100000
,
00010000
00000000
10000000
00000000
01000000
00000000
10000000
00010000
,
01000000
00000000
00001000
00000000
00010000
00000000
00000100
00001000
,
00000001
00000000
00000010
00000000
00000100
00001000
00000100
00000001
,
00000200
00001000
00000010
00001300
,
00020000
00001000
00000100
00031000
,
02000000
00000000
00010000
00000000
00100000
00000000
03010000
10000000
,
20020000
00000000
30030000
01100000
,
01000000
10000000
01000000
00000000
,
00010000
00001000
00010000
00000000
,
00000010
00000100
00000010
00000000
,
00002000
00003002
00000023
00002030
,
00013000
00001000
00010000
00000000
,
01000000
10000000
01000000
00000000
,
00100000
00010000
00100000
00000000
,
00001000
00010000
00001000
00000100
,
00000002
00000023
00002030
00023000
,
00031000
00010000
00001000
00010000
00001000
00010000
00001000
00000000
,
00010000
00000000
00000000
00000000
00100000
00000000
10000000
00100000
,
10000000
00000000
00000000
00000000
01000000
00000000
00100000
00010000
,
00100000
00000000
00000000
00000000
00001000
00000000
00010000
00001000
,
00010000
00000100
00001000
00000001
,
00000100
00000010
00000001
00000010
,
00000100
00001000
00010000
00100000
,
01000000
10000000
01000000
00100000
,
00010000
00001000
00000100
00000110
,
00000100
00000000
00001000
00000000
00010000
00000000
00001000
01000000
,
00010000
00000000
10000000
00000000
00100000
00000000
10000000
00010000
,
00100000
00000000
00001000
00000000
00010000
00000000
00000010
00001000
,
00000001
00000000
00000100
00000000
00000010
00001000
00000010
00000001
,
00000020
00001000
00000100
00001030
,
00020000
00001000
00000010
00031000
,
00200000
00000000
00010000
00000000
01000000
00000000
00310000
10000000
,
00010000
00000000
01000000
00000000
00001000
00010000
00001000
00010000
,
00002000
00000000
00003000
00000000
;

//---------------dance-double - ----------------
#NOTES:
     dance-double:
     :
     Hard:
     7:
     0.449934,0.489526,0.259008,0.227927,0.072522,304.000000,279.000000,25.000000,22.000000,0.000000,0.000000,0.449934,0.489526,0.259008,0.227927,0.072522,304.000000,279.000000,25.000000,22.000000,0.000000,0.000000:
00000000
00000000
00000000
00000000
,
00000000
00000000
00000000
00000000
,
00000000
00000000
00000000
00000000
,
10100000
00000000
10000000
00000000
01000000
00000000
00010000
00011000
,
00011000
00000000
00001000
00000000
00000100
00000000
00000001
00000011
,
00000011
00000000
00000100
00000000
00001000
00000000
00000010
00000110
,
00000110
00000100
00001000
00010000
00100000
01000000
01200000
00000000
,
10300000
00000000
00000000
00000000
00010000
00000000
10000000
01000000
00000000
10000000
01000000
00000000
00100000
00000000
00110000
00000000
,
00101000
00000000
00000000
00000000
00010000
00000000
00000100
00001000
00000000
00000100
00001000
00000000
00000010
00000000
00001010
00000000
,
00010010
00000000
00000000
00000000
00001000
00000000
00000100
00010000
00000000
00000100
00010000
00000000
00001000
00000000
01000000
00000000
,
00010000
00100000
00001000
00010000
00000010
00001000
00000200
00000000
,
00000310
00000100
00010000
00001000
00000100
00001000
00020000
00000000
,
00030100
00010000
00001000
01000000
00100000
01000000
00020000
00000000
,
00130000
01000000
10000000
00010000
10000000
01000000
00020000
00000000
,
00031000
00000100
00000010
00001000
00000001
00000001
00001000
00001000
,
00000100
00000010
00001000
00010000
01000000
00010000
00002000
00000100
,
00003100
00001000
00010000
00100000
10000000
00100000
02000000
00010000
,
03010000
00100000
01000000
10000000
01000000
00010000
00002000
00000010
,
00003010
00001000
00010000
00000010
00001000
00001000
00000001
00000001
,
00001001
00000000
00000110
00000000
00000001
00000000
00000100
00001000
,
00010000
00000000
00011000
00000000
00100000
00000000
00010000
10000000
,
00100000
00000000
10100000
00000000
01000000
00000000
00010000
00100000
,
00002000
00003200
00000302
00000023
,
00001030
00000000
00001010
00000000
00010000
00000000
00001000
01000000
,
00100000
00000000
01100000
00000000
10000000
00000000
01000000
00100000
,
00010000
00110000
00001000
00010000
,
00000100
00000100
00001000
00001000
00000001
00000001
00000100
00000100
,
00000010
00010000
00001000
01000000
00010000
00100000
00001000
00010000
,
00000100
00000010
00000100
00000010
00000100
00000010
00001001
00000000
,
00000100
00000000
00000000
00000001
00000000
00000000
00001000
00000000
00000100
00000000
00000000
00000000
00011000
00000000
00000000
00000000
,
00100000
00000000
00000000
00010000
00000000
00000000
10000000
00000000
00100000
00000000
01000000
00000000
00010000
00000000
01000000
00000000
,
00100000
00000000
00000000
10000000
00000000
00000000
01000000
00000000
00010000
00000000
00000000
00000000
00011000
00000000
00001000
00000000
,
00020000
00230000
00320000
00032000
,
00003010
00000000
00000000
00000001
00000000
00000000
00001000
00000000
00000100
00000000
00010000
00000000
00001000
00000000
01000000
00000000
,
00100000
00000000
00000000
10000000
00000000
00000000
00010000
00000000
01000000
00000000
00001000
00000000
00010000
00000000
00000100
00000000
,
00001000
00000000
00000000
00000001
00000000
00000000
00000010
00000000
00000000
00000100
00000000
00000000
00001000
00000000
00000001
00000000
,
00000100
00000000
00000000
00001000
00000000
00000000
00010000
00000000
00010100
00000000
00000000
00000000
01001000
00000000
00000000
00000000
,
00010000
00100000
00010000
00001000
00000100
00001000
00020000
00000000
,
00030010
00010000
00001000
00100000
01000000
00100000
00020000
00000000
,
01030000
00100000
10000000
00010000
10000000
00100000
00020000
00000000
,
00031000
00000010
00000100
00001000
00000001
00000001
00001000
00001000
,
00000010
00000100
00001000
00010000
00100000
00010000
00002000
00000010
,
00003010
00001000
00010000
01000000
10000000
01000000
00200000
00010000
,
00310000
01000000
00100000
10000000
00100000
00010000
00002000
00000100
,
00003100
00001000
00010000
00000100
00001000
00001000
00000001
00000001
,
00000110
00000000
00000000
00000000
;

//---------------dance-single - ----------------
#NOTES:
     dance-single:
     :
     Challenge:
     15:
     0.685262,0.705150,0.300450,0.393693,0.699322,463.000000,434.000000,29.000000,38.000000,0.000000,0.000000,0.685262,0.705150,0.300450,0.393693,0.699322,463.000000,434.000000,29.000000,38.000000,0.000000,0.000000:
// measure 0
0000
0000
0000
0000
,  // measure 1
0000
0000
0000
0000
,  // measure 2
0000
0000
0000
0000
,  // measure 3
1001
0000
1000
0000
0100
0000
0010
0100
0000
0001
0100
0000
0110
0000
0020
0000
,  // measure 4
1030
0000
0001
0100
0001
0000
0010
0001
0000
0100
0010
0000
1010
0000
2000
0000
,  // measure 5
3001
0000
0100
1000
0010
1000
0001
1000
0000
0100
0010
0000
0001
0000
0100
0000
,  // measure 6
0010
0001
0010
0000
0100
0010
0100
0000
1000
0100
0010
0001
0101
0000
0020
0000
,  // measure 7
0130
0000
0010
0100
0010
0000
1000
0001
0000
0100
0001
0000
0011
0000
0002
0000
,  // measure 8
0103
0000
0010
1000
0010
0000
1000
0100
0000
1000
0010
0000
0110
0000
0200
0000
,  // measure 9
0301
0000
0010
0001
0010
0000
0100
0010
0000
1000
0001
0000
0101
0000
1010
0000
,  // measure 10
1000
0100
1000
0000
0010
0001
0010
0000
1000
0100
0010
0001
0100
0000
0000
0000
,  // measure 11
0110
0000
0100
0010
0100
0001
0100
0010
0100
0001
0100
0010
0200
0000
0310
0000
,  // measure 12
1010
0000
1000
0010
1000
0100
1000
0010
1000
0100
1000
0010
1000
0000
2000
0000
,  // measure 13
3001
0000
0001
0010
0001
0100
0001
1000
0001
0100
0001
0010
0001
0000
0002
0000
,  // measure 14
0103
0000
0010
0001
0100
0010
1000
0100
0020
0000
0031
0000
0200
0000
0310
0000
,  // measure 15
1000
0000
0001
0100
0001
0010
0001
0100
0001
1000
0001
0100
0001
0000
0020
0000
,  // measure 16
0130
0000
1000
0010
0100
0010
1000
0010
0100
0010
1000
0010
0100
0000
0200
0000
,  // measure 17
0310
0000
0001
0010
0100
0010
0001
0010
0100
0010
0001
0010
0200
0000
0320
0000
,  // measure 18
0130
0000
0010
0001
0100
0010
1000
0100
0002
0000
0103
0000
2000
0000
3010
0000
,  // measure 19
1000
0000
0000
0001
0100
0000
0010
0100
0010
0000
1000
0000
0001
0000
0100
0000
,  // measure 20
0010
0000
0010
0001
0010
0000
0001
0000
0100
0000
0010
0000
1000
0000
0001
0000
,  // measure 21
0000
0000
1000
0000
0001
0100
0001
0000
0100
0010
0100
0000
0010
0000
1000
0000
,  // measure 22
0200
2300
3020
0032
,  // measure 23
0103
0000
0000
0001
0020
0000
0100
0000
0100
0000
0100
0000
0130
0000
0110
0000
,  // measure 24
0100
0000
0000
0010
0200
0000
0010
0000
0010
0000
0010
0000
0310
0000
0110
0000
,  // measure 25
0000
1000
0001
0100
0001
0010
0001
0100
,  // measure 26
0010
0000
0001
0000
1000
0100
0010
0001
0100
0000
0010
0000
0100
0000
0010
0000
,  // measure 27
1000
0010
1000
0000
0100
0001
0100
0000
0001
0010
0001
0000
1000
0100
0010
0001
,  // measure 28
0100
0000
0110
0000
0100
0000
0110
0000
0100
0000
0110
0000
0100
0000
0000
0100
,  // measure 29
0001
0000
0000
0011
0000
0000
1001
0000
2000
0000
0000
3100
1000
0000
0100
0000
,  // measure 30
0010
0000
0000
0011
0000
0000
0101
0000
0002
0000
0000
0103
0001
0000
0010
0000
,  // measure 31
0100
0000
0000
0110
0000
0000
1001
0000
0020
0000
0000
0130
0010
0000
1000
0000
,  // measure 32
0100
0000
0000
0100
1000
0000
0000
1000
0001
0000
0000
0001
0100
0000
0010
0000
,  // measure 33
1000
0000
0000
1010
0000
0000
1001
0000
0200
0000
0000
0310
0100
0000
0010
0000
,  // measure 34
0001
0000
0000
0101
0000
0000
1001
0000
0002
0000
0000
0103
0001
0000
0010
0000
,  // measure 35
0100
0000
0000
0110
0000
0000
1001
0000
2000
0000
0000
3100
1000
0000
0100
0000
,  // measure 36
0010
0001
0010
0000
0100
0010
0100
0000
1000
0100
0010
0001
0100
0010
0001
0010
,  // measure 37
0100
1000
0100
0010
0001
0100
0010
1000
0100
0010
0001
0100
0010
0000
0002
0000
,  // measure 38
0013
0000
0001
0010
0100
1000
0010
0100
0001
1000
0100
0010
0001
0000
2000
0000
,  // measure 39
3100
0000
1000
0100
0010
0001
0100
0010
1000
0001
0010
0001
0100
0000
0110
0000
,  // measure 40
0010
0000
0001
0010
0001
0100
0001
1000
0002
0000
0103
0000
2000
0000
3010
0000
,  // measure 41
1000
0000
0100
1000
0100
0010
0100
0001
0100
0010
0100
1000
0200
0000
0010
0000
,  // measure 42
0310
0000
0001
0010
0100
1000
0010
0100
0001
0010
0100
1000
0020
0000
0100
0000
,  // measure 43
0130
0000
0010
0001
0100
0010
1000
0001
0010
0100
1000
0010
0100
0000
0001
0000
,  // measure 44
1000
0000
0100
1000
0100
0010
0001
0100
0020
0000
0130
0000
2000
0000
3001
0000
,  // measure 45
0202
0000
0000
0303
0000
0000
0000
0000
;
