#VERSION:0.83;
#TITLE:Haunted;
#SUBTITLE:(Taylor's Version);
#ARTIST:Taylor Swift;
#TITLETRANSLIT:;
#SUBTITLETRANSLIT:;
#ARTISTTRANSLIT:;
#GENRE:;
#ORIGIN:;
#CREDIT:;
#BANNER:;
#BACKGROUND:Haunted (Taylor's Version)-bg.png;
#PREVIEWVID:;
#JACKET:Haunted (Taylor's Version)-jacket.png;
#CDIMAGE:;
#DISCIMAGE:;
#LYRICSPATH:;
#CDTITLE:;
#MUSIC:Haunted (Taylor's Version).mp3;
#OFFSET:0.000000;
#SAMPLESTART:100.000000;
#SAMPLELENGTH:12.000000;
#SELECTABLE:YES;
#BPMS:0.000=162.000,
326.500=164.000,
331.500=162.000;
#STOPS:;
#DELAYS:;
#WARPS:;
#TIMESIGNATURES:0.000=4=4;
#TICKCOUNTS:0.000=4;
#COMBOS:0.000=1;
#SPEEDS:0.000=1.000=0.000=0;
#SCROLLS:0.000=1.000;
#FAKES:;
#LABELS:0.000=Song Start;
#BGCHANGES:0.000=Haunted (Taylor's Version).mp4=1.000=0=0=0=StretchNoLoop====,
99999=-nosongbg-=1.000=0=0=0 // don't automatically add -songbackground-
;
#KEYSOUNDS:;
#ATTACKS:
;

//---------------dance-single - ----------------
#NOTEDATA:;
#CHARTNAME:;
#STEPSTYPE:dance-single;
#DESCRIPTION:;
#CHARTSTYLE:;
#DIFFICULTY:Hard;
#METER:15;
#RADARVALUES:0.464144,0.679446,0.518074,0.248997,0.032129,809.000000,680.000000,129.000000,62.000000,0.000000,0.000000,0.000000,0.000000,0.000000,0.464144,0.679446,0.518074,0.248997,0.032129,809.000000,680.000000,129.000000,62.000000,0.000000,0.000000,0.000000,0.000000,0.000000;
#CREDIT:;
#NOTES:
// measure 0
0000
0000
0000
0000
,  // measure 1
0000
0000
0000
0000
,  // measure 2
0000
0000
0000
0000
,  // measure 3
0000
0000
0000
0000
,  // measure 4
0000
0000
0000
0000
,  // measure 5
0000
0000
0000
0000
,  // measure 6
0000
0000
0000
0000
,  // measure 7
0000
0000
0000
0000
,  // measure 8
0000
0000
0000
0000
,  // measure 9
0000
1100
0000
0000
0000
1010
0000
0000
,  // measure 10
0000
0011
0000
0000
0000
0101
0000
0000
,  // measure 11
0000
0110
0000
0000
0000
1001
0000
0000
,  // measure 12
0000
0110
0000
0000
0000
1001
0000
0000
,  // measure 13
0000
1010
0000
0000
0000
0101
0000
0000
,  // measure 14
0000
0011
0000
0000
0000
1100
0000
0000
,  // measure 15
0000
1001
0000
1010
0000
0110
0000
0101
,  // measure 16
0000
0001
0010
0100
1000
0001
0100
0010
,  // measure 17
1000
0100
0010
0000
0002
0000
0000
0103
,  // measure 18
0010
0001
0100
0000
2000
0000
0000
0000
,  // measure 19
0000
0100
0000
0000
0000
3001
1000
0000
,  // measure 20
0010
0100
0001
1000
,  // measure 21
0000
0100
0000
0001
1000
0001
0000
0100
,  // measure 22
0010
0100
0000
1000
0001
0100
1000
0000
,  // measure 23
0200
0000
0000
0000
0000
0010
0000
0000
,  // measure 24
0000
0001
0000
0000
0000
1300
0000
0000
,  // measure 25
0000
0010
0100
0010
1000
0002
0000
0103
,  // measure 26
0010
1000
0100
0010
0000
0011
0000
0101
,  // measure 27
0100
0010
1000
0100
0001
0100
1000
0100
,  // measure 28
0010
0002
0000
0100
0000
1003
0000
0010
,  // measure 29
0001
0100
0100
0010
1000
1000
0100
0010
,  // measure 30
0001
0100
0000
0101
0000
1010
0000
1100
,  // measure 31
0000
2001
0000
0000
0000
3100
0000
0000
,  // measure 32
0000
1000
0100
0010
0001
0100
0010
1000
,  // measure 33
0001
0020
0000
0100
0100
0130
0000
0000
,  // measure 34
0000
1000
0001
0100
0010
1000
0000
1010
,  // measure 35
0000
0020
0000
0001
0001
0031
0000
0000
,  // measure 36
0000
0100
0010
1000
0100
0020
0000
0030
,  // measure 37
0000
0002
0000
0000
0000
0203
0000
0000
,  // measure 38
0000
0320
0000
0000
0000
2030
0000
0000
,  // measure 39
0000
3002
0000
0000
0000
0023
0000
0000
,  // measure 40
0000
0230
0000
0000
0000
0300
0000
0000
,  // measure 41
0000
1100
0000
1000
0002
0000
0000
0103
,  // measure 42
2000
0000
3010
0000
0100
0000
0001
0100
,  // measure 43
0000
1100
0000
2000
0000
0100
0000
0100
,  // measure 44
0000
0010
0000
0010
0000
0001
0000
3001
,  // measure 45
1000
0000
0000
1100
0000
0101
0000
0110
,  // measure 46
0000
1000
0001
0100
0000
0110
0000
1001
,  // measure 47
0000
0020
0000
0000
0000
0230
0000
0000
,  // measure 48
0000
2300
0000
0000
0000
3001
0000
0000
,  // measure 49
0000
1001
0000
0001
2000
0000
0000
3100
,  // measure 50
0002
0000
0013
0000
0100
0000
0010
1000
,  // measure 51
0000
1001
0000
0020
0000
0100
0000
0100
,  // measure 52
0000
1000
0000
1000
0000
0001
0000
0031
,  // measure 53
0010
0000
0000
0011
0000
0101
0000
0110
,  // measure 54
0000
1000
0100
0010
0000
0101
0000
1100
,  // measure 55
0000
2000
0000
3100
0000
0002
0000
0013
,  // measure 56
0000
1000
0000
0010
0100
0000
0210
0000
,  // measure 57
0000
0301
0000
0011
0000
0100
0000
0101
,  // measure 58
0000
1000
0000
1100
0000
0010
0000
0101
,  // measure 59
0000
0010
0000
1100
0000
1000
0000
0101
,  // measure 60
0000
0001
0000
1100
0000
0100
0000
1001
,  // measure 61
0000
0010
0000
1001
0000
0100
0000
1001
,  // measure 62
0000
0100
0000
0110
0000
0010
0000
1001
,  // measure 63
0000
1100
0100
1000
0000
0101
0000
0011
,  // measure 64
0001
0100
0000
0100
1000
0100
0010
0001
,  // measure 65
0100
0020
0000
1000
0000
0100
0000
1030
,  // measure 66
0000
0001
0010
0100
1000
0001
0000
0100
,  // measure 67
0000
2000
0000
0000
0000
3100
0000
1000
,  // measure 68
0100
0010
0001
0100
,  // measure 69
0000
0110
0000
0100
0010
0100
0000
0011
,  // measure 70
0000
1000
0000
0101
0000
1000
0100
1000
,  // measure 71
0100
0020
0000
0000
0000
0100
0000
0001
,  // measure 72
0031
0000
0000
0101
0000
1010
0000
1000
,  // measure 73
0100
0010
0001
0000
0101
0000
0010
0100
,  // measure 74
0010
0100
0000
1100
0000
0101
0000
0210
,  // measure 75
0000
0001
0000
0310
0000
0110
0100
0010
,  // measure 76
0100
0110
1010
1001
,  // measure 77
0000
1100
0000
1000
0001
0100
0000
0010
,  // measure 78
0100
0000
0010
0000
0001
0000
0000
0010
0000
0000
0100
0000
0010
0000
1000
0000
,  // measure 79
0001
0200
0000
0000
0000
0320
0000
0000
,  // measure 80
0000
0032
0000
0000
0000
0103
0000
0100
,  // measure 81
0010
0200
0000
0001
0001
0301
0000
0000
,  // measure 82
0000
1000
0100
0001
0100
1000
0000
0100
,  // measure 83
0010
0200
0000
1000
1000
1300
0000
0000
,  // measure 84
0000
1000
0010
0001
0010
0100
0000
0000
,  // measure 85
0000
2000
0000
0000
0000
3100
0000
0000
,  // measure 86
0000
0000
0000
0002
0000
0000
0000
0000
0000
0000
0103
0000
0000
0000
0000
0000
,  // measure 87
0000
0200
0000
0000
0000
0310
0000
0000
,  // measure 88
0000
0110
0000
0100
0010
0000
0110
0000
,  // measure 89
0000
1100
0000
0100
0002
0000
0003
0100
,  // measure 90
2000
0000
3100
0000
1000
0000
0100
0001
,  // measure 91
0000
0101
0000
0002
0000
0010
0000
0010
,  // measure 92
0000
0100
0000
0100
0000
1000
0000
1003
,  // measure 93
0001
0000
0000
0101
0000
1010
0000
1100
,  // measure 94
0000
1000
0001
0100
0000
0110
0000
1001
,  // measure 95
0000
0210
0000
0000
0000
0302
0000
0000
,  // measure 96
0000
2003
0000
0000
0000
3020
0000
0030
,  // measure 97
0000
0110
0000
0010
0002
0000
0003
0010
,  // measure 98
2000
0000
3010
0000
0001
0000
0100
0010
,  // measure 99
0000
0110
0000
0200
0000
1000
0000
1000
,  // measure 100
0000
0001
0000
0001
0000
0010
0000
0310
,  // measure 101
0100
0000
0000
0110
0000
0101
0000
0110
,  // measure 102
0000
1000
0100
0010
0000
0011
0000
0101
,  // measure 103
0001
2000
0000
0100
0000
3002
0000
0010
,  // measure 104
0000
0103
0000
1000
0001
0000
1001
0000
,  // measure 105
0000
1100
0000
0000
0000
1010
0000
0000
,  // measure 106
0000
1001
0000
0000
0000
1100
0000
0000
,  // measure 107
0000
0011
0000
0000
0000
1001
0000
0000
,  // measure 108
0000
0101
0000
0000
0000
1001
0000
0000
,  // measure 109
0000
0100
0001
0100
1000
0100
0001
0100
,  // measure 110
0000
0010
1000
0010
0001
0010
1000
0010
,  // measure 111
0000
0001
0100
0010
0100
0001
0010
0100
,  // measure 112
1000
0100
0010
0100
1000
0010
0100
2000
,  // measure 113
0000
0000
0000
3002
0000
0000
0000
0000
,  // measure 114
0000
0000
0000
0000
,  // measure 115
0000
0100
0000
0000
0000
0000
0000
0003
,  // measure 116
0000
0000
0000
0000
0000
0100
0000
0200
,  // measure 117
0000
0000
0000
0320
0000
0000
0000
0000
,  // measure 118
0000
0000
0000
0000
,  // measure 119
0000
0000
0000
0000
0000
0000
0000
0030
,  // measure 120
0000
0000
0000
0000
0000
1000
0000
0001
,  // measure 121
0000
0000
0000
0010
0000
1000
0100
0010
,  // measure 122
0001
0100
0010
0100
1000
0100
0010
0001
,  // measure 123
0010
0100
1000
0100
0001
0100
1000
0010
,  // measure 124
0100
0001
0000
0000
0010
0100
0010
1000
,  // measure 125
0001
0200
0000
0000
0000
0000
0000
0000
,  // measure 126
0000
0010
0000
0000
0000
0010
0000
0310
,  // measure 127
0100
0010
0000
0010
0000
1000
0000
1000
,  // measure 128
0100
1000
0100
1000
0100
0001
0100
0001
,  // measure 129
0100
0110
0000
0010
1000
0100
0000
0010
,  // measure 130
0001
0100
0001
0000
0100
0000
0010
1000
,  // measure 131
0000
0000
1100
0000
0000
1000
0200
0000
0000
0000
0010
0000
0000
0000
0310
0000
,  // measure 132
0000
0110
0000
0011
0000
0101
0001
0100
,  // measure 133
0010
0000
0000
1100
0000
1010
0000
1001
,  // measure 134
0000
1000
0100
0010
0000
0011
0000
0101
,  // measure 135
0100
0020
0000
0000
0000
0130
0000
0000
,  // measure 136
0000
0000
0001
0000
0000
0000
1000
0000
0001
0000
1000
0001
1000
0001
1000
0001
,  // measure 137
1000
0001
1000
0000
0000
0000
0100
0000
0010
0100
0010
0000
0001
0000
0100
0010
,  // measure 138
0100
0010
1000
0000
0001
0000
0100
0010
,  // measure 139
0000
0000
1001
0000
0000
0100
1000
0000
0000
1000
0100
0000
0000
0100
0001
0000
,  // measure 140
0000
0001
0100
0000
0000
0000
0110
0000
0000
0000
1010
0000
0000
0000
1000
0000
,  // measure 141
0001
0000
0000
0101
0000
1010
0000
1100
,  // measure 142
0000
1000
0001
0100
0000
0110
0000
1001
,  // measure 143
0001
0100
0000
0010
1000
0100
0000
0010
,  // measure 144
0001
0000
0100
0000
0000
0000
0010
0000
0100
0000
1000
0100
0010
0001
0100
0010
,  // measure 145
1000
0010
0000
0101
0000
0100
0001
0100
,  // measure 146
0000
1000
0000
1010
0000
1000
0001
1000
,  // measure 147
0000
1000
0100
0010
0001
0100
0010
0100
,  // measure 148
0000
0001
0010
0100
1000
0010
0100
0010
,  // measure 149
0000
1000
0010
0100
0001
1000
0100
0001
,  // measure 150
0000
0001
0100
0010
1000
0001
0100
1000
,  // measure 151
0000
0100
0010
0100
1000
0010
0100
0001
,  // measure 152
0000
0010
0001
0100
0010
1000
0100
0010
,  // measure 153
0000
0001
0100
0000
0101
0000
0100
0010
,  // measure 154
1000
1001
1001
0000
0100
0010
0000
1000
,  // measure 155
0001
1000
0000
1100
0000
1010
1000
0000
,  // measure 156
1100
0000
1010
0000
0011
0000
0101
0100
,  // measure 157
0010
0110
0100
0010
0000
1001
0001
0010
,  // measure 158
0100
1000
0001
0100
0000
0110
0000
1010
,  // measure 159
0000
2001
0000
0100
0000
3010
0000
1001
,  // measure 160
0001
1000
0100
0010
0001
0100
0000
2002
,  // measure 161
0000
3003
0000
0000
0000
0000
0000
0000
;
