#TITLE:Happy;
#SUBTITLE:;
#ARTIST:Fischerspooner;
#TITLETRANSLIT:;
#SUBTITLETRANSLIT:;
#ARTISTTRANSLIT:;
#GENRE:;
#CREDIT:;
#BANNER:Happy.png;
#BACKGROUND:Happy-bg.png;
#LYRICSPATH:;
#CDTITLE:;
#MUSIC:Happy.ogg;
#OFFSET:0.000000;
#SAMPLESTART:26.090000;
#SAMPLELENGTH:15.000000;
#SELECTABLE:YES;
#DISPLAYBPM:138.000000;
#BPMS:0.000000=138.462006
,4.000000=137.966003
;
#STOPS:
;
#BGCHANGES:;
#KEYSOUNDS:;
#ATTACKS:;

//---------------dance-single - ----------------
#NOTES:
     dance-single:
     :
     Beginner:
     2:
     0.096252,0.169644,0.000000,0.000000,0.000000,70.000000,70.000000,0.000000,0.000000,0.000000,0.000000,0.096252,0.169644,0.000000,0.000000,0.000000,70.000000,70.000000,0.000000,0.000000,0.000000,0.000000:
0000
0000
0000
0000
,
0000
0000
0000
0000
,
0000
0000
0000
0000
,
0001
0000
0000
0000
,
0000
0000
0000
0000
,
1000
0000
0000
0000
,
0000
0000
0000
0000
,
0001
0000
0000
0000
,
1000
0000
0000
0000
,
1000
0000
0000
0000
,
0001
0000
0000
0000
,
0100
0000
0000
0000
,
0001
0000
0000
0000
,
1000
0000
0000
0000
,
0000
0000
0000
0000
,
0100
0000
0100
0000
,
0100
0000
0000
0000
,
0001
0000
0001
0000
,
0001
0000
0000
0000
,
1000
0000
1000
0000
,
0001
0000
0001
0000
,
1000
0000
0000
0000
,
0001
0000
0000
0000
,
1000
0000
0000
0000
,
0001
0000
1000
0000
,
0001
0000
0000
0000
,
0100
0000
0000
0000
,
0001
0000
0000
0000
,
1000
0000
0001
0000
,
1000
0000
0000
0000
,
0000
0000
0000
0000
,
0010
0000
0000
0000
,
0000
0000
0000
0000
,
0001
0000
0000
0000
,
0000
0000
0000
0000
,
1000
0000
0000
0000
,
0000
0000
0000
0000
,
0001
0000
0000
0000
,
0000
0000
0000
0000
,
0010
0000
0000
0000
,
1000
0000
1000
0000
,
0001
0000
0000
0000
,
0001
0000
0001
0000
,
1000
0000
0000
0000
,
0100
0000
0000
0000
,
0001
0000
0000
0000
,
0100
0000
0000
0000
,
0010
0000
0010
0000
,
0010
0000
0010
0000
,
0001
0000
0001
0000
,
0001
0000
0001
0000
,
1000
0000
1000
0000
,
1000
0000
1000
0000
,
0100
0000
0100
0000
,
0100
0000
0100
0000
,
1000
0000
0001
0000
,
1000
0000
0001
0000
,
1000
0000
0001
0000
,
1000
1000
1000
1000
,
0000
0000
0000
0000
;

//---------------dance-single - ----------------
#NOTES:
     dance-single:
     :
     Easy:
     5:
     0.247505,0.311014,0.134753,0.077002,0.000000,180.000000,166.000000,14.000000,8.000000,0.000000,0.000000,0.247505,0.311014,0.134753,0.077002,0.000000,180.000000,166.000000,14.000000,8.000000,0.000000,0.000000:
0000
0000
0000
0000
,
0000
0000
0000
0000
,
0000
0000
0000
0000
,
0001
0001
0001
0001
,
0010
0010
0010
0010
,
0100
0100
0100
0100
,
1000
1000
1000
1000
,
0000
0001
1000
1000
,
0000
0010
0100
0100
,
0000
1000
0001
0001
,
0000
0100
0010
0010
,
0000
1000
1001
0000
,
0000
0001
1001
0000
,
0000
0100
0001
0001
,
1000
0010
0010
0000
,
1000
0001
1000
0001
,
0000
0010
0100
0010
,
0100
0001
0100
0000
,
1000
0010
1000
0010
,
0010
0001
0010
0000
,
0100
0010
0100
0000
,
0010
0100
0010
0100
,
0010
0010
1000
0001
,
1001
0000
0001
0000
,
0001
0100
0001
1000
,
1001
0000
1000
0000
,
1000
0010
0100
0010
,
0110
0000
0010
0000
,
0100
0001
0100
1000
,
0110
0000
0110
0000
,
0001
0001
0001
0001
,
2000
0000
0000
3000
,
0002
0000
0000
0003
,
2000
0000
0000
3000
,
0002
0000
0000
0003
,
0200
0000
0000
0300
,
0020
0000
0000
0030
,
0200
0000
0000
0300
,
0020
0000
0000
0030
,
0100
0100
0000
0001
,
1000
1000
0000
0100
,
0001
0001
0000
1000
,
0010
0010
0000
0010
,
0100
0100
0100
0001
,
1000
1000
1000
0100
,
0001
0001
0001
1000
,
0010
0010
0110
0110
,
1000
0010
0001
0100
,
0100
0001
0010
0000
,
0001
0010
1000
0100
,
0100
1000
0010
0000
,
0100
1000
0010
0001
,
0001
0010
1000
0000
,
0010
1000
0100
0001
,
0001
0100
1000
0010
,
0100
0000
0110
0000
,
1000
1000
0001
0001
,
0010
0000
0110
0000
,
1001
0000
0110
1001
,
0000
0000
0000
0000
;

//---------------dance-single - ----------------
#NOTES:
     dance-single:
     :
     Medium:
     7:
     0.334132,0.340010,0.202129,0.163628,0.000000,243.000000,222.000000,21.000000,17.000000,0.000000,0.000000,0.334132,0.340010,0.202129,0.163628,0.000000,243.000000,222.000000,21.000000,17.000000,0.000000,0.000000:
0000
0000
0000
0000
,
0000
0000
0000
0000
,
0000
0000
0000
0000
,
0002
0100
0003
0000
0002
0100
0003
0000
,
0200
0010
0300
0000
0200
0010
0300
0000
,
0020
1000
0030
0000
0020
1000
0030
0000
,
2000
0001
3000
0000
2000
0001
3000
0000
,
0010
1000
0001
0100
,
0010
0000
1100
0000
0000
0001
0001
0000
,
0010
0001
1000
0100
,
0010
0000
0101
0000
0000
1000
1000
0000
,
0010
0000
0100
1000
0100
0000
0000
0000
,
0010
0000
0100
0001
0100
0000
0000
0000
,
0010
0000
0100
0010
0000
1000
0000
0001
,
0000
0100
0000
0020
0000
0000
0000
0030
,
0100
1000
0001
0010
,
0100
0000
1010
0000
0000
0001
0001
0000
,
0100
0001
1000
0010
,
0100
0000
0011
0000
0000
1000
1000
0000
,
0100
0000
0010
1000
0010
0000
0010
0000
,
0100
0000
0010
0001
0010
0000
0010
0000
,
0100
0000
0010
0100
0010
0000
0010
0100
,
0000
0100
0000
0100
0000
0000
0000
0000
,
2001
0010
0001
3010
,
1002
0100
1000
0103
,
0020
1000
0100
0001
,
0100
1000
0130
0110
,
2001
0100
0001
3100
,
1002
0010
1000
0013
,
0200
1000
0010
0001
,
0010
1000
0310
0110
,
1002
0000
0000
0000
,
0100
0000
0000
0003
,
2010
0000
0000
0000
,
0001
0000
0000
3000
,
0001
0000
0000
0001
0000
0001
0000
0001
,
0100
0000
0000
0100
0000
0000
0000
0000
,
0010
0000
0000
0010
0000
0010
0000
0010
,
1000
0000
0000
1000
0000
0000
0000
0000
,
1000
0000
1100
0000
0000
0010
0010
0000
,
0001
0000
0101
0000
0000
0010
0010
0000
,
1000
0000
1001
0000
0000
0010
0010
0000
,
0100
0000
0110
0000
0000
0010
0010
0000
,
1000
0000
1000
0000
0001
0010
0010
0000
,
0001
0000
0001
0000
0010
0100
0100
0000
,
0010
0000
0010
0000
0100
1000
1000
0000
,
0100
0000
0100
0000
1000
0001
0001
0000
,
1000
0000
1000
0000
0001
0100
1000
0000
,
0001
0000
0001
0000
0001
0100
1000
0000
,
0010
0000
0010
0000
0001
0100
1000
0000
,
0010
0000
1001
0000
0001
0100
1000
0000
,
1000
0000
0001
0000
0010
1000
0100
0000
,
1000
0000
0001
0000
0010
0001
0100
0000
,
0010
0000
0100
0000
0010
1000
0001
0000
,
1000
0001
0110
1001
,
0010
0000
0000
0000
0010
0100
0010
0000
,
0100
0000
0000
0000
0100
0010
0100
0000
,
0001
0010
1000
0100
,
1100
0000
0101
0000
0010
1000
0100
0001
,
0000
0000
0000
0000
;

//---------------dance-single - ----------------
#NOTES:
     dance-single:
     :
     Hard:
     10:
     0.440009,0.482192,0.298381,0.259880,0.052939,320.000000,289.000000,31.000000,27.000000,0.000000,0.000000,0.440009,0.482192,0.298381,0.259880,0.052939,320.000000,289.000000,31.000000,27.000000,0.000000,0.000000:
0000
0000
0000
0000
,
0000
0000
0000
0000
,
0000
0000
0000
0000
,
0010
0001
0010
0001
0010
0001
0010
0001
,
0100
0001
0100
0001
0100
0001
0100
0001
,
0100
0010
0100
0010
0100
0010
0100
0010
,
1000
0010
1000
0010
1000
0010
1000
0000
,
0001
0120
1000
0130
,
0010
1000
0001
0000
0100
0010
1000
0000
,
0001
0210
1000
0310
,
0100
1000
0001
0000
0010
0100
1000
0000
,
0010
0002
1000
0103
,
0010
2000
0001
3100
,
1000
0010
1001
0110
,
0100
0001
1000
0100
0010
0100
0001
0000
,
1000
1100
0010
0100
,
0001
0100
1000
0000
0001
0100
0100
1000
,
1000
1010
0100
0010
,
0001
0010
1000
0000
0001
0010
0010
1000
,
1001
0101
0010
0100
,
1000
0100
0001
0000
1000
0100
0100
0001
,
0001
0011
0100
0010
,
1000
0010
0001
0000
1000
0010
0010
0001
,
0002
0000
1003
0000
0010
0100
0010
0000
,
2000
0000
3010
0000
0001
0100
0001
0000
,
0200
0000
0301
0010
0100
1000
0100
0000
,
0020
0000
0130
0000
1000
0001
1000
0000
,
2000
0000
3001
0000
0010
0100
0010
0000
,
0002
0000
0013
0000
1000
0100
1000
0000
,
0200
0000
1300
0001
0100
0010
1000
0000
,
1001
0110
1001
1001
,
0202
0000
0000
0303
,
2020
0000
0000
3030
,
0022
0000
0000
0033
,
2200
0000
0000
3300
,
1002
0000
0000
0100
0000
0100
0003
0100
,
2000
0000
0000
0100
0000
0000
3000
0000
,
0120
0000
0000
1000
0000
1000
0030
1000
,
0200
0000
0000
0000
0000
0000
0310
0000
0000
0000
0001
1000
0001
0000
1000
0000
,
0100
0000
0001
0000
0100
1000
0010
0000
,
0001
0000
0100
0000
0001
0010
1000
0010
,
0001
0000
0100
0000
1000
0010
0100
0000
,
0001
0000
1000
0000
0100
0010
0001
0000
,
0010
0000
0001
0000
0010
1000
0100
0000
,
0001
0000
0010
0000
0001
0100
1000
0100
,
0001
0000
0100
0000
1000
0100
0010
0000
,
0001
1000
0010
0100
1000
0100
0001
0000
,
0010
0000
0000
0010
0000
0000
0110
0000
0000
0000
0002
0000
1000
0000
0000
0000
,
0103
0000
0000
0100
0000
0000
0110
0000
0000
0000
0020
0000
0001
0000
0000
0000
,
1030
0000
0000
1000
0000
0000
1001
0000
0000
0000
0200
0000
0010
0000
0000
0000
,
0301
0000
0000
0001
0000
0000
0110
0000
0000
0000
2000
0000
0100
0000
0000
0000
,
3010
0000
0000
0010
0000
0000
0010
0000
1000
0000
0100
0000
0010
0000
0001
0000
,
1000
0000
0000
1000
0000
0000
1000
0000
0010
0000
0100
0000
0001
0000
1000
0000
,
0001
0000
0000
0001
0000
0000
0001
0000
1000
0000
0010
0000
0100
0000
0001
0000
,
1001
1010
0101
1001
,
0010
0000
0000
0010
0000
0000
0010
0000
1000
0000
0100
0000
0001
0000
0000
0000
,
1100
0101
0110
1001
,
0100
0000
0000
0100
0000
0000
0100
0000
0010
0000
1000
0000
0001
0000
0000
0000
,
0100
0000
0001
0000
0010
0000
1000
0000
0010
0000
0100
0000
1000
0000
0001
0100
,
0000
0000
0000
0000
;

//---------------dance-double - ----------------
#NOTES:
     dance-double:
     :
     Easy:
     6:
     0.257130,0.367562,0.192504,0.077002,0.000000,187.000000,167.000000,20.000000,8.000000,0.000000,0.000000,0.257130,0.367562,0.192504,0.077002,0.000000,187.000000,167.000000,20.000000,8.000000,0.000000,0.000000:
00000000
00000000
00000000
00000000
,
00000000
00000000
00000000
00000000
,
00000000
00000000
00000000
00000000
,
00010000
00010000
00010000
00010000
,
00100000
00100000
00100000
00100000
,
00001000
00001000
00001000
00001000
,
00000010
00000010
00000010
00000010
,
00000001
00000000
00000001
00000000
,
00000001
00000100
00001000
00000000
,
00010000
00000000
00010000
00000000
,
00100000
10000000
01000000
00000000
,
00010000
00001000
00011000
00000000
,
00000010
00000100
00000110
00000000
,
00000001
00000100
00001000
00000000
,
00010000
00001000
00101000
00000000
,
01000000
10000000
01000000
00000000
,
00100000
00100000
00001000
00100000
,
00001000
00010000
00001000
00000000
,
00000010
00000001
00000010
00000001
,
00000001
00000010
00000110
00000000
,
00000100
00001000
00001100
00000000
,
00001000
00100000
01000000
10000000
,
01000000
01100000
01100000
00000000
,
10000000
10010000
01000000
00000000
,
00010000
00011000
00001000
00000000
,
00010000
00001000
00000100
00000010
,
00000001
00000100
00001001
00000000
,
00000001
00000011
00000100
00001000
,
00000010
00000010
00000100
00000000
,
00001000
00010000
01000000
00100000
,
10000000
01000000
10010000
10010000
,
02000000
00000000
00000000
03000000
,
00020000
00000000
00000000
00030000
,
00200000
00000000
00000000
00300000
,
00002000
00000000
00000000
00003000
,
00020000
00000000
00000000
00030000
,
00000200
00000000
00000000
00000300
,
00000020
00000000
00000000
00000030
,
00000002
00000000
00000000
00000003
,
00000100
00000100
00000000
00000100
,
00001000
00001000
00000000
00001000
,
00010000
00010000
00000000
00010000
,
00100000
00100000
00000000
01000000
,
10000000
10000000
00000000
00010000
,
00001000
00001000
00000000
00000001
,
00000010
00000010
00000000
00010000
,
00001000
00010000
01100000
01100000
,
10000000
10000000
01000000
00100000
,
00010000
01000000
00100000
00000000
,
00001000
00000010
00000001
00000100
,
00000010
00000100
00001000
00000000
,
00010000
00100000
10000000
01000000
,
00100000
01000000
01000000
00000000
,
00010000
00001000
00010000
01000000
,
01100000
01100000
01100000
01100000
,
00001000
00000000
00001000
00000000
,
00010000
01000000
10000000
01000000
,
00001000
00000000
00001000
00000000
,
00001000
00000010
00000001
00000110
,
00000000
00000000
00000000
00000000
;

//---------------dance-double - ----------------
#NOTES:
     dance-double:
     :
     Medium:
     7:
     0.314881,0.396678,0.192504,0.221379,0.000000,229.000000,209.000000,20.000000,23.000000,0.000000,0.000000,0.314881,0.396678,0.192504,0.221379,0.000000,229.000000,209.000000,20.000000,23.000000,0.000000,0.000000:
00000000
00000000
00000000
00000000
,
00000000
00000000
00000000
00000000
,
00000000
00000000
00000000
00000000
,
00010000
00100000
01000000
10000000
,
00100000
01000000
00010000
00100000
,
00001000
00010000
00000100
00000010
,
00000001
00001000
00000100
00000010
,
00001002
00000000
00000100
00000003
,
00000100
00000010
00001000
00000000
00000100
00000000
00000000
00000000
,
00021000
00000000
00000010
00030000
,
00001000
00100000
01000000
00000000
01100000
00000000
00000000
00000000
,
20000000
30100000
10010000
00000000
,
02000000
03001000
01010000
00000000
,
00100000
00000000
00001000
00010000
00000000
00001000
00000000
00000010
,
00000000
00000100
00000000
00000002
00000000
00000000
00000003
00000000
,
00002000
00000100
00000010
00003100
,
00010000
00001000
00010000
00000000
01000000
00000000
10000000
00000000
,
00020000
01000000
00100000
01030000
,
00001000
00100000
01000000
00000000
01100000
00000000
00000000
00000000
,
20000000
30100000
10010000
00000000
,
02000000
03001000
01010000
00000000
,
00100000
00001000
00010000
00001000
00100000
00000000
00010000
00001000
,
00000000
00000010
00000000
00000002
00000000
00000000
00000003
00000000
,
00001000
00001100
00000001
00000100
,
00010100
00001000
00100000
01000000
,
00100000
01000000
00100000
01000000
00100000
00000000
10000000
10000000
,
00000000
01000000
00000000
00020000
00000000
00000000
00030000
00000000
,
00001000
00001100
00000001
00000100
,
00010100
00001000
00100000
01000000
,
00100000
00000000
10000000
01000000
00010000
00000000
00001000
00001000
,
00000000
00000110
00000000
00002002
00000000
00000000
00003003
00000000
,
00000020
00000000
00000030
00000000
,
00020000
00000000
00030000
00000000
,
20000000
00000000
30000000
00000000
,
00200000
00000000
00300000
00000000
,
00000020
00000000
00000030
00000000
,
00020000
00000000
00030000
00000000
,
00000200
00000000
00000300
00000000
,
02000000
00000000
03000000
00000000
,
10000000
01000000
00100000
00001000
,
00010000
00000010
00000100
00000001
,
00001000
00000100
00010000
00000010
,
00000100
00001000
00010000
01000000
,
10000000
00000000
10000000
00000000
00000000
10000000
01000000
00000000
,
00100000
00000000
00100000
00000000
00000000
00010000
00001000
00000000
,
00000010
00000000
00000010
00000000
00000000
00000001
00000100
00000000
,
00001000
00101000
00010000
00011000
,
00100000
00000000
00100000
00000000
00010000
01000000
10000000
00000000
,
00100000
00000000
10000000
01000000
00010000
00001000
00010000
00000000
,
00000010
00000000
00000010
00000000
00001000
00000100
00000001
00000000
,
00000010
00000000
00000001
00000100
00001000
00010000
00001000
00000000
,
01000000
00000000
01100000
00000000
00100000
10000000
01000000
00000000
,
00100000
00000000
00010000
00001000
00010000
00000100
00000010
00000000
,
00000001
00000100
00001000
00000000
00000100
00001000
00010000
00000000
,
00100000
01100000
11000000
10010000
,
00020000
01000000
00100000
01030000
,
00001000
00010000
00001000
00000000
00000100
00000000
00000001
00000000
,
00002000
00000100
00000010
00003100
,
00000100
00000010
00000001
00000000
00001000
00010000
00100000
10000000
,
00000000
00000000
00000000
00000000
;

//---------------dance-double - ----------------
#NOTES:
     dance-double:
     :
     Hard:
     9:
     0.408383,0.453828,0.327257,0.279131,0.038501,297.000000,263.000000,34.000000,29.000000,0.000000,0.000000,0.408383,0.453828,0.327257,0.279131,0.038501,297.000000,263.000000,34.000000,29.000000,0.000000,0.000000:
00000000
00000000
00000000
00000000
,
00000000
00000000
00000000
00000000
,
00000000
00000000
00000000
00000000
,
00020000
00130000
20000000
31000000
,
00020000
00031000
00000200
00000301
,
00000020
00001030
00020000
01030000
,
20000000
30100000
00010000
00011000
,
00001000
00000000
00000100
00000000
00000101
00000000
00000010
00000001
,
00000100
00001000
00101000
00010000
,
00010000
00000000
01000000
00000000
11000000
00000000
00100000
10000000
,
01000000
00010000
00010010
00001000
,
00001000
00000000
00000001
00001000
00010000
00000000
00001000
00000000
,
00001000
00000000
00000001
00001000
00010000
00000000
00001000
00000000
,
00001100
00010000
00001000
00100000
,
01000000
10000000
10000000
01000000
00010000
00001000
00000100
00000000
,
00010000
00000000
01000000
00000000
11000000
00000000
00100000
10000000
,
01000000
00010000
00010010
00001000
,
00001000
00000000
00000100
00000000
00000101
00000000
00000010
00000001
,
00000100
00001000
00101000
00010000
,
00010000
00000000
10000000
00010000
00001000
00000000
00010000
00000000
,
00010000
00000000
10000000
00010000
00001000
00000000
00010000
00000000
,
01010000
00001000
00010000
00000010
,
00000100
00000001
00000001
00000100
00001000
00010000
01000000
00000000
,
10010000
00000000
00100000
10000000
01000000
00100000
00010000
00000000
,
00101000
00000000
00010000
00001000
00000100
00000001
00000010
00000000
,
00001001
00000000
00000100
00000001
00000010
00000100
00001000
00000000
,
00010100
00000000
00001000
00010000
00100000
10000000
01000000
00000000
,
10010000
00000000
01000000
10000000
00100000
01000000
00010000
00000000
,
01001000
00000000
00010000
00001000
00000010
00000001
00000100
00000000
,
00001001
00000000
00000010
00000001
00000100
00000010
00001000
00000000
,
00010010
00011000
01001000
01100000
,
20000000
00000000
00000000
00020000
00000000
00000000
30030000
00000000
,
02000000
00000000
00000000
00200000
00000000
00000000
03300000
00000000
,
00020000
00000000
00000000
00000200
00000000
00000000
00030300
00000000
,
00002000
00000000
00000000
00000002
00000000
00000000
00003003
00000000
,
00000020
00000000
00000000
00000100
00000000
00000100
00000030
00000100
,
00020000
00000000
00000000
00002000
00000000
00000000
00033000
00000000
,
02000000
00000000
00000000
00100000
00000000
00100000
03000000
00100000
,
20000000
00000000
00000000
00020000
00000000
00000000
30030000
00000000
,
00020000
01030000
20000000
30100000
,
00020000
00031000
00000020
00000031
,
00000200
00001300
00020000
00130000
,
20000000
31000000
00020000
00031000
,
00001000
00000100
00000010
00000000
00000101
00000000
00001000
00000000
,
00001000
00000100
00010000
00000000
00100000
00000000
10000000
00000000
,
00010000
01000000
00100000
00000000
11000000
00000000
00010000
00000000
,
00010000
00100000
00001000
00000000
00011000
00000000
00011000
00000000
,
00010000
00000000
00000000
00010000
00000000
00000000
00010000
00000000
00000000
00000000
01000000
00000000
01000000
00000000
00000000
00000000
,
10000000
00000000
00000000
10000000
00000000
00000000
10000000
00000000
00000000
00000000
00100000
00000000
00100000
00000000
00000000
00000000
,
00010000
00000000
00000000
00010000
00000000
00000000
00001000
00000000
00000000
00000000
00001000
00000000
00001000
00000000
00000000
00000000
,
00000010
00000000
00000000
00000010
00000000
00000000
00000001
00000000
00000000
00000000
00000100
00000000
00000001
00000000
00000000
00000000
,
00000100
00000000
00000000
00000001
00000000
00000000
00000010
00000000
00000010
00000000
00000100
00000000
00001000
00000000
00000000
00000000
,
00010000
00000000
00000000
00100000
00000000
00000000
01000000
00000000
00100000
00000000
00010000
00000000
10000000
00000000
00000000
00000000
,
00100000
00000000
00000000
01000000
00000000
00000000
00010000
00000000
00100000
00000000
00001000
00000000
00010000
00000000
00000000
00000000
,
00000110
00001001
00000110
00010100
,
00001000
00000000
00100000
00010000
01000000
00100000
10000000
00000000
,
01100000
10010000
01100000
10010000
,
00100000
00000000
00001000
00010000
00001000
00000100
00001000
00000000
,
00000001
00000000
00000100
00000000
00001000
00000000
00010000
00000000
00100000
00000000
10000000
00000000
01000000
00000000
00010000
00001000
,
00000000
00000000
00000000
00000000
;

//---------------dance-single - ----------------
#NOTES:
     dance-single:
     :
     Challenge:
     15:
     0.635263,0.794199,0.067376,0.182879,0.736327,462.000000,455.000000,7.000000,19.000000,236.000000,0.000000,0.635263,0.794199,0.067376,0.182879,0.736327,462.000000,455.000000,7.000000,19.000000,236.000000,0.000000:
// measure 0
0000
0000
0000
0000
,  // measure 1
0000
0000
0000
0000
,  // measure 2
0000
0000
0000
0000
,  // measure 3
1000
0100
0010
0100
1000
0100
0010
0100
1000
0100
0010
0100
1000
0000
MMMM
0000
,  // measure 4
0010
0100
0001
0100
0010
0100
0001
0100
0010
0100
0001
0100
0010
0000
MMMM
0000
,  // measure 5
0001
0010
0100
0010
0001
0010
0100
0010
0001
0010
0100
0010
0001
0000
MMMM
0000
,  // measure 6
0100
0001
0100
0010
0100
0001
0100
0010
0100
0001
0100
0010
0100
0000
MMMM
0000
,  // measure 7
0020
0000
1030
0001
0100
0000
0001
0010
,  // measure 8
MMMM
0000
1000
0000
MMMM
0000
0010
0000
MMMM
0000
0001
0010
0100
0000
MMMM
0000
,  // measure 9
2000
0000
3001
0010
0100
0000
1000
0100
,  // measure 10
MMMM
0000
0010
0000
MMMM
0000
0001
0000
MMMM
0000
0100
0010
1000
0000
MMMM
0000
,  // measure 11
0200
0000
0310
0001
0010
0000
MMMM
0000
,  // measure 12
0002
0000
0103
0010
1000
0000
MMMM
0000
,  // measure 13
1010
0000
1000
0100
MMMM
0100
MMMM
0001
,  // measure 14
MMMM
0000
0001
0000
MMMM
0000
2000
0000
0000
0000
3010
0001
1000
0000
0001
0000
,  // measure 15
0010
0000
0001
0100
0010
0000
1000
0000
0100
0000
1000
0010
0100
0000
0001
0000
,  // measure 16
MMMM
0000
0100
0010
0001
0000
0100
0010
0001
0000
0100
0010
0001
0010
0100
1000
,  // measure 17
0010
0000
1000
0010
0100
0000
0001
0000
1000
0000
0100
0010
0001
0000
1000
0000
,  // measure 18
MMMM
0000
0001
0010
0100
0000
0001
0010
0100
0000
0001
0010
0100
0010
0001
0100
,  // measure 19
0020
0000
1000
0100
1030
0000
MMMM
0000
,  // measure 20
0020
0000
0100
0001
0130
0000
MMMM
0000
,  // measure 21
0200
0000
0001
0010
0301
0000
0010
1000
,  // measure 22
MMMM
0000
1100
0000
0000
0000
1010
0000
MMMM
0000
0010
0001
0100
0010
1000
0001
,  // measure 23
0100
0000
0000
0100
0001
0000
1000
0001
1000
0000
0000
0000
MMMM
0000
0000
0000
,  // measure 24
0010
0000
0010
0100
0010
0000
1000
0001
1000
0000
0000
0000
MMMM
0000
0000
0000
,  // measure 25
0100
0000
0000
0100
0001
0000
1000
0100
1000
0000
0000
1000
0010
0000
0001
0000
,  // measure 26
MMMM
0000
0001
0000
MMMM
0000
0001
0000
MMMM
0000
0001
0010
0100
1000
0010
0000
,  // measure 27
0100
0000
0000
0100
0001
0000
1000
0100
0010
0000
0000
0000
MMMM
0000
0000
0000
,  // measure 28
0100
0000
0100
0010
0100
0000
0001
0010
0100
0000
0000
0000
MMMM
0000
0000
0000
,  // measure 29
0001
0000
1000
0100
0010
0000
0100
0010
0001
0000
0000
0000
0001
0000
0100
0000
,  // measure 30
MMMM
0000
0000
0000
0000
0000
0100
0000
0000
0000
0000
0000
MMMM
0000
0000
0000
0000
0000
0100
0000
0000
0000
0000
0000
MMMM
0000
0000
0000
0000
0000
0100
0000
0000
0010
0000
0000
0001
0000
0010
0000
0100
0000
1000
0000
0100
0000
0010
0000
,  // measure 31
0002
0000
0003
MMMM
,  // measure 32
0200
0000
0300
MMMM
,  // measure 33
2000
0000
3000
MMMM
,  // measure 34
0020
0000
0030
MMMM
,  // measure 35
0002
0010
0000
0100
0000
1003
0000
0200
,  // measure 36
0001
0010
0000
2000
0000
0000
3300
0000
,  // measure 37
0020
1000
0000
0100
0000
0031
0000
2000
,  // measure 38
0010
0000
0000
0000
0000
0000
0000
0000
0000
0000
0000
0000
0000
0000
0000
0000
0000
0000
0000
0000
0000
0000
0000
0000
0100
0000
0000
0000
0000
0000
0000
0000
0000
0000
0000
0000
0000
0000
0000
0000
0000
0000
0000
0000
0000
0000
0000
0000
0000
0000
0000
0000
0000
0000
0000
0000
0000
0000
0000
0000
0000
0000
0000
0000
0000
0000
0000
0000
0000
0000
0000
0000
0002
3003
0000
0000
0000
0000
0000
0000
0000
0000
0000
0000
0000
0000
0000
0000
0000
0000
0000
0000
0000
0000
0000
0000
0010
0000
0000
0000
0000
0000
0000
0000
0000
0000
0000
0000
0001
0000
0000
0000
0000
0000
0000
0000
0000
0000
0000
0000
0010
0000
0000
0000
0000
0000
0000
0000
0000
0000
0000
0000
0001
0000
0000
0000
0000
0000
0000
0000
0000
0000
0000
0000
0010
0000
0000
0000
0000
0000
0000
0000
0000
0000
0000
0000
0100
0000
0000
0000
0000
0000
0000
0000
0000
0000
0000
0000
1000
0000
0000
0000
0000
0000
0000
0000
0000
0000
0000
0000
0100
0000
0000
0000
0000
0000
0000
0000
0000
0000
0000
0000
,  // measure 39
1000
0000
0000
0100
1000
0000
0100
1000
0010
0100
0001
0100
0010
0000
MMMM
0000
,  // measure 40
1000
0000
0000
0100
0010
0000
0001
0010
0100
0010
1000
0100
0010
0000
MMMM
0000
,  // measure 41
0010
0000
0000
0001
0100
0000
0010
1000
0100
0010
0001
0100
0010
0000
MMMM
0000
,  // measure 42
0100
0000
0000
0001
0100
0000
0010
1000
0100
1000
0010
0100
0001
0000
MMMM
0000
,  // measure 43
0010
0000
0000
0100
0001
0000
1000
0100
0010
0001
0010
0100
1000
0000
MMMM
0000
,  // measure 44
0010
0000
0000
1000
0100
0000
0001
0010
0100
1000
0100
0010
0001
0000
MMMM
0000
,  // measure 45
0010
0000
0000
0100
0010
0000
1000
0001
0100
0010
1000
0100
0010
0000
MMMM
0000
,  // measure 46
0001
0000
0010
0100
0000
0100
1000
0000
0200
0000
0300
0000
MMMM
0000
MMMM
0000
,  // measure 47
1000
0100
0010
0100
1000
0100
0010
0100
1000
0100
0010
0100
1000
0000
MMMM
0000
,  // measure 48
0010
0001
0100
0001
0010
0001
0100
0001
0010
0001
0100
0001
0010
0000
MMMM
0000
,  // measure 49
0001
0010
0100
0010
0001
0010
0100
0010
0001
0010
0100
0010
0001
0000
MMMM
0000
,  // measure 50
0100
0010
0001
0010
0100
1000
0100
0010
0100
0010
0001
0010
0100
0000
MMMM
0000
,  // measure 51
1000
0010
0001
0010
1000
0100
0010
0001
1000
0100
0001
0100
1000
0000
MMMM
0000
,  // measure 52
0001
0010
0100
1000
0001
0100
1000
0100
0001
0010
1000
0010
0001
0000
MMMM
0000
,  // measure 53
0100
0010
1000
0001
0010
1000
0100
0010
0001
0100
1000
0010
0100
0000
MMMM
0000
,  // measure 54
0110
0000
0110
MMMM
0110
0000
0110
MMMM
,  // measure 55
1000
0000
0000
1000
0100
0000
0010
0000
0001
0010
0001
0000
MMMM
0000
0000
0000
,  // measure 56
0001
0000
0000
0001
0010
0000
0100
0000
1000
0100
1000
0000
MMMM
0000
0000
0000
,  // measure 57
0010
0000
0000
0010
0100
0000
0001
0000
1000
0100
0010
0000
MMMM
0000
0000
0000
,  // measure 58
0100
0001
0100
0001
1000
0100
1000
0100
0010
0001
0010
0001
0100
0000
0010
0100
;
