#TITLE:華爛漫 -Flowers-;
#SUBTITLE:;
#ARTIST:TЁЯRA;
#TITLETRANSLIT:Hana Ranman -Flowers-;
#SUBTITLETRANSLIT:;
#ARTISTTRANSLIT:;
#GENRE:;
#CREDIT:;
#BANNER:Hana Ranman -Flowers-.png;
#BACKGROUND:Hana Ranman -Flowers--bg.png;
#LYRICSPATH:;
#CDTITLE:;
#MUSIC:Hana Ranman -Flowers-.ogg;
#OFFSET:0.000000;
#SAMPLESTART:88.497002;
#SAMPLELENGTH:15.000000;
#SELECTABLE:YES;
#DISPLAYBPM:160.000000;
#BPMS:0.000000=159.699997
,4.000000=160.000000
;
#STOPS:168.000000=1.125000
;
#BGCHANGES:;
#KEYSOUNDS:;
#ATTACKS:;

//---------------dance-single - ----------------
#NOTES:
     dance-single:
     :
     Beginner:
     3:
     0.165344,0.188194,0.018519,0.000000,0.000000,125.000000,123.000000,2.000000,0.000000,0.000000,0.000000,0.165344,0.188194,0.018519,0.000000,0.000000,125.000000,123.000000,2.000000,0.000000,0.000000,0.000000:
0000
0000
0000
0000
,
0000
0000
0000
0000
,
0000
0000
0000
0000
,
0000
0000
0000
0000
,
0000
0000
0000
0000
,
0000
0000
0000
0000
,
0001
0000
1000
0000
,
0001
0000
0100
0000
,
0010
0000
0100
0000
,
1000
0000
0001
0000
,
0100
0000
1000
0000
,
0010
0000
0010
0000
,
0010
0000
0010
0000
,
0100
0000
0100
0000
,
0001
0000
0100
0000
,
1000
0000
0001
0000
,
0100
0000
0001
0000
,
1000
0000
1000
0000
,
0010
0010
0000
0100
,
0000
0010
0000
1000
,
0000
0010
0000
0100
,
0000
0010
0000
0000
,
1000
1000
0000
0001
,
0000
1000
0000
0001
,
0000
0100
0000
0010
,
0000
0000
0000
0000
,
0100
0000
0100
0000
,
0001
0000
0100
0000
,
0001
0000
0001
0000
,
0100
0000
0010
0000
,
1000
0000
1000
0000
,
0001
0000
1000
0000
,
0010
0000
0010
0000
,
0010
0000
0001
0000
,
0010
0000
0100
0000
,
0010
0000
0100
0000
,
1000
0000
0100
0000
,
0001
0000
0010
0000
,
1000
0000
0100
0000
,
0001
0000
1000
0000
,
0010
0000
0010
0000
,
0010
0000
0001
0000
,
0000
0010
0000
0001
,
0000
1000
0000
0001
,
0000
0001
0000
0100
,
0000
0010
0000
0001
,
0000
1000
0000
0001
,
0000
0001
0000
0010
,
0000
1000
0000
0010
,
0000
0100
0000
0001
,
0000
0010
0000
0010
,
0000
0010
0000
0100
,
0000
0100
0000
0100
,
0000
1000
0000
0100
,
0000
1000
0000
1000
,
0000
0100
0000
0010
,
0000
0100
0000
0100
,
0000
0001
0000
0010
,
0000
0010
0010
0000
,
0100
0000
0001
0000
,
1000
0000
0100
0000
,
0100
0000
1000
0000
,
1001
0000
0100
0000
,
0010
0000
1000
0000
,
0001
0000
0010
0000
,
0010
0000
1000
0000
,
1001
0000
0000
1000
,
0000
0001
0000
0010
;

//---------------dance-single - ----------------
#NOTES:
     dance-single:
     :
     Easy:
     5:
     0.289683,0.313657,0.074074,0.055556,0.000000,219.000000,211.000000,8.000000,6.000000,0.000000,0.000000,0.289683,0.313657,0.074074,0.055556,0.000000,219.000000,211.000000,8.000000,6.000000,0.000000,0.000000:
0000
0000
0000
0000
,
0000
0000
0000
0000
,
0000
0000
0000
0000
,
0000
0000
0000
0000
,
0000
0000
0000
0000
,
0000
0000
0000
0000
,
0001
0000
1000
0000
,
0001
0010
0100
0000
,
0010
0000
0100
0000
,
1000
0100
0001
1001
,
0100
0010
1000
0001
,
0010
0100
0010
0000
,
0010
0001
0010
1000
,
0100
0001
0100
0000
,
0001
1000
0100
0010
,
1000
0010
0001
0000
,
0100
0010
0001
0010
,
1000
0100
1000
0000
,
0010
0010
0100
0100
,
0001
0010
0001
1000
,
0010
0010
0100
0100
,
1000
0010
0100
0000
,
1000
1000
0001
0001
,
0100
1000
0010
0001
,
0100
0100
0010
0010
,
2002
0000
0000
3003
,
0100
1000
0100
1000
,
0001
0010
0100
0000
,
0001
1000
0001
1000
,
0100
0001
0010
0000
,
1000
0010
1000
0010
,
0001
0100
1000
0000
,
0010
0100
0010
0100
,
0010
1000
0001
1001
,
0020
0030
0200
0300
,
0010
0001
0100
0000
,
2000
3000
0200
0300
,
0001
1000
0010
0000
,
1000
0001
0100
1000
,
0001
0010
1000
0000
,
0010
0100
0010
0001
,
0010
0100
0001
1001
,
0000
0010
0000
0001
,
0000
1000
0100
0001
,
0000
0001
0000
0100
,
0000
0010
1000
0001
,
0000
1000
0010
0001
,
1000
0001
0100
0010
,
0000
1000
0100
0010
,
0001
0100
1000
0001
,
1001
0010
0001
0010
,
0001
0010
1000
0100
,
0000
0100
0001
0100
,
0001
1000
0010
0100
,
0000
1000
0001
1000
,
0001
0100
1000
0010
,
0000
0100
0010
0100
,
0010
0001
0100
0010
,
1001
0010
0010
0100
,
0100
0001
0001
1000
,
1000
0001
0100
1000
,
0100
0001
1000
0010
,
1001
0100
0100
0010
,
0010
1000
1000
0001
,
0001
1000
0010
0001
,
0010
0100
1000
0001
,
1001
0100
0000
1000
,
0000
0001
0000
0010
;

//---------------dance-single - ----------------
#NOTES:
     dance-single:
     :
     Medium:
     7:
     0.414021,0.439120,0.379630,0.009259,0.000000,313.000000,272.000000,41.000000,1.000000,0.000000,0.000000,0.414021,0.439120,0.379630,0.009259,0.000000,313.000000,272.000000,41.000000,1.000000,0.000000,0.000000:
0000
0000
0000
0000
,
0000
0000
0000
0000
,
0000
0000
0000
0000
,
0000
0000
0000
0000
,
0000
0000
0000
0000
,
0000
0000
0000
0000
,
0001
0100
1000
0010
,
0001
0000
0100
1000
0010
0000
0000
0000
,
0100
0010
1000
0100
,
1000
0000
0010
0001
0100
0000
1001
0000
,
0010
0100
1000
0001
,
0100
0000
0010
0001
0100
0000
0000
0000
,
0100
0001
0100
1000
,
0010
0000
1000
0001
0010
0000
0000
0000
,
0001
1000
0010
0100
,
1000
0000
0100
0001
1000
0000
0000
0000
,
0010
0100
0001
0100
,
1000
0000
0010
1000
0010
0000
0001
0000
,
0110
1001
0100
0010
,
0001
0000
0100
0010
0001
0000
1000
0000
,
0110
1001
0001
0010
,
1000
0000
0100
0001
0010
0000
0000
0000
,
1001
0110
1000
0100
,
0001
0000
1000
0001
0100
0000
0010
0000
,
1000
0000
0100
0000
0001
0100
0010
0000
,
1002
0000
0010
0103
,
0010
1100
0010
0101
,
0010
0000
0100
0001
0010
0000
0100
0000
,
0001
1100
0001
1100
,
0010
0000
0001
1000
0010
0000
0100
0000
,
1000
0011
1000
0011
,
0100
0000
0010
0100
1000
0000
0010
0000
,
1000
0110
0001
0110
,
0001
0000
1000
0001
0010
0000
1001
0000
,
0100
1000
0010
0001
,
0110
1001
0110
0000
,
0100
0001
0010
0100
,
1001
1100
0101
0000
,
0010
0000
0100
0000
1000
0010
1000
0000
,
0001
0000
0100
0001
1000
0000
0001
0000
,
0100
0000
0010
0001
0010
0000
0001
0000
,
0100
0000
0010
1000
0001
0000
0110
0000
,
0000
0010
0100
0010
,
0000
1000
1000
0000
0010
0000
0001
0000
,
1000
0001
0100
0010
,
0000
0100
0100
0000
1000
0000
0001
0000
,
0110
0000
1000
0000
0100
0010
0001
0000
,
1000
0000
0001
0000
0010
0001
0100
0000
,
0010
1000
0010
0100
,
0001
0000
0010
0000
1000
0010
0100
0000
,
1001
0100
0011
0100
,
0011
0000
0100
0000
1000
0100
0010
0000
,
1001
0010
0101
0010
,
0101
0000
1000
0000
0100
1000
0010
0000
,
0011
1000
0101
1000
,
0101
0000
0010
0000
1000
0001
0100
0000
,
1010
0001
0110
1000
,
0110
0000
0001
0000
0010
1000
0100
0000
,
1001
0000
0100
0000
0010
0000
0100
1000
,
0001
0000
0010
0000
1000
0000
0010
0100
,
0010
0000
0100
0000
0001
0000
1000
0100
,
0001
0010
1000
0001
,
0110
0000
0001
0000
0010
0000
0100
1000
,
0001
0000
0100
0000
1000
0000
0100
0010
,
0001
0000
1000
0000
0100
0000
0001
1000
,
0010
0001
1000
0110
,
1001
0000
0010
0000
0100
0000
1000
0001
,
0010
0000
0100
0000
0010
1000
0100
0000
;

//---------------dance-single - ----------------
#NOTES:
     dance-single:
     :
     Hard:
     11:
     0.500000,0.470486,0.277778,0.009259,0.046296,378.000000,348.000000,30.000000,1.000000,0.000000,0.000000,0.500000,0.470486,0.277778,0.009259,0.046296,378.000000,348.000000,30.000000,1.000000,0.000000,0.000000:
0000
0000
0000
0000
,
0000
0000
0000
0000
,
0000
0000
0000
0000
,
0000
0000
0000
0000
,
0000
0000
0000
0000
,
0000
0000
0000
0000
,
1000
0000
0010
0000
0001
0100
0001
0000
,
1000
0000
0010
0001
0100
0000
1000
0000
,
0010
1000
0100
0000
0010
0001
0100
0000
,
0001
0010
0100
1000
0010
0000
1001
0000
,
0100
0000
0010
0100
0001
0000
1000
0100
,
0000
0010
0100
1000
0010
0000
0101
0000
,
0010
0000
1000
0001
0010
0000
0001
0100
,
0000
0010
0001
1000
0100
0000
0110
0000
,
1000
0000
0001
1000
0100
0000
0010
0001
,
0000
1000
0010
1000
0001
0000
0011
0000
,
0100
0000
0010
0100
1000
0000
0010
0001
,
0000
1000
0100
0001
0100
0000
1001
0000
,
0110
0000
1001
0000
0010
0001
0100
0000
,
1100
0000
0010
0100
1000
0000
0001
0000
,
1010
0000
0101
0000
1000
0001
0100
0000
,
1001
0000
0010
1000
0100
0000
1000
0000
,
0011
0000
1100
0000
0001
0100
0010
0000
,
1100
0000
0001
1000
0010
0000
0100
0000
,
1001
0000
0110
0000
1000
0001
0010
0000
,
2100
0000
0010
3001
,
0110
0000
1000
0010
0100
0000
0001
0010
,
0100
0000
0000
1000
0010
0000
1000
0000
0100
0000
0000
0000
0010
0000
0100
0000
,
1000
0000
0010
0100
1000
0000
0010
0001
,
0100
0000
0000
1000
0100
0000
0001
0000
0010
0000
0000
0000
0100
0000
1000
0000
,
0001
0000
0100
1000
0001
0000
1000
0100
,
0010
0000
0000
0100
1000
0000
0001
0000
0100
0000
0000
0000
1000
0000
0100
0000
,
0001
0000
1000
0100
0001
0000
0100
1000
,
0010
0000
0000
1000
0001
0000
0100
0000
0010
0000
0000
0000
1001
0000
0000
0000
,
0010
0000
0001
0000
0100
0001
1000
0000
,
0110
0000
1000
0010
0100
0000
0000
0000
,
0010
0000
1000
0000
0100
0001
0100
0000
,
1001
0000
0010
1000
0100
0000
0011
0000
,
1010
0000
0100
0001
0010
0000
0001
1000
,
0010
0100
0010
1000
0100
0000
0001
0000
,
0010
0000
0100
1000
0010
0000
1000
0001
,
0010
0001
0100
0001
1000
0000
0110
0000
,
0001
0000
0100
0000
0000
0010
0100
0000
,
0000
0001
0000
0010
0000
0100
1000
0000
,
0001
0100
1000
0000
0000
0010
0100
0000
,
0000
1000
0000
0010
0000
0001
1000
0000
,
0010
0100
0001
0000
0010
0100
1000
0000
,
0001
0000
0010
0000
1000
0000
0000
0010
0100
0000
1000
0000
0010
0000
0000
0000
,
0100
0001
0010
0000
0100
1000
0010
0000
,
1000
0000
0010
0000
0100
0000
0000
1000
0001
0000
0100
0000
0010
0000
0000
0000
,
1001
0000
0010
0100
1000
0000
0010
0100
,
1000
0000
0000
0000
0010
0000
0000
1000
0001
0000
0010
0000
0100
0000
0000
0000
,
0101
0000
0010
1000
0001
0000
0010
1000
,
0001
0000
0000
0000
0100
0000
0000
0001
0010
0000
0001
0000
0100
0000
0000
0000
,
1010
0000
0001
1000
0100
0000
0001
1000
,
0100
0000
0000
0000
0010
0000
0000
0100
0001
0000
1000
0000
0010
0000
0000
0000
,
0101
0000
1000
0010
0100
0000
1000
0010
,
0100
0000
0000
0000
0010
0000
0000
1000
0100
0000
0001
0000
0100
0000
0000
0000
,
1001
0000
0010
0000
0100
0010
0000
0001
,
1000
0010
0100
0000
0001
0100
0000
0010
,
0100
0001
0010
0000
1000
0010
0000
0001
,
1000
0100
1000
0000
0001
0000
0110
0000
,
0001
0100
0010
0000
0010
0100
0000
0001
,
1000
0010
1000
0000
0001
0010
0000
0100
,
1000
0010
0001
0000
0010
1000
0000
0001
,
0100
1000
0100
0000
0001
0000
1000
0010
,
1000
0000
0001
0000
0010
1000
0001
1000
,
0100
1000
0010
0001
0100
0001
0010
0000
;

//---------------dance-double - ----------------
#NOTES:
     dance-double:
     :
     Easy:
     4:
     0.248677,0.313657,0.037037,0.018519,0.000000,188.000000,184.000000,4.000000,2.000000,0.000000,0.000000,0.248677,0.313657,0.037037,0.018519,0.000000,188.000000,184.000000,4.000000,2.000000,0.000000,0.000000:
00000000
00000000
00000000
00000000
,
00000000
00000000
00000000
00000000
,
00000000
00000000
00000000
00000000
,
00000000
00000000
00000000
00000000
,
00000000
00000000
00000000
00000000
,
00000000
00000000
00000000
00000000
,
00001000
00000000
00000001
00000000
,
00001000
00000010
00000100
00000000
,
00000010
00000000
00000100
00000000
,
00000001
00000100
00001000
00000000
,
00010000
00000000
01000000
00000000
,
00100000
10000000
01000000
00000000
,
00100000
00000000
10000000
00000000
,
01000000
00010000
00001000
00000000
,
00000100
00000000
00000001
00000000
,
00001000
00000010
00000001
00000000
,
00000100
00000000
00001000
00000000
,
00010000
00001000
00010000
00000000
,
00100000
00100000
01000000
00000000
,
00010000
00100000
00010000
00000000
,
01000000
01000000
00100000
00000000
,
01000000
00001000
00010000
00000000
,
00000100
00000001
00001000
00000000
,
00000100
00000001
00000010
00000000
,
00001000
00000000
00010000
00000000
,
00022000
00000000
00000000
00033000
,
00010000
00010000
00100000
00100000
,
01000000
00001000
00010000
00000000
,
00001000
00001000
00000100
00000100
,
00000001
00001000
00000100
00000000
,
00000001
00000001
00000010
00000010
,
00000100
00010000
00001000
00000000
,
01000000
01000000
00100000
00100000
,
10000000
00010000
10000000
10010000
,
00100000
00000000
10000000
00000000
,
01000000
00010000
00001000
00000000
,
00000010
00000000
00000100
00000000
,
00001000
00000001
00001000
00000000
,
00000001
00000001
00000001
00000001
,
00000100
00001000
00010000
00000000
,
00100000
00100000
01000000
01000000
,
00010000
10000000
00010000
10010000
,
00000000
00100000
00000000
00010000
,
00000000
00001000
00010000
00001000
,
00000000
00000010
00000000
00000100
,
00000000
00001000
00010000
01000000
,
00000000
00010000
00000000
00100000
,
00000000
10000000
01000000
00100000
,
00000000
00010000
00000000
00100000
,
00000000
00001000
00010000
00001000
,
00000000
00000010
00000010
00001000
,
00001000
00000010
00000001
00000100
,
00000000
00001000
00001000
00000100
,
00000100
00000001
00000010
00001000
,
00000000
00010000
00010000
00001000
,
00001000
00010000
01000000
00100000
,
00000000
10000000
10000000
00010000
,
00010000
00100000
01000000
00100000
,
10010000
01000000
10000000
01000000
,
00000000
00010000
00001000
00000100
,
00000000
00000001
00001000
00000001
,
00000000
00000010
00000010
00001000
,
00001000
00010000
00001000
00010000
,
00000000
01000000
00010000
01000000
,
00000000
10000000
01000000
10000000
,
00000000
00010000
00001000
00000100
,
00000001
00000010
00000000
00000001
,
00000000
00001000
00000000
00000010
;

//---------------dance-double - ----------------
#NOTES:
     dance-double:
     :
     Medium:
     7:
     0.378307,0.407755,0.185185,0.009259,0.000000,286.000000,266.000000,20.000000,1.000000,0.000000,0.000000,0.378307,0.407755,0.185185,0.009259,0.000000,286.000000,266.000000,20.000000,1.000000,0.000000,0.000000:
00000000
00000000
00000000
00000000
,
00000000
00000000
00000000
00000000
,
00000000
00000000
00000000
00000000
,
00000000
00000000
00000000
00000000
,
00000000
00000000
00000000
00000000
,
00000000
00000000
00000000
00000000
,
10000000
01000000
00010000
00100000
,
10010000
01100000
10010000
00000000
,
00100000
00010000
00001000
00000100
,
00001001
00000110
00001001
00000000
,
00000010
00000100
00001000
00000001
,
00000100
00000000
00001000
00010000
01000000
00000000
00000000
00000000
,
00100000
01000000
00010000
00100000
,
10000000
00000000
00010000
00100000
01000000
00000000
00000000
00000000
,
01000000
00010000
00001000
00000100
,
00000010
00000000
00000100
00000001
00001000
00000000
00000000
00000000
,
00000100
00001000
00010000
01000000
,
00010000
00000000
00100000
00010000
01000000
00000000
00000000
00000000
,
00100000
00010000
00001000
00000010
,
00000001
00000000
00000100
00000010
00001000
00000000
00000001
00000000
,
00000010
00000100
00001000
00000001
,
00000100
00000000
00000010
00001000
00000100
00000000
00000000
00000000
,
00000001
00000100
00001000
00010000
,
00100000
00000000
01000000
00010000
10000000
00000000
00100000
00000000
,
00010000
01000000
10000000
01000000
,
20010000
00000000
00100000
31000000
,
00100000
00000000
01000000
10000000
00010000
00000000
10000000
00000000
,
01000000
00000000
00010000
00001000
00000100
00000000
00000000
00000000
,
00000010
00000001
00000100
00000000
00001000
00000000
00000001
00000000
,
00000100
00001000
00010000
00000000
01000000
00000000
00000000
00000000
,
00100000
00000000
01000000
10000000
00010000
00000000
10000000
00000000
,
01000000
00000000
00010000
00001000
00000100
00000000
00000000
00000000
,
00001000
00000000
00010000
00001000
00010000
00000000
01000000
00000000
,
10000000
00000000
00010000
01000000
00100000
00000000
10010000
00000000
,
01000000
00010000
00100000
10000000
,
00110000
00011000
00001100
00000000
,
00000100
00000001
00000010
00000001
,
00001100
00011000
00110000
00000000
,
00100000
00000000
01000000
00000000
10000000
00100000
01000000
00000000
,
00010000
00000000
01000000
00010000
10000000
00000000
01000000
00000000
,
00100000
00000000
10000000
00010000
01000000
00000000
00010000
00000000
,
00100000
00000000
01000000
00100000
00010000
00000000
01100000
00000000
,
00000000
00000001
00000100
00001000
,
00000000
00010000
00000000
00000000
00100000
00000000
10000000
00000000
,
00000000
00010000
00001000
00000100
,
00000000
00000010
00000000
00000000
00001000
00000000
00000001
00000000
,
00000110
00000000
00000001
00000000
00000100
00000000
00001000
00010000
,
01000000
00000000
10000000
00000000
01000000
00000000
00010000
01000000
,
00010000
00100000
01000000
10000000
,
00100000
00000000
00010000
00000000
00001000
00010000
00001000
00000000
,
00011000
00000000
00000010
00000000
00000100
00000000
00000001
00001000
,
00000100
00000000
00000001
00000000
00000100
00001000
00010000
00000000
,
00000010
00001000
00010000
00000000
00000010
00001000
00010000
00000000
,
00000000
00000000
01000000
00000000
00010000
00001000
00010000
00000000
,
00100000
00010000
00001000
00000000
00100000
00010000
00001000
00010000
,
01000000
00000000
00100000
00000000
01000000
10000000
00010000
00000000
,
00000000
00000000
10000000
00000000
01000000
00100000
00010000
00000000
,
00001000
00000000
00000100
00000000
00000010
00000100
00000010
00000000
,
00001001
00000000
00000100
00000000
00000010
00000000
00000100
00000001
,
00001000
00000000
00000010
00000000
00000001
00000000
00000010
00000100
,
00001000
00000100
00001000
00000001
,
00000100
00001000
00010000
00001000
,
00011000
00000000
00100000
00000000
10000000
00000000
01000000
00010000
,
10000000
00000000
01000000
00000000
10000000
00000000
00100000
01000000
,
10000000
00010000
01000000
10000000
,
00100000
00010000
00001000
00010000
,
00011000
00001000
00000010
00000001
,
00000100
00001000
00010000
01000000
;

//---------------dance-double - ----------------
#NOTES:
     dance-double:
     :
     Hard:
     11:
     0.533069,0.533218,0.407407,0.046296,0.333333,403.000000,359.000000,44.000000,5.000000,0.000000,0.000000,0.533069,0.533218,0.407407,0.046296,0.333333,403.000000,359.000000,44.000000,5.000000,0.000000,0.000000:
00000000
00000000
00000000
00000000
,
00000000
00000000
00000000
00000000
,
00000000
00000000
00000000
00000000
,
00000000
00000000
00000000
00000000
,
00000000
00000000
00000000
00000000
,
00000000
00000000
00000000
00000000
,
00000001
00000000
00000010
00000000
00000100
00001000
00000010
00000000
,
00001000
00000000
00000001
00000100
00001000
00000000
00010000
00000000
,
00100000
00000000
01000000
00000000
00010000
10000000
01000000
00000000
,
00100000
00000000
01000000
10000000
00100000
00000000
10010000
00000000
,
01000000
00000000
00001000
00010000
00001000
00000000
00010000
00000010
,
00000000
00001000
00000100
00000000
00001000
00000000
00000010
00000000
,
00000100
00000000
00000001
00001000
00000010
00000000
00010000
00000100
,
00000000
00001000
00000010
00000000
00010000
00000000
00011000
00000000
,
00100000
00000000
00010000
10000000
01000000
00000000
00100000
00010000
,
00000000
10000000
00100000
00000000
01000000
00000000
00010000
00000000
,
10000000
00000000
01000000
00010000
00001000
00000000
00000100
00001000
,
00000000
00010000
01000000
00010000
00001000
00000000
00011000
00000000
,
00001010
00000011
00000101
00001100
,
00011000
00000000
00100000
00010000
01000000
00000000
00011000
00000000
,
00001010
00000011
00000101
00001100
,
00010000
00001000
00100000
00010000
01000000
00000000
10010000
00000000
,
11000000
01010000
00011000
00001010
,
00000011
00000000
00001000
00000100
00000010
00000000
00001001
00000000
,
00000101
00000000
00001100
00000000
00010000
00001000
00100000
00000000
,
01020000
00000000
10000000
00130000
,
11000000
00000000
00000000
00000000
00010000
00000000
00000000
00010000
01000000
00000000
00000000
01000000
00100000
00000000
00000000
00100000
,
10000000
00000000
00000000
10000000
01000000
00000000
00000000
01000000
00010000
00000000
00000000
00000000
00011000
00000000
00000000
00000000
,
00000100
00000000
00000000
00000100
00000001
00000000
00000000
00000001
00001000
00000000
00000000
00001000
00000010
00000000
00000000
00000010
,
00010000
00000000
00000000
00010000
00000100
00000000
00000000
00000100
00000010
00000000
00000000
00000000
00001001
00000000
00000000
00000000
,
00000010
00000000
00000000
00000010
00010000
00000000
00000000
00010000
00001000
00000000
00000000
00001000
00100000
00000000
00000000
00100000
,
00010000
00000000
00000000
00010000
01000000
00000000
00000000
01000000
00100000
00000000
00000000
00000000
10010000
00000000
00000000
00000000
,
01000000
00000000
00000000
01000000
00001000
00000000
00000000
00001000
00100000
00000000
00000000
00100000
00010000
00000000
00000000
00010000
,
10000000
00000000
00000000
10000000
01000000
00000000
00000000
01000000
00010000
00000000
00000000
00000000
00011000
00000000
00000000
00000000
,
00000010
00000100
00001000
00000000
00000010
00000100
00000001
00000000
,
00001100
00011000
00220000
00330000
,
01000000
00100000
10000000
00000000
01000000
00100000
00010000
00000000
,
00011000
00001010
00000202
00000303
,
00000010
00000001
00000010
00000000
00000100
00001000
00000100
00000000
,
00000010
00000000
00000100
00010000
00001000
00000000
01000000
00000000
,
00010000
10000000
00010000
00000000
01000000
00100000
01000000
00000000
,
00010000
10000000
01000000
00010000
00001000
00000000
00011000
00000000
,
00000010
00000000
00001000
00000000
00000000
00000100
00000010
00000000
,
00000000
00000001
00000000
00000100
00000000
00000010
00001000
00000000
,
00000100
00010000
00001000
00000000
00000000
00001000
00010000
00000000
,
00000000
00001000
00000000
00100000
00000000
00010000
01000000
00000000
,
00100000
10000000
01000000
00000000
00100000
00010000
01000000
00000000
,
00001000
00000000
00010000
00000000
00000010
00001000
00000100
00000000
,
00000010
00000000
00000001
00000000
00001000
00000100
00010000
00000000
,
00001000
00000000
00100000
00000000
00010000
00000000
00000000
10000000
00010000
00000000
01000000
00000000
00100000
00000000
00000000
00000000
,
10010000
00000000
00000000
00000000
00100000
00000000
00000000
00100000
00001000
00000000
00000000
00001000
00010000
00000000
00000000
00010000
,
00000100
00000000
00000000
00000100
00001000
00000000
00000000
00001000
00000001
00000000
00000000
00000001
00000010
00000000
00000000
00000000
,
00001001
00000000
00000000
00000000
00000100
00000000
00000000
00000100
00010000
00000000
00000000
00010000
00001000
00000000
00000000
00001000
,
00100000
00000000
00000000
00100000
00010000
00000000
00000000
00010000
10000000
00000000
00000000
10000000
01000000
00000000
00000000
00000000
,
10010000
00000000
00000000
00000000
00100000
00000000
00000000
00100000
01000000
00000000
00000000
01000000
00010000
00000000
00000000
00010000
,
00001000
00000000
00000000
00001000
00000010
00000000
00000000
00000010
00000001
00000000
00000000
00000001
00001000
00000000
00000000
00000000
,
00000110
00000000
00000000
00000000
00001000
00000000
00000000
00001000
00000001
00000000
00000000
00000001
00000100
00000000
00000000
00000100
,
00001000
00000000
00000000
00001000
00010000
00000000
00000000
00010000
01000000
00000000
00000000
01000000
10000000
00000000
00000000
00000000
,
01010000
00000000
00000000
00000000
00001000
00000000
00000000
00001000
00100000
00000000
00000000
00100000
00010000
00000000
00000000
00010000
,
01000000
00000000
00000000
01000000
00001000
00000000
00000000
00001000
00010000
00000000
00000000
00010000
00000010
00000000
00000000
00000010
,
00000100
00000000
00000000
00000100
00001000
00000000
00000000
00001000
00010000
00000000
00000000
00010000
01000000
00000000
00000000
01000000
,
10000000
00000000
00000000
10000000
00010000
00000000
00000000
00000000
01100000
00000000
00000000
00000000
10010000
00000000
00000000
00000000
,
01100000
00000000
00000000
00000000
00010000
00000000
00000000
00010000
10000000
00000000
00000000
10000000
00100000
00000000
00000000
00100000
,
00010000
00000000
00000000
00010000
00001000
00000000
00000000
00001000
00000010
00000000
00000000
00000010
00000001
00000000
00000000
00000001
,
00000100
00000000
00000000
00000100
00001000
00000000
00000000
00001000
00010000
00000000
00000000
00010000
01000000
00000000
00000000
01000000
,
10000000
00000000
00000000
10000000
00010000
00000000
01000000
00000000
00001000
00000000
00010000
00000000
00000010
00000000
00000000
00000000
,
00001001
00000000
00000100
00000000
00000010
00000001
00000100
00000000
,
00001000
00010000
01000000
10000000
00100000
00010000
00001000
00000000
;

//---------------dance-single - ----------------
#NOTES:
     dance-single:
     :
     Challenge:
     16:
     0.882275,0.944444,0.203704,0.333333,0.958333,667.000000,645.000000,22.000000,36.000000,0.000000,0.000000,0.882275,0.944444,0.203704,0.333333,0.958333,667.000000,645.000000,22.000000,36.000000,0.000000,0.000000:
// measure 0
0000
0000
0000
0000
,  // measure 1
0000
0000
0000
0000
,  // measure 2
0000
0000
0000
0000
,  // measure 3
0000
0000
0000
0000
,  // measure 4
0000
0000
0000
0000
,  // measure 5
0000
0000
0000
0000
0000
0000
2002
3003
,  // measure 6
0001
0000
0000
0001
0010
0000
0000
0010
0100
0000
0000
0100
1000
0000
0000
1000
,  // measure 7
0010
0100
0001
1000
0100
0000
2002
3003
,  // measure 8
1000
0000
0000
1000
0100
0000
0000
0100
0010
0000
0000
0010
0001
0000
0000
0001
,  // measure 9
0100
0001
0100
1000
0100
0000
2002
3003
,  // measure 10
0002
0000
0000
0000
0013
0100
1000
0000
0200
0000
0000
0000
1300
0010
0100
0001
,  // measure 11
1000
0010
0100
0001
1000
0000
1001
0000
,  // measure 12
2000
0000
0000
0000
3100
0010
0001
0000
0020
0000
0000
0000
0031
0010
0100
1000
,  // measure 13
0010
0000
0100
0000
0001
0000
1000
0000
0001
0100
0010
0100
0001
0010
0100
0010
,  // measure 14
0002
0000
0000
0000
0013
0100
1000
0000
2000
0000
0000
0000
3010
0100
0001
1000
,  // measure 15
0100
0000
0010
0000
1000
0000
0001
0000
0100
0001
1000
0001
0100
1000
0010
1000
,  // measure 16
0200
0000
0000
0000
0310
1000
0001
0000
0020
0000
0000
0000
0031
1000
0100
0010
,  // measure 17
0001
0000
0010
0000
1000
0000
0100
0000
0010
0001
0100
0010
1000
0100
0010
0001
,  // measure 18
0100
0010
0001
0000
0100
0001
0010
0000
0100
0010
0001
0000
0100
0001
0010
0100
,  // measure 19
1000
0100
1000
0100
0001
0100
0001
0100
1000
0100
1000
0100
0001
0100
0001
0100
,  // measure 20
1000
0100
0010
0000
1000
0010
0100
0000
1000
0100
0010
0000
1000
0010
0100
0010
,  // measure 21
0001
0010
0001
0010
1000
0010
1000
0010
0001
0010
0001
0010
1000
0010
1000
0010
,  // measure 22
0100
0001
1000
0000
0010
1000
0001
0000
0100
0001
1000
0000
0010
1000
0001
1000
,  // measure 23
0010
1000
0001
1000
0001
1000
0001
1000
0001
1000
0001
1000
0001
1000
0001
1000
,  // measure 24
0002
0000
0000
0000
0103
0000
0010
0100
2000
0000
0000
0000
3100
0000
0000
0000
,  // measure 25
2200
0300
0100
3100
,  // measure 26
1000
0100
0010
0001
0100
0000
0001
0010
0100
1000
0100
0000
0010
1000
0100
0000
,  // measure 27
0010
0000
0001
1000
0010
0000
1000
0001
0010
0000
0100
0000
0110
0000
0100
0001
,  // measure 28
1000
0010
0100
0001
1000
0000
0001
0010
0100
1000
0010
0000
0100
0001
1000
0000
,  // measure 29
0010
0000
1000
0001
0010
0000
0001
1000
0010
0000
0100
0000
0110
0000
0010
0001
,  // measure 30
1000
0001
0100
0010
1000
0000
0010
1000
0100
0010
0001
0000
0100
0010
1000
0000
,  // measure 31
0100
0000
0001
0100
1000
0000
1000
0100
0001
0000
0100
0000
1100
0000
1000
0100
,  // measure 32
0010
0001
0100
0010
1000
0000
0010
1000
0001
1000
0100
0000
0010
0001
0100
0000
,  // measure 33
1000
0000
0100
0010
1000
0000
0010
1000
0100
0000
0010
0001
0100
0010
1000
0100
,  // measure 34
0020
0001
0032
0100
,  // measure 35
0203
1000
2300
0100
,  // measure 36
3200
0001
0302
0010
,  // measure 37
0023
0000
0000
0000
0130
0000
0010
0000
0100
0000
0000
0000
0100
0001
1000
0001
,  // measure 38
0100
0000
0010
0000
0001
0010
0100
1000
0100
0000
0010
0000
1000
0010
0100
0001
,  // measure 39
1000
0000
0010
1000
0100
0000
0010
0001
0100
0000
0001
0000
0100
1000
0100
0001
,  // measure 40
0010
0000
0001
0000
1000
0010
0100
0001
1000
0000
0001
0000
0010
0001
0100
0010
,  // measure 41
1000
0000
0100
0010
0001
0000
0001
0010
0100
0000
1000
0000
1100
0000
0000
0000
,  // measure 42
0202
0303
0012
0000
0000
0010
0013
0001
,  // measure 43
0100
0000
0010
0000
1000
0000
0010
0001
0100
0000
0010
1000
0100
0000
0010
0000
,  // measure 44
1010
1000
2100
0000
0000
0010
3010
1000
,  // measure 45
0100
0000
0010
0000
0001
0000
0100
0001
1000
0000
0010
1000
0001
0000
0010
0000
,  // measure 46
0001
0010
0001
0010
1200
0000
0000
0000
0000
0000
0001
0000
0301
0000
0100
0000
,  // measure 47
0010
0000
1000
0000
0100
0000
0010
1000
0100
0000
0010
0001
0100
0000
0010
0000
,  // measure 48
1000
0100
1000
0100
0021
0000
0000
0000
0000
0000
1000
0000
1030
0000
0010
0000
,  // measure 49
0001
0000
0100
0000
0010
1000
0010
0001
0010
1000
0010
0001
0010
0000
0000
0000
,  // measure 50
0010
0001
0010
1000
0010
0000
0100
0000
0010
1000
0010
0001
0010
0000
0100
0000
,  // measure 51
0010
1000
0100
0010
0001
0000
0010
1000
0100
0000
0010
0001
1000
0000
1001
0000
,  // measure 52
0001
0010
0001
0100
0001
0000
0100
0000
0001
0100
0001
0010
0001
0000
0100
0000
,  // measure 53
0001
0010
1000
0100
0010
0000
0001
0010
0100
0000
1000
0100
0010
0000
0110
0000
,  // measure 54
0100
0001
0100
1000
0100
0000
0010
0000
0100
1000
0100
0001
0100
0000
0010
0000
,  // measure 55
0100
1000
0001
0010
0100
0000
1000
0010
0100
0000
0001
0010
0100
0000
1100
0000
,  // measure 56
1000
0010
1000
0001
1000
0000
0100
0000
1000
0001
1000
0010
1000
0000
0100
0000
,  // measure 57
1000
0010
0100
0001
1000
0000
0010
1000
0100
0000
0010
0001
0100
0000
1001
0000
,  // measure 58
2002
0000
3003
0000
0001
0010
0100
0010
0001
0010
0100
0010
0001
0000
0100
0000
,  // measure 59
0001
0000
0010
0000
1000
0100
0010
0100
1000
0100
0010
0100
1000
0000
0100
0000
,  // measure 60
0010
0000
0001
0000
0010
1000
0010
0001
0010
1000
0010
0001
0010
0000
1000
0000
,  // measure 61
0001
0000
0010
0000
0100
0001
1000
0000
0010
1000
0001
0000
0010
0100
0001
0000
,  // measure 62
2002
0000
3003
0000
0001
0100
1000
0100
0001
0100
1000
0100
0001
0000
1000
0000
,  // measure 63
0100
0000
0010
0000
0001
0010
1000
0010
0001
0010
1000
0010
0001
0000
0010
0000
,  // measure 64
1000
0000
0010
0000
0100
0001
0010
0001
0100
0001
0010
0001
0100
0000
0010
0000
,  // measure 65
1000
0000
0100
0000
0010
1000
0100
0000
0010
0001
0100
0000
0010
1000
0001
0000
,  // measure 66
1001
0000
0000
0000
1000
0001
1000
0000
0001
1000
0001
0000
1000
0001
1000
0000
,  // measure 67
0001
1000
0001
1000
0010
0100
0010
0100
0001
0010
0100
1000
0020
0000
0000
0000
,  // measure 68
0030
0000
0000
0000
;
