#TITLE:호기심;
#SUBTITLE:;
#ARTIST:한스밴드;
#TITLETRANSLIT:HOGISIM;
#SUBTITLETRANSLIT:;
#ARTISTTRANSLIT:HANS BAND;
#GENRE:;
#CREDIT:;
#BANNER:HOGISIM.png;
#BACKGROUND:HOGISIM-bg.png;
#LYRICSPATH:;
#CDTITLE:;
#MUSIC:HOGISIM.mp3;
#OFFSET:1.275000;
#SAMPLESTART:53.602001;
#SAMPLELENGTH:15.000000;
#LASTBEATHINT:0.628008;
#SELECTABLE:YES;
#BPMS:0.000000=137.020004
;
#STOPS:124.500000=0.220000,
172.000000=0.220000
;
#BGCHANGES:;
#KEYSOUNDS:;
#ATTACKS:;

//---------------dance-single - ----------------
#NOTES:
     dance-single:
     :
     Easy:
     4:
     0.324018,0.429402,0.638598,0.044041,0.000000,206.000000,148.000000,58.000000,4.000000,0.000000,0.000000,0.324018,0.429402,0.638598,0.044041,0.000000,206.000000,148.000000,58.000000,4.000000,0.000000,0.000000:
0000
0000
0000
0000
,
0000
0000
0000
0000
,
0000
0000
0000
0000
,
0000
0000
0000
0000
,
0000
0000
0000
0000
,
0000
0000
0000
0000
,
0010
0010
0010
0010
,
1001
0000
0000
0000
,
1001
1001
0000
0000
,
0110
0110
0000
0000
,
0001
0001
1000
1000
,
0010
1001
0000
0000
,
1001
1001
0000
0000
,
0110
0110
0000
0000
,
0001
0001
1000
1000
,
0010
1001
0000
0000
,
0001
0100
1000
0100
,
0001
0100
1001
1100
,
1000
0100
0001
0100
,
1000
0100
1001
0101
,
0001
0101
1000
1100
,
0001
0101
1000
1100
,
0010
0010
0100
0100
,
0001
0110
0110
1001
,
1001
0100
1001
0100
,
1001
0100
1001
0100
,
0010
0010
0100
0100
,
0010
0100
0010
1001
,
0001
0101
1000
1100
,
0001
0101
1000
1100
,
0001
0001
1000
1000
,
1001
0000
0000
0000
0000
0000
0000
0010
,
0000
1001
0000
0000
0000
0000
0000
0100
,
0000
1001
0000
0000
0000
0000
0000
0001
,
0000
0101
0000
1000
0000
1100
0000
0010
,
0000
1001
0000
0000
0000
0000
0000
1001
,
0000
1001
0000
0000
0000
0000
0000
0110
,
0000
0110
0000
0000
0000
0000
0000
0100
,
0000
1001
0000
0100
0000
1001
0000
0101
,
0000
0101
0000
0000
0000
0000
0000
1000
,
0000
1000
0000
0001
0000
0001
0000
0010
,
0000
1000
0000
0100
0000
0001
0000
0010
,
0000
1000
0000
0100
0000
0001
0000
2002
,
3003
0000
0000
0101
,
0101
0000
0000
1100
,
1100
0000
0000
0010
,
0010
0001
0001
1000
,
1100
0001
0100
0101
,
0101
1000
0100
1100
,
1100
0001
0001
0101
,
1000
1100
0001
0001
,
0100
1000
0010
2002
,
3003
0000
0000
0000
;

//---------------dance-single - ----------------
#NOTES:
     dance-single:
     :
     Medium:
     8:
     0.426256,0.458029,0.682639,0.044041,0.000000,271.000000,209.000000,62.000000,4.000000,0.000000,0.000000,0.426256,0.458029,0.682639,0.044041,0.000000,271.000000,209.000000,62.000000,4.000000,0.000000,0.000000:
0000
0000
0000
0000
,
0000
0000
0000
0000
,
0000
0000
0000
0000
,
0000
0000
0000
0000
,
0000
0000
0000
0000
,
0000
0000
0000
0000
,
0010
0000
0010
0000
0010
1000
0100
0000
,
1001
0000
0000
0000
,
1001
0000
0101
0000
0010
1000
0100
0000
,
0110
0000
1001
0000
1000
0100
1000
0000
,
0001
0101
1000
1100
,
0010
1001
0000
0000
,
1001
0000
1100
0000
0010
0001
0100
0000
,
0110
0000
1001
0000
0100
0001
0100
0000
,
1000
0100
1000
0000
0001
0100
0001
0000
,
0010
1001
1001
0100
,
0001
0000
0101
0000
0001
0100
0001
0000
,
1000
0000
1100
0000
1000
0100
1000
0000
,
1001
0000
0100
0000
0010
0001
0100
0000
,
1001
0000
0100
0000
0010
1000
0100
0000
,
0001
0100
0001
0000
1000
0100
1000
0000
,
0001
0100
0001
0000
1000
0100
1000
0000
,
0010
0010
1001
0100
,
1001
1100
1001
0101
,
0000
1001
0000
1001
0000
0110
0000
1001
,
0000
1100
0000
0101
0000
1000
1000
0000
,
0000
1001
0000
1001
0000
0110
0000
1001
,
0000
0101
0000
1100
0000
0001
0001
0000
,
0000
0001
0000
1000
0000
0001
0000
0100
,
0000
0001
0000
1000
0000
0100
0100
0100
,
0001
0000
1000
0000
0010
1000
0100
0000
,
1001
0000
0000
0000
0000
0000
0000
0010
,
1000
0100
0000
1001
0000
1001
0000
0010
,
0001
0100
0000
1001
0000
1001
0000
0001
,
0100
0001
0000
1000
0000
1100
0000
0010
,
0001
0100
0000
1001
0000
1001
0000
0010
,
1000
0100
0000
0001
0000
0101
0000
0010
,
0100
0010
0000
0001
0000
1001
0000
0010
,
1000
0100
0000
0010
0001
0100
0000
1100
,
0000
1001
0000
0000
0000
0000
0000
1001
,
0000
1001
0000
0010
0010
0010
0000
1001
,
0000
1001
0000
0100
0100
0100
0000
0010
,
1000
0010
0000
0001
0100
0001
0000
2002
,
3003
0000
0000
0000
0000
0000
0010
1000
,
0100
0000
1000
0000
0101
0000
0010
0001
,
0100
0000
0001
0000
1100
0000
0010
0010
,
0010
0000
0100
0100
0100
0000
1000
0000
,
1100
0000
0001
0100
0001
0000
0001
1000
,
0100
0000
0001
0000
1100
0000
0001
1000
,
0100
0000
0001
0000
1100
0000
0001
1000
,
0100
0110
1001
0001
,
0100
1001
0110
2002
,
3003
0000
0000
0000
;

//---------------dance-single - ----------------
#NOTES:
     dance-single:
     :
     Hard:
     12:
     0.575682,0.629790,1.134061,0.044041,0.000000,366.000000,263.000000,103.000000,4.000000,0.000000,0.000000,0.575682,0.629790,1.134061,0.044041,0.000000,366.000000,263.000000,103.000000,4.000000,0.000000,0.000000:
0000
0000
0000
0000
,
0000
0000
0000
0000
,
0000
0000
0000
0000
,
0000
0000
0000
0000
,
0000
0000
0000
0000
,
0000
0000
0000
0000
,
0010
1000
0100
0010
0001
1000
0100
0100
,
1001
0000
0000
0000
,
0010
0100
0001
1000
0100
0010
1001
0000
,
0001
1000
0100
0010
0001
1000
0101
0000
,
0010
1000
0001
0100
0001
0010
1100
0000
,
0010
0001
0100
0010
1001
1001
1001
0000
,
0001
0010
0100
1000
0001
0010
1001
0000
,
1000
0010
0100
0001
1000
0010
1001
0000
,
0010
0100
0010
1000
0001
0100
0101
0000
,
1000
0001
0100
0010
1001
1001
1001
0000
,
0010
0001
0100
0001
1000
0100
0010
0001
,
0100
1000
0100
0001
1001
1001
1001
0000
,
0100
0010
0001
1000
0100
1000
0100
0010
,
0001
0100
0010
1000
0011
0011
0011
0000
,
0010
1000
0100
0001
0001
0100
0100
0100
,
0001
0001
0001
1000
0100
0010
0001
0100
,
1001
0000
1100
0000
0010
0001
0100
0010
,
1001
0000
0101
0000
1001
1001
1001
1001
,
1001
0100
1000
0010
0100
0001
1000
0100
,
0010
0001
0100
0010
0000
1001
1001
1001
,
0000
0010
1000
0100
0001
0100
0001
1000
,
0100
0010
0001
0001
0000
1100
1100
1100
,
0000
0010
0001
1000
0100
1000
0001
0100
,
0010
0010
1000
0100
0000
0100
0001
0100
,
1001
0000
1100
0000
0010
0001
0100
0010
,
1001
0000
0000
0000
0000
0000
0000
0101
,
0000
0101
0000
1100
0000
1100
0000
0011
,
0000
0011
0000
1001
0000
1001
0000
1010
,
0000
1010
0000
1001
0000
1001
0000
0110
,
0000
1001
0000
0110
0000
0110
0000
1001
,
0000
1001
0000
0110
0000
1001
0000
0110
,
0000
0110
0000
0101
0000
0101
0000
1100
,
0000
1100
0000
1001
0000
1001
0000
0110
,
0110
0110
0000
0000
0000
0000
0000
0010
,
1000
0100
0010
0001
0100
0010
1000
0001
,
0100
0010
1000
0001
0100
0100
0100
0001
,
1000
0100
0010
0001
0100
0010
1000
0202
,
0303
0000
0000
0101
,
1001
1100
1001
0011
,
1001
1100
1001
1010
,
1001
0101
1001
0110
,
1001
0110
1100
1001
,
0110
0101
1001
0110
,
1010
0101
1001
1100
,
1001
0000
0011
0000
1001
0000
0110
0110
,
0110
0110
0110
2002
,
3003
0000
0000
0000
;

//---------------dance-double - ----------------
#NOTES:
     dance-double:
     :
     Easy:
     4:
     0.377496,0.400775,0.825773,0.044041,0.000000,240.000000,165.000000,75.000000,4.000000,0.000000,0.000000,0.377496,0.400775,0.825773,0.044041,0.000000,240.000000,165.000000,75.000000,4.000000,0.000000,0.000000:
00000000
00000000
00000000
00000000
,
00000000
00000000
00000000
00000000
,
00000000
00000000
00000000
00000000
,
00000000
00000000
00000000
00000000
,
00000000
00000000
00000000
00000000
,
00000000
00000000
00000000
00000000
,
00100000
10000000
01000000
00010000
,
00011000
00000000
00000000
00000000
,
00000001
00000001
00000100
00011000
,
00100000
00100000
10000000
11000000
,
00100000
10010000
01000000
00011000
,
00000010
00001001
00000000
00000000
,
00000101
00000101
00001000
00010000
,
01010000
01010000
10000000
01000000
,
11000000
11000000
00100000
00010000
,
00011000
00011000
00000000
00000000
,
00001001
00000100
00000001
00000100
,
00001000
00010000
00011000
00011000
,
00100000
10000000
01000000
10000000
,
01000000
00010000
00011000
00011000
,
00000010
00001000
00000100
00000101
,
00001000
00010000
00100000
10010000
,
00010000
01000000
11000000
11000000
,
00010000
00001000
00011000
00011000
,
00000001
00000100
00000101
00000101
,
00000100
00000010
00001010
00001010
,
00001000
00010000
00011000
00011000
,
01000000
10000000
11000000
11000000
,
10000000
00010000
01000000
00001000
,
00010000
00000100
00000010
00000001
,
00000101
00000101
00001000
00010000
,
11000000
00000000
00000000
00000000
00000000
00000000
00000000
00011000
,
00000000
00011000
00000000
00000100
00000000
00000000
00000000
00000101
,
00000000
00000101
00000000
00001000
00000000
00000000
00000000
00011000
,
00000000
00011000
00000000
01000000
00000000
00000000
00000000
11000000
,
00000000
11000000
00000000
00010000
00000000
00000000
00000000
00011000
,
00000000
00011000
00000000
00000010
00000000
00000000
00000000
00000011
,
00000000
00000011
00000000
00001000
00000000
00000000
00000000
00011000
,
00000000
00011000
00000000
10000000
00000000
00000000
00000000
11000000
,
00000000
11000000
00000000
00100000
00000000
00010000
00000000
00011000
,
00000000
00000100
00000000
00000110
00000000
00000001
00000000
00000101
,
00000000
00001000
00000000
00010000
00000000
01000000
00000000
10010000
,
00000000
01000000
00000000
00011000
00000000
00000100
00000000
00002002
,
00003003
00000000
00000000
00011000
,
00011000
00000100
00000001
00000101
,
00000101
00001000
00010000
00011000
,
00011000
01000000
10000000
11000000
,
11000000
00010000
00001000
00011000
,
00011000
00000010
00000001
00000011
,
00000011
00000100
00001000
00011000
,
00011000
01000000
10000000
10010000
,
01100000
00010000
00001000
00002002
,
00003003
00000000
00000000
00000000
;

//---------------dance-double - ----------------
#NOTES:
     dance-double:
     :
     Medium:
     8:
     0.451423,0.486656,0.935876,0.044041,0.000000,287.000000,202.000000,85.000000,4.000000,0.000000,0.000000,0.451423,0.486656,0.935876,0.044041,0.000000,287.000000,202.000000,85.000000,4.000000,0.000000,0.000000:
00000000
00000000
00000000
00000000
,
00000000
00000000
00000000
00000000
,
00000000
00000000
00000000
00000000
,
00000000
00000000
00000000
00000000
,
00000000
00000000
00000000
00000000
,
00000000
00000000
00000000
00000000
,
00100000
10000000
11000000
10010000
,
00011000
00000000
00000000
00000000
,
00000001
00001000
00000001
00000000
00000101
00000000
00001001
00000000
,
00001000
00000100
00001000
00000000
00011000
00000000
00110000
00000000
,
00010000
10000000
01000000
00000000
11000000
00000000
10010000
00000000
,
00011000
00000000
00001010
00000000
00000001
00001000
00000100
00000000
,
00001010
00000000
00001100
00000000
00000010
00010000
00001000
00000000
,
00011000
00000000
00110000
00000000
10000000
00010000
01000000
00000000
,
10010000
00000000
11000000
00000000
00100000
00010000
01000000
00000000
,
00011000
00011000
00000001
00000100
,
00001001
00000000
00000100
00000000
00000010
00001000
00000100
00000000
,
00001010
00000000
00011000
00000000
00100000
00010000
01000000
00000000
,
00110000
00000000
01010000
00000000
01000000
10000000
01000000
00000000
,
11000000
00000000
10010000
00000000
00001000
00010000
00001000
00000000
,
00001010
00000000
00001001
00000000
00000001
00000100
00000001
00000100
,
00000010
00000000
00010000
00000000
00001000
00010000
01000000
00000000
,
10010000
00000000
11000000
00000000
00100000
10000000
01000000
00000000
,
11000000
10010000
00011000
00001001
,
00000000
00000101
00000000
00000101
00000000
00001001
00000000
00001001
,
00000000
00001010
00000000
00001010
00000000
00000010
00010000
00001000
,
00000000
00011000
00000000
00011000
00000000
01010000
00000000
01010000
,
00000000
10010000
00000000
10010000
00000000
00100000
10000000
01000000
,
00000000
11000000
00000000
11000000
00000000
01010000
00000000
01010000
,
00000000
00011000
00000000
00011000
00000000
00000010
00001000
00000100
,
00001001
00000000
00001001
00000000
00000001
00000100
00001000
00000000
,
00011000
00000000
00000000
00000000
00000000
00000000
00000000
00001001
,
00000000
00001001
00000000
00000010
00001000
00000100
00000000
00011000
,
00000000
00011000
00000000
00100000
00010000
01000000
00000000
10010000
,
00000000
10010000
00000000
00100000
10000000
01000000
00000000
11000000
,
00000000
10100000
00000000
00000000
00000000
00000000
00000000
00011000
,
00000000
00001001
00000000
00000000
00000000
00000000
00000000
00001001
,
00000000
00011000
00000000
00000000
00000000
00000000
00000000
00010000
,
00000000
01010000
00000000
10000000
00000000
11000000
00000000
00100000
,
10000000
01000000
00000000
00000000
00000000
00000000
00000000
00100000
,
10000000
01000000
00000000
00100000
00010000
01000000
00000000
00000010
,
00001000
00000100
00000000
00000010
00000001
00000100
00000000
00000010
,
00001000
00000100
00000000
00100000
00010000
01000000
00000000
20020000
,
30030000
00000000
00000000
00001001
,
00001001
00000000
00000010
00001000
00000100
00000000
00011000
00000000
,
00011000
00000000
00100000
00010000
01000000
00000000
10010000
00000000
,
10010000
00000000
00100000
10000000
01000000
00000000
11000000
00000000
,
10010000
01000000
00010000
00001010
,
00001100
00000001
00000100
00011000
,
00110000
00010000
10000000
00010000
,
01010000
00000000
10000000
00000000
11000000
00000000
10000000
01000000
,
00010000
00000000
00001000
00000100
00000001
00000000
00002002
00000000
,
00003003
00000000
00000000
00000000
;

//---------------dance-double - ----------------
#NOTES:
     dance-double:
     :
     Hard:
     11:
     0.503328,0.572536,0.770721,0.044041,0.000000,320.000000,250.000000,70.000000,4.000000,0.000000,0.000000,0.503328,0.572536,0.770721,0.044041,0.000000,320.000000,250.000000,70.000000,4.000000,0.000000,0.000000:
00000000
00000000
00000000
00000000
,
00000000
00000000
00000000
00000000
,
00000000
00000000
00000000
00000000
,
00000000
00000000
00000000
00000000
,
00000000
00000000
00000000
00000000
,
00000000
00000000
00000000
00000000
,
00100000
10000000
01000000
10000000
00010000
01000000
00001000
00000000
,
00011000
00000000
00000000
00000000
,
00000001
00001000
00000100
00010000
00100000
10000000
01000000
00000000
,
10000000
00010000
01000000
00001000
00000010
00000001
00000100
00000000
,
00000001
00000100
00000001
00000000
00001000
00000100
00001000
00000000
,
00010000
01000000
00010000
00100000
01000000
10000000
01000000
00000000
,
10000000
00010000
01000000
00001000
00000010
00000001
00000100
00000000
,
00000001
00001000
00000100
00010000
00100000
10000000
01000000
00000000
,
10000000
01000000
10000000
00000000
00010000
01000000
00010000
00000000
,
00001000
00000100
00001000
00000010
00000100
00000001
00000100
00000000
,
00001001
00000000
00001000
00000001
00000010
00000100
00001000
00100000
,
10000000
01000000
00010000
01000000
10000000
10000000
10000000
00000000
,
00100000
10000000
00010000
10000000
00100000
01000000
00010000
00000010
,
00000001
00000100
00001000
00000100
00000001
00000001
00000001
00000000
,
00000000
00000010
00001000
00000000
00000001
00000100
00000001
00000100
,
00000010
00010000
00001000
00100000
00000000
00010000
01000000
00010000
,
01010000
00000000
01010000
00000000
00100000
10000000
01000000
00000000
,
00000000
10010000
00000000
00011000
00000000
00001001
00000000
00000001
,
00000100
00000000
00000001
00001000
00000100
00000010
00000001
00000100
,
00001000
00000100
00000001
00000001
00000000
00000100
00001000
00010000
,
00000000
00100000
10000000
00010000
01000000
00100000
10000000
01000000
,
00010000
01000000
10000000
10000000
00000000
01000000
00010000
00001000
,
00000000
00000010
00000001
00000100
00000001
00000000
00001000
00000100
,
00010000
00001000
10000000
01000000
00000000
00010000
10000000
00100000
,
01000000
00000000
01000000
00000000
00001000
00010000
00001000
00000000
,
00011000
00000000
00000000
00000000
00000000
00000000
00000000
00001001
,
00000000
00001001
00000000
00000101
00000000
00000101
00000000
00001100
,
00000000
00001100
00000000
00011000
00000000
00011000
00000000
00110000
,
00000000
00110000
00000000
10010000
00000000
10010000
00000000
10100000
,
00000000
11000000
00000000
01100000
00000000
01100000
00000000
00010000
,
00000000
00000110
00000000
00001001
00000000
00000110
00000000
00001000
,
00000000
01100000
00000000
10010000
00000000
01100000
00000000
11000000
,
00000000
11000000
00000000
01010000
00000000
01010000
00000000
00011000
,
00011000
00011000
00000000
00000000
00000000
00000000
00000000
00000010
,
00000001
00000100
00000001
00000010
00000001
00000100
00000001
00000010
,
00000001
00000100
00000001
00000010
00000001
00000100
00001000
00010000
,
01000000
10000000
01000000
00010000
01000000
10000000
01000000
02200000
,
03300000
00000000
00000000
00001001
,
00001100
00000101
00000110
00001100
,
00001010
00011000
00101000
00110000
,
10010000
10100000
10010000
10100000
,
11000000
10010000
01100000
00010000
,
00000110
00001001
00000110
00001000
,
01100000
10010000
01100000
11000000
,
10010000
00000000
11000000
00000000
01010000
00000000
00011000
00011000
,
00011000
00001001
00000110
00002002
,
00003003
00000000
00000000
00000000
;

//---------------dance-single - ----------------
#NOTES:
     dance-single:
     :
     Beginner:
     2:
     0.081791,0.142446,0.022021,0.011010,0.000000,52.000000,50.000000,2.000000,1.000000,0.000000,0.000000,0.081791,0.142446,0.022021,0.011010,0.000000,52.000000,50.000000,2.000000,1.000000,0.000000,0.000000:
0000
0000
0000
0000
,
0000
0000
0000
0000
,
0000
0000
0000
0000
,
0000
0000
0000
0000
,
0000
0000
0000
0000
,
0000
0000
0000
0000
,
1000
0000
0001
0000
,
1001
0000
0000
0000
,
0001
0000
0000
0000
,
0001
0000
0000
0000
,
0010
0000
0000
0000
,
0010
0000
0000
0000
,
0100
0000
0000
0000
,
0100
0000
0000
0000
,
1000
0000
0000
0000
,
1000
0000
0000
0000
,
0010
0000
0000
0000
,
0001
0000
0000
0000
,
0010
0000
0000
0000
,
1000
0000
0000
0000
,
0100
0000
0000
0000
,
0010
0000
0000
0000
,
0001
0000
0000
0000
,
0010
0000
0000
0000
,
0100
0000
0000
0000
,
1000
0000
0000
0000
,
0010
0000
0000
0000
,
0100
0000
0000
0000
,
0001
0000
0000
0000
,
1000
0000
0000
0000
,
0100
0000
0000
0000
,
0010
0000
0000
0000
0000
0000
0000
0001
,
0000
0000
0000
0000
0000
0000
0000
0010
,
0000
0000
0000
0000
0000
0000
0000
0100
,
0000
0000
0000
0000
0000
0000
0000
1000
,
0000
0000
0000
0000
0000
0000
0000
1000
,
0000
0000
0000
0000
0000
0000
0000
1000
,
0000
0000
0000
0000
0000
0000
0000
0010
,
0000
0000
0000
0000
0000
0000
0000
0010
,
0000
0000
0000
0000
0000
0000
0000
0100
,
0000
0000
0000
0000
0000
0000
0000
0100
,
0000
0000
0000
0000
0000
0000
0000
0001
,
0000
0000
0000
1000
0000
0000
0000
0200
,
0300
0000
0000
1000
,
0000
0000
0000
1000
,
0000
0000
0000
0001
,
0000
0000
0000
0100
,
0000
0000
0000
0001
,
0000
0000
0000
0010
,
0000
0000
0000
0100
,
0000
1000
0000
0001
,
0000
0000
0000
0110
;

//---------------dance-single - ----------------
#NOTES:
     dance-single:
     :
     Challenge:
     15:
     0.654327,0.687043,0.363340,0.154144,0.462433,416.000000,383.000000,33.000000,14.000000,0.000000,0.000000,0.654327,0.687043,0.363340,0.154144,0.462433,416.000000,383.000000,33.000000,14.000000,0.000000,0.000000:
// measure 0
0000
0000
0000
0000
,  // measure 1
0000
0000
0000
0000
,  // measure 2
0000
0000
0000
0000
,  // measure 3
0000
0000
0000
0000
,  // measure 4
0000
0000
0000
0000
,  // measure 5
0000
0000
0000
0000
,  // measure 6
0001
0000
0001
0000
0010
0000
0010
0000
0100
1000
0000
0100
0000
1000
0100
0000
,  // measure 7
0020
0000
0000
0000
0030
0000
0001
0010
0001
0000
0100
0000
0010
0000
1000
0000
,  // measure 8
0100
0000
0000
1100
0000
0000
1000
0100
1000
0000
0010
0000
0100
0000
0001
0000
,  // measure 9
0010
0000
0000
0011
0000
0000
0001
0010
0001
0000
0010
0000
0100
0000
1000
0000
,  // measure 10
0100
0000
0000
1100
0000
0000
1000
0000
0001
0000
0000
0011
0000
0000
0001
0000
,  // measure 11
0100
0000
0000
0101
0000
0000
0001
1000
0100
0000
1000
0000
0010
0000
0100
0000
,  // measure 12
0001
0000
0000
0011
0000
0000
0010
0001
0010
0000
0001
0000
0100
0000
0010
0000
,  // measure 13
1000
0000
0000
1100
0000
0000
1000
0100
1000
0000
0010
0000
0100
0000
0001
0000
,  // measure 14
0010
0000
0000
0101
0000
0000
0001
0000
0010
0000
0000
1100
0000
0000
1000
0000
,  // measure 15
0001
0000
0000
1001
0000
0000
1000
0000
0001
0100
0000
0001
0010
0000
0010
0000
,  // measure 16
0001
0000
0100
0000
1000
0000
0100
0000
0001
0000
0100
0000
0010
0100
0010
0000
,  // measure 17
1000
0000
0010
0000
0100
0000
0010
0000
1000
0000
0001
0000
0010
0001
0010
0000
,  // measure 18
0100
0000
0010
0000
1000
0000
0100
0000
1000
0000
0100
0000
0010
0100
0010
0000
,  // measure 19
1000
0000
0001
0000
0100
0000
0010
0000
1000
0000
0001
0000
0010
0001
0010
0000
,  // measure 20
0001
0000
1000
0000
0100
0000
0010
0000
0100
0000
1000
0000
0001
0010
0001
0000
,  // measure 21
0010
0000
0001
0000
1000
0000
0100
0000
0000
0000
0100
0010
0100
0000
1000
0000
,  // measure 22
2000
0000
3002
0000
1003
0100
0010
0001
,  // measure 23
1000
0000
0100
1000
0010
0000
0010
1000
0100
0000
0010
1000
0000
0001
0100
0000
,  // measure 24
0001
0010
0001
1000
0010
1000
0001
0100
,  // measure 25
0001
0000
0010
0000
1000
0000
0001
0000
0100
0000
1000
0010
0100
0000
0001
0000
,  // measure 26
0001
1000
0010
1000
0001
0010
1000
0001
,  // measure 27
0100
0000
1000
0000
0010
0000
0100
0000
0001
0000
0010
0001
1000
0000
0100
0000
,  // measure 28
1000
0100
1000
0010
0100
0001
0010
0001
,  // measure 29
1000
0000
0010
0000
0100
0000
0001
0000
1000
0000
0001
0010
0100
0000
1000
0000
,  // measure 30
0200
0000
0000
0000
0320
0000
0000
0000
0130
0000
0010
0000
0100
0000
1000
0200
,  // measure 31
2000
0000
3300
0000
1000
0100
1000
0000
0100
0000
1000
0000
0001
0000
0100
0000
,  // measure 32
0000
0101
0000
0000
0001
1000
0001
0000
0010
0000
0100
0000
1000
0000
0010
0000
,  // measure 33
0000
0110
0000
0000
0100
0001
0100
0000
0001
0000
1000
0000
0010
0000
0100
0000
,  // measure 34
0000
0101
0000
0000
1001
0000
0010
0000
0000
1010
0000
0000
1001
0000
0101
0000
,  // measure 35
0000
1010
0000
0000
1000
0100
1000
0000
0001
0000
0100
0000
0010
0000
1000
0000
,  // measure 36
0001
0100
0000
0000
0010
1000
0010
0000
0100
0000
0001
0000
0010
0000
0001
0000
,  // measure 37
1000
0100
0000
0000
0010
0100
1000
0000
0010
0000
0010
0000
1000
0000
0010
0000
,  // measure 38
0000
0110
0000
0000
1001
0000
0100
0000
0000
0110
0000
0000
1001
0000
0001
0000
,  // measure 39
1000
0020
0100
0000
0000
0000
0130
0010
0000
0100
0010
0000
0100
0000
0001
0000
,  // measure 40
1000
0000
0100
0000
0010
0000
0001
0010
0000
0010
0100
0000
0100
0000
0010
0000
,  // measure 41
0001
0000
0010
0000
0001
1000
0000
0100
0010
0000
0001
0000
1000
0000
0001
0010
,  // measure 42
0001
0010
0100
1000
0100
1000
0001
0010
0000
0100
1000
0000
0001
2000
0200
0000
,  // measure 43
3300
0000
0001
1000
0001
0000
1000
0000
0010
0000
0100
0000
0001
0000
0000
1001
,  // measure 44
0000
0000
1000
0100
1000
0000
0010
0000
0100
0000
0001
0000
1000
0000
0000
1001
,  // measure 45
0000
0000
0001
0010
0100
0000
1000
0000
0001
0000
0100
0000
0110
0000
0000
1010
,  // measure 46
0000
0000
0101
0000
1001
0000
0000
1100
0000
0000
0011
0000
0101
0000
0000
1001
,  // measure 47
0000
0000
0001
0010
0100
0000
1000
0000
0001
0000
1000
0000
0020
0000
0130
0001
,  // measure 48
0000
0000
0100
0001
1000
0000
0001
0000
1000
0000
0100
0000
0020
0030
0001
0010
,  // measure 49
0000
0000
0001
0010
0100
0000
1000
0000
0001
0000
0010
0000
0100
0000
0100
0010
,  // measure 50
0000
0000
0001
0000
1000
0000
0100
1000
0000
0000
0010
0100
0010
0000
0001
0010
,  // measure 51
0001
0010
0100
1000
0100
1000
0001
0000
1000
0000
0001
0000
2002
0000
0000
0000
,  // measure 52
3003
0000
0000
0000
;
