#TITLE:HIGHS OFF U (Scorccio XY Mix);
#SUBTITLE:;
#ARTIST:4 REEEL;
#TITLETRANSLIT:;
#SUBTITLETRANSLIT:;
#ARTISTTRANSLIT:;
#GENRE:;
#CREDIT:;
#BANNER:HIGHS OFF U (Scorccio XY Mix).png;
#BACKGROUND:HIGHS OFF U (Scorccio XY Mix)-bg.png;
#LYRICSPATH:;
#CDTITLE:;
#MUSIC:HIGHS OFF U (Scorccio XY Mix).ogg;
#OFFSET:0.000000;
#SAMPLESTART:18.430000;
#SAMPLELENGTH:15.000000;
#SELECTABLE:YES;
#DISPLAYBPM:130.000000;
#BPMS:0.000000=129.535004
,4.000000=129.990997
;
#STOPS:
;
#BGCHANGES:;
#KEYSOUNDS:;
#ATTACKS:;

//---------------dance-single - ----------------
#NOTES:
     dance-single:
     :
     Beginner:
     1:
     0.077818,0.127843,0.000000,0.000000,0.000000,49.000000,49.000000,0.000000,0.000000,0.000000,0.000000,0.077818,0.127843,0.000000,0.000000,0.000000,49.000000,49.000000,0.000000,0.000000,0.000000,0.000000:
0000
0000
0000
0000
,
0000
0000
0000
0000
,
0000
0000
0000
0000
,
0000
0000
0000
0000
,
0000
0000
0000
0000
,
1000
0000
0000
0000
,
0001
0000
0000
0000
,
0001
0000
0100
0000
,
0010
0000
0000
0000
,
1000
0000
1000
0000
,
0010
0000
0010
0000
,
0010
0000
0000
0000
,
1000
0000
1000
0000
,
1000
0000
0000
0000
,
0100
0000
0100
0000
,
0100
0000
0000
0000
,
0001
0000
1000
0000
,
0010
0000
0000
0000
,
0000
0000
0000
0000
,
0001
0000
0000
0000
,
1000
0000
0000
0000
,
0001
0000
0000
0000
,
0100
0000
0000
0000
,
1000
0000
0000
0000
,
0001
0000
0000
0000
,
1000
0000
0000
0000
,
0100
0000
0000
0000
,
0001
0000
0000
0000
,
0100
0000
0000
0000
,
0000
1000
0000
0001
,
0000
0000
0000
0000
,
1000
0000
0000
0000
,
0001
0000
0000
0000
,
0100
0000
0000
0000
,
1000
0000
0000
0000
,
0001
0000
0000
0000
,
0100
0000
0100
0000
,
0010
0000
0000
0000
,
0010
0000
0000
0000
,
0001
0000
0000
0000
,
0001
0000
0000
0000
,
1000
0000
0000
0000
,
1000
0000
0000
0000
,
0100
0000
1000
0000
,
0001
0000
0000
0000
,
1000
0000
0000
0000
,
0001
0000
0000
0000
,
0000
0000
0000
0000
;

//---------------dance-single - ----------------
#NOTES:
     dance-single:
     :
     Easy:
     2:
     0.119108,0.178980,0.011117,0.022234,0.000000,75.000000,74.000000,1.000000,2.000000,0.000000,0.000000,0.119108,0.178980,0.011117,0.022234,0.000000,75.000000,74.000000,1.000000,2.000000,0.000000,0.000000:
0000
0000
0000
0000
,
0000
0000
0000
0000
,
0000
0000
0000
0000
,
0000
0000
0000
0000
,
0000
0000
0000
0000
,
1000
0001
0100
0100
,
0010
0000
0000
0000
,
1000
0001
0100
0000
,
0010
0000
0000
0000
,
1000
0001
1000
0001
,
0010
0000
0100
0000
,
0010
0000
0000
0000
,
0001
0000
1000
0000
,
0001
0000
0000
0000
,
0100
0000
0010
0000
,
0100
0000
0000
0000
,
0001
0000
1000
0000
,
0200
0000
0000
0300
,
0010
0000
0010
0000
,
0001
0000
0000
0000
,
1000
0000
0100
0000
,
0001
0000
0000
0000
,
0100
0000
0010
0000
,
1000
0000
0000
0000
,
0001
0000
0100
0000
,
1000
0000
0000
0000
,
0100
0000
0100
0000
,
0010
0000
0001
0000
,
0100
0000
0010
0000
,
0000
1000
0000
0001
,
1000
0000
0001
0000
,
1000
0000
1000
0000
,
0001
0000
0001
0000
,
0100
0000
0010
0000
,
1000
0000
0001
0000
,
0001
0000
1000
0000
,
0100
0000
0100
0000
,
0010
0000
0100
0000
,
0010
0000
0000
0000
,
0001
0000
1000
0000
,
0001
0000
0000
0000
,
0010
0000
0100
0000
,
0010
0000
0000
0000
,
0001
0000
1000
0000
,
0200
0000
0000
0300
,
1000
0000
0001
0000
,
1001
0000
0000
0000
;

//---------------dance-single - ----------------
#NOTES:
     dance-single:
     :
     Medium:
     8:
     0.289037,0.357961,0.144518,0.311270,0.000000,182.000000,169.000000,13.000000,28.000000,0.000000,0.000000,0.289037,0.357961,0.144518,0.311270,0.000000,182.000000,169.000000,13.000000,28.000000,0.000000,0.000000:
0000
0000
0000
0000
,
0000
0000
0000
0000
,
0000
0000
0000
0000
,
0000
0000
0000
0000
0000
0000
1000
0001
,
1000
1000
1000
1000
,
1100
0000
0101
0000
0010
1000
0100
1000
,
0020
0030
1000
0000
0001
0000
0100
0000
,
1000
0100
1001
0000
,
0200
0300
0001
0000
1000
0000
0100
0000
,
0010
0001
1001
0000
,
0002
0003
1000
0000
0002
0003
1000
0000
,
0002
0003
0100
0010
0000
1000
0000
0001
,
0020
0030
0100
0000
0020
0030
0100
0000
,
0020
0030
0100
0001
0000
1000
0000
0010
,
0002
0003
1000
0000
0002
0003
1000
0000
,
0002
0003
1000
0010
0000
0100
0000
0001
,
0020
0030
0100
0000
0020
0030
0100
0000
,
2002
0000
0000
0000
,
0000
0000
0000
3003
,
0010
0100
0001
0000
0000
0000
0000
0000
,
1000
0001
1000
0000
,
0010
0100
0001
0000
0000
0000
0000
0000
,
1100
0101
1100
0000
,
0001
0100
0010
0000
1000
0000
0001
0000
,
0000
1100
0101
0000
,
0010
0000
1000
0000
0001
0010
0100
0000
,
1000
0010
0100
0000
1001
0000
0100
0000
,
0000
0100
0000
0100
,
0010
0000
0001
1000
0010
0000
0100
0000
,
0000
0001
0000
1000
,
0100
0000
0010
0000
0001
0100
0010
0000
,
1000
0100
1000
0000
0001
0100
0001
0000
,
1000
0000
0001
0000
0100
0010
0100
0000
,
0001
0000
0000
0000
1000
0000
0001
0010
,
0100
1000
0010
0100
0001
0010
0100
0000
,
1000
0000
0001
0000
0100
0010
1000
0100
,
0000
0010
0001
0100
0000
0010
0100
0000
,
0002
0003
1000
0000
0002
0003
1000
0000
,
0002
0003
1000
0100
0000
0010
0000
0001
,
0200
0300
0010
0000
0200
0300
0010
0000
,
0200
0300
0001
1000
0000
0100
0000
0010
,
0002
0003
1000
0000
0002
0003
1000
0000
,
0002
0003
1000
0100
0000
0010
0000
0001
,
0200
0300
0010
0000
0200
0300
0010
0000
,
2002
0000
0000
0000
,
0000
0000
0000
0000
3003
0010
0100
0000
,
1001
0000
0000
0000
;

//---------------dance-single - ----------------
#NOTES:
     dance-single:
     :
     Hard:
     11:
     0.535194,0.511372,0.233453,0.044467,0.088934,337.000000,316.000000,21.000000,4.000000,0.000000,0.000000,0.535194,0.511372,0.233453,0.044467,0.088934,337.000000,316.000000,21.000000,4.000000,0.000000,0.000000:
0000
0000
0000
0000
,
0000
0000
0000
0000
,
0000
0000
0000
0000
,
0000
0000
0000
0000
,
1000
0100
1000
0001
1000
0100
1000
0001
,
0100
0000
0100
0000
0010
1000
0100
0010
,
2002
3003
0110
0000
0001
0001
0100
0010
,
1000
0100
0110
0000
1001
0000
0000
0000
,
0220
0330
1001
0000
0010
0010
0100
0001
,
0000
1000
0100
0010
0000
0001
1000
0100
,
0001
0100
1000
0100
0001
0100
1000
0100
,
0010
0001
0100
0010
0000
1001
0000
0110
,
1000
0100
0001
0100
1000
0100
0001
0100
,
1000
0010
0100
0001
0000
1100
0000
0011
,
0100
1000
0100
0001
0100
1000
0100
0001
,
0100
1000
0010
0100
0000
1001
0000
0110
,
0001
0010
1000
0010
0001
1000
0010
0100
,
0001
0010
0001
0100
0001
0010
0001
0100
,
0001
0000
0010
0000
0001
0000
0100
0000
0001
0000
0010
0000
0100
1000
0000
0000
,
0001
0000
0001
0000
0001
0000
0100
0000
0010
0000
0100
0000
0001
1000
0000
0000
,
0100
0010
0100
1000
0001
1000
0100
0000
,
0010
0001
0001
1000
0010
0100
0001
1000
,
0100
0100
0100
0010
1001
1001
0110
0000
,
0001
0001
1100
0000
1000
1000
0001
0100
,
0010
0000
1000
0000
0100
0000
0010
0000
0001
0100
0001
0010
0001
0000
0000
0000
,
1000
0000
0100
0000
0100
0000
0100
0000
0010
0000
0001
1000
0001
0000
0000
0000
,
0100
0010
0100
0001
0010
0100
1000
0001
,
1000
0100
0010
0001
0100
0010
1100
0000
,
0001
0001
0100
0010
1000
0000
0001
0100
,
0000
0000
1000
0100
1000
0000
0001
0000
0100
0000
0010
0000
1000
0000
0001
0000
,
0010
0010
0100
1000
0001
0100
1000
0000
,
0100
0000
0100
0000
0001
0000
0000
0000
1000
0000
0100
1000
0100
0000
0000
0000
,
0010
0001
1000
0010
1000
0001
0010
0000
,
0100
0000
1000
0000
0010
0000
0100
0000
0001
0000
0010
0000
0100
1000
0100
0000
,
0010
0001
1000
0010
0100
0100
0100
0000
,
0001
1000
0100
0000
0001
0100
0010
1001
,
0000
0100
0010
1001
0000
0100
0010
1001
,
0100
0000
0010
0000
0100
0000
1000
0000
0010
0000
0100
0001
0010
0000
0100
0000
,
1000
0000
0100
0000
1000
0000
0001
0000
0100
0000
0010
1000
0100
0000
0010
0000
,
0001
0000
1000
0000
0001
0000
1000
0000
0100
0000
0010
0001
1000
0000
0100
0000
,
0010
0000
0001
0000
0100
0000
0001
0000
0010
0000
0100
1000
0010
0000
0100
0000
,
0001
0000
1000
0000
0100
0000
1000
0000
0001
0000
0100
0010
1000
0000
0100
0000
,
0010
0000
0001
0000
0010
0000
0100
0000
0010
0000
0001
0100
0010
0000
1000
0000
,
0001
0000
0010
0000
0100
0000
1000
0000
0001
0000
0100
0010
1000
0000
0001
0000
,
0010
0100
1000
0100
0010
0100
1000
0100
,
0010
0000
0100
0000
1000
0000
0100
0000
0010
0000
0001
0000
1000
0100
0000
0000
,
1001
0000
0000
0000
;

//---------------dance-double - ----------------
#NOTES:
     dance-double:
     :
     Easy:
     2:
     0.173104,0.204549,0.011117,0.011117,0.000000,109.000000,108.000000,1.000000,1.000000,0.000000,0.000000,0.173104,0.204549,0.011117,0.011117,0.000000,109.000000,108.000000,1.000000,1.000000,0.000000,0.000000:
00000000
00000000
00000000
00000000
,
00000000
00000000
00000000
00000000
,
00000000
00000000
00000000
00000000
,
00000000
00000000
00000000
00000000
,
00000000
00000000
00000000
00000000
,
10000000
10000000
00010000
00010000
,
01000000
00001000
00000000
00000010
,
00000000
00000001
00000000
00001000
,
00000100
00010000
00000000
00100000
,
00000000
10000000
00000000
01000000
,
00100000
00010000
00100000
00010000
,
00100000
00010000
00000000
00000000
,
00000010
00000001
00000010
00000001
,
00000010
00000001
00000000
00000000
,
00000100
00001000
00000100
00001000
,
00000100
00001000
00000000
00000000
,
01000000
10000000
01000000
00010000
,
20000000
00000000
00000000
30000000
,
00000000
00000000
00000000
00000000
,
01000000
01000000
01000000
00000000
,
00000000
00100000
00000000
00100000
,
00001000
00001000
00001000
00000000
,
00000000
00010000
00000000
00010000
,
00000100
00000100
00000100
00000000
,
00000000
00000010
00000000
00000010
,
00000000
00000001
00000000
00001000
,
00000000
00000100
00000000
00000100
,
00010000
00010000
00010000
00000000
,
00000000
00001000
00000000
00001000
,
00100000
00100000
00100000
00000000
,
00000000
01000000
00000000
01000000
,
10000000
10000000
10000000
00000000
,
00000000
00010000
00000000
00010000
,
00000000
01000000
00000000
00100000
,
00000000
00010000
00000000
00001000
,
00000000
00000010
00000000
00000001
,
00000000
00001000
00000000
00000010
,
00000100
00010000
00000100
00010000
,
00000100
00010000
00000000
00000000
,
10000000
01000000
10000000
01000000
,
10000000
01000000
00000000
00000000
,
00100000
00001000
00100000
00001000
,
00100000
00001000
00000000
00000000
,
00000100
00000001
00000010
00001000
,
00010000
00001000
00000000
00010000
,
00001000
00010000
00000000
00100000
,
10010000
00000000
00000000
00000000
,
00000000
00000000
00000000
00000000
;

//---------------dance-double - ----------------
#NOTES:
     dance-double:
     :
     Medium:
     5:
     0.308094,0.383529,0.055584,0.289037,0.005558,194.000000,189.000000,5.000000,26.000000,0.000000,0.000000,0.308094,0.383529,0.055584,0.289037,0.005558,194.000000,189.000000,5.000000,26.000000,0.000000,0.000000:
00000000
00000000
00000000
00000000
,
00000000
00000000
00000000
00000000
,
00000000
00000000
00000000
00000000
,
00000000
00000000
00000000
00000000
,
10000000
10000000
00010000
00010000
,
00011000
00000000
00011000
00000000
00000010
00001000
00010000
00100000
,
20000000
30000000
01000000
00000000
00100000
00000000
00010000
00000000
,
01000000
00100000
00100000
00000000
,
20000000
30000000
01000000
00000000
00100000
00010000
01000000
00010000
,
00000000
00100000
00001000
00010000
00000000
00000100
00001000
00000010
,
00000002
00000003
00000010
00000000
00000002
00000003
00000010
00000000
,
00000002
00000003
00000010
00001000
00000000
00000100
00000000
00010000
,
02000000
03000000
00010000
00000000
02000000
03000000
00010000
00000000
,
02000000
03000000
10000000
00100000
00000000
01000000
00000000
00001000
,
00000020
00000030
00001000
00000000
00000020
00000030
00001000
00000000
,
00000020
00000030
00000001
00000100
00000000
00001000
00000000
00010000
,
02000000
03000000
00010000
00000000
02000000
03000000
00010000
00000000
,
00022000
00000000
00000000
00000000
,
00000000
00000000
00000000
00033000
,
00100000
01000000
10000000
00000000
00010000
00000000
00000000
00000000
,
01000000
10000000
01000000
00010000
,
00001000
00000100
00010000
00100000
,
00001000
00000010
00010000
01000000
,
10000000
00010000
00100000
10000000
,
00010000
00000000
01000000
00000000
00001000
00010000
00001000
00000000
,
00000010
00000001
00001000
00000100
,
00010000
00001000
00010000
00000100
,
00010000
00001000
00100000
00100000
00010000
00010000
00010000
00000000
,
10000000
01000000
00100000
00010000
,
00000000
01000000
00001000
00000000
00010000
00000010
00000010
00000000
,
00001000
00000001
00001000
00001001
,
00000100
00010000
00000010
00000001
,
00001000
00000100
00010000
00100000
,
10000000
00000000
00010000
00000000
00100000
00000000
01000000
00010000
,
01000000
10000000
00010000
01000000
00001000
00010000
00000010
00000000
,
00000100
00000000
00000100
00000001
00001000
00000100
00010000
00001000
,
00000000
00000100
00000001
00000010
00000000
00000100
00001000
00010000
,
02000000
03000000
00010000
00000000
02000000
03000000
00010000
00000000
,
02000000
03000000
00010000
00001000
00000000
00000100
00000000
00000010
,
00000002
00000003
00000010
00000000
00000002
00000003
00000010
00000000
,
00000002
00000003
00000010
00001000
00000000
00000100
00000000
00010000
,
02000000
03000000
00010000
00000000
02000000
03000000
00010000
00000000
,
02000000
03000000
00010000
00001000
00000000
01000000
00000000
00100000
,
00020000
00030000
00100000
00000000
00020000
00030000
00100000
00000000
,
10000000
01000000
00010000
01000000
,
00100000
00000000
00000000
00000000
00010000
00000000
00000000
00000000
00001000
00000000
00000010
00000000
00000001
00000100
00000000
00000000
,
00001001
00000000
00000000
00000000
,
00000000
00000000
00000000
00000000
;

//---------------dance-double - ----------------
#NOTES:
     dance-double:
     :
     Hard:
     8:
     0.551075,0.536941,0.266803,0.000000,0.450230,347.000000,323.000000,24.000000,0.000000,0.000000,0.000000,0.551075,0.536941,0.266803,0.000000,0.450230,347.000000,323.000000,24.000000,0.000000,0.000000,0.000000:
00000000
00000000
00000000
00000000
,
00000000
00000000
00000000
00000000
,
00000000
00000000
00000000
00000000
,
00000000
00000000
00000000
00000000
,
10000000
01000000
00000000
00000000
00010000
01000000
00000000
00000000
00100000
00001000
00000000
00000000
00010000
01000000
00000000
00000000
,
00000000
10100000
00000000
01010000
00000000
00001000
00010000
00001000
,
00000010
00000001
00000100
00000010
00001000
00000100
00000001
00000100
,
00000000
00001001
00000000
00001001
00000000
00001001
00001001
00001001
,
00000100
00010000
00000010
00000100
00001000
00010000
01000000
00000000
,
00100000
00010000
01000000
00000000
00100000
10000000
01000000
00000000
,
00100000
00000000
00010000
00000000
10000000
00000000
00100000
01000000
00001000
00000000
00001000
00000000
00001000
00000000
00000000
00000000
,
00010000
00000000
01000000
00000000
10000000
00000000
00100000
01000000
00001000
00000000
00001000
00000000
00001000
00000000
00000000
00000000
,
00010000
00000000
00000010
00000000
00000100
00000000
00000001
00000010
00000100
00000000
00000100
00000000
00000100
00000000
00000000
00000000
,
00010000
00000000
00001000
00000000
00000100
00000000
00000001
00000010
00000100
00000000
00000100
00000000
00000100
00000000
00000000
00000000
,
00010000
00000000
00001000
00000000
00100000
00000000
00010000
01000000
00100000
00000000
00100000
00000000
00100000
00000000
00000000
00000000
,
10000000
00000000
00010000
00000000
01000000
00000000
00100000
10000000
01000000
00000000
01000000
00000000
01000000
00000000
00000000
00000000
,
00100000
00000000
00001000
00000000
00010000
00000000
00100000
10000000
01000000
00000000
01000000
00000000
01000000
00000000
00000000
00000000
,
00100000
00001000
00000000
00000000
01000000
00010000
00000000
00000000
00100000
00001000
00000000
00000000
01000000
00010000
00000000
00000000
,
00100000
00001000
00000000
00000000
01000000
00010000
00000000
00000000
00100000
00000000
00001000
00000000
00001000
00010000
00000000
00000000
,
00000010
00000100
00000000
00000001
00000010
00000000
00000100
00000000
00001000
00000000
00000001
00000000
00000100
00000010
00000000
00000000
,
00001000
00000100
00000000
00010000
00001000
00000000
00000100
00000000
00000001
00000000
00000010
00000000
00000100
00010000
00000000
00000000
,
00001000
00100000
00000000
00010000
01000000
00000000
01000000
00000000
00100000
00000000
10000000
00000000
00010000
01000000
00000000
00000000
,
00001000
00010000
00000000
00001000
00100000
00000000
00010000
00000000
01000000
00000000
00100000
00000000
10000000
01000000
00000000
00000000
,
00010000
00001000
00000000
00001000
00000100
00000000
00000001
00000000
00000010
00000000
00000100
00000000
00001000
00000001
00000000
00000000
,
00000100
00000010
00000100
00000000
00000001
00000010
00000001
00000000
00000100
00000010
00000100
00000000
00000001
00000000
00000000
00000000
,
00001000
00000100
00000000
00010000
00001000
00000000
00100000
00000000
00010000
00000000
00010000
00000000
01000000
00100000
00000000
00000000
,
10000000
01000000
00000000
00100000
00010000
00000000
00010000
00000000
01000000
00000000
00100000
00000000
10000000
01000000
00000000
00000000
,
00100000
00010000
00000000
01000000
00001000
00000000
00010000
00000000
00000100
00000000
00000100
00000000
00000010
00000001
00000000
00000000
,
00000100
00000010
00000000
00001000
00000100
00000000
00000010
00000000
00000001
00000000
00001000
00000000
00000100
00000000
00000000
00000000
,
00010000
00001000
00000000
00100000
00010000
00000000
00000000
00000000
01000000
00001000
00000000
00010000
00000010
00000000
00000000
00000000
,
00001000
00000100
00000000
00000010
00000001
00000000
00001000
00000000
00000010
00000000
00000010
00000000
00000100
00000000
00000000
00000000
,
00000001
00000010
00000000
00000100
00001000
00000000
00000000
00000000
00000001
00000100
00000000
00000010
00001000
00000000
00000000
00000000
,
00000100
00010000
00000000
00001000
00100000
00000000
00010000
00000000
01000000
00000000
00100000
00000000
10000000
00000000
00000000
00000000
,
01000000
00100000
00000000
00010000
01000000
00000000
00000000
00000000
00100000
10000000
00000000
01000000
00010000
00000000
00000000
00000000
,
00001000
00000100
00000000
00000001
00000010
00000000
00000100
00000000
00001000
00000000
00000001
00000000
00000100
00000000
00000000
00000000
,
00000010
00001000
00000000
00000100
00010000
00000000
00000000
00000000
00001000
00100000
00000000
00010000
10000000
00000000
00000000
00000000
,
00100000
01000000
00000000
00010000
00100000
00000000
00000000
00000000
01000000
10000000
00000000
00100000
01000000
00000000
00000000
00000000
,
00000000
00000000
10010000
00000000
00000000
00000000
01001000
00000000
00000000
00000000
00010000
00100000
01000000
00000000
10000000
00000000
,
00000000
00000000
01001000
00000000
00000000
00000000
00010010
00000000
00000000
00000000
00000100
00000010
00000001
00000000
00001000
00000000
,
00000000
00000000
00010100
00000000
00000000
00000000
00101000
00000000
00000000
00000000
00010000
01000000
00100000
00000000
10000000
00000000
,
00000000
00000000
01010000
00000000
00000000
00000000
00101000
00000000
00000000
00000000
00000100
00000001
00000010
00000000
00000100
00000000
,
00000000
00000000
00001001
00000000
00000000
00000000
00000110
00000000
00000000
00000000
00001000
00000001
00000100
00000000
00000010
00000000
,
00000000
00000000
00010100
00000000
00000000
00000000
00101000
00000000
00000000
00000000
00010000
01000000
00100000
00000000
10000000
00000000
,
00000000
01010000
00000000
00101000
00000000
00010100
00000000
00001010
,
00000000
00000000
00000001
00000000
00000010
00000000
00000100
00000000
00001000
00000000
00000010
00001000
00000100
00000000
00010000
00000000
,
00001000
00000000
00010000
00000000
01000000
00000000
10000000
00000000
00100000
00000000
01000000
00010000
00100000
00000000
01000000
00000000
,
10010000
00000000
00000000
00000000
,
00000000
00000000
00000000
00000000
;

//---------------dance-single - ----------------
#NOTES:
     dance-single:
     :
     Challenge:
     16:
     0.784528,0.796935,0.411321,0.155635,0.794851,494.000000,457.000000,37.000000,14.000000,0.000000,0.000000,0.784528,0.796935,0.411321,0.155635,0.794851,494.000000,457.000000,37.000000,14.000000,0.000000,0.000000:
// measure 0
0000
0000
0000
0000
,  // measure 1
0000
0000
0000
0000
,  // measure 2
0000
0000
0000
0000
,  // measure 3
0000
0000
0000
0000
0000
0000
0000
0000
0000
0000
0000
0000
0000
0000
1000
0100
,  // measure 4
1000
0000
0100
1000
0100
0000
0010
0100
0010
0000
0001
0010
0001
1000
0001
0000
,  // measure 5
1001
0000
0000
0000
1001
0000
0000
0000
0020
0030
0020
0030
0020
0030
0020
0130
,  // measure 6
1000
0000
0100
1000
0000
0000
0100
1000
0010
0000
0010
0100
0000
0000
0010
0100
,  // measure 7
0001
0000
0001
0100
0010
0000
0100
0010
1000
0010
0100
0001
1000
0001
1000
0100
,  // measure 8
0010
0000
0001
0010
0000
0000
0001
1000
0100
0000
1000
0100
0010
0001
0020
0000
,  // measure 9
0030
0000
0001
0010
0100
1000
0020
0000
0030
0000
1000
0100
0010
0001
0020
0031
,  // measure 10
1000
0000
0001
0000
0101
0000
0001
1000
0100
0000
0010
0000
0011
0000
1000
0001
,  // measure 11
0010
0000
1000
0000
0010
0000
0001
0000
0010
0000
1000
0000
0010
0000
0001
1000
,  // measure 12
0010
0000
1000
0000
1100
0000
1000
0001
0010
0000
0001
0000
0101
0000
1000
0100
,  // measure 13
0010
0000
0100
0000
0010
0000
1000
0000
0010
0000
0100
0000
0010
0000
0001
0010
,  // measure 14
0100
0000
1000
0000
1100
0000
0100
1000
0010
0000
0100
0000
0110
0000
0010
0001
,  // measure 15
1000
0000
0010
0000
0001
0000
0010
0000
1000
0000
0010
0000
0001
0000
0010
1000
,  // measure 16
0001
0000
0010
0000
0110
0000
0100
1000
0010
0000
0100
0000
0110
0000
0100
0020
,  // measure 17
0100
0000
0100
0100
0100
0000
0130
0000
,  // measure 18
0110
0000
0110
0000
0110
0000
0110
0000
0110
0000
0110
0000
0010
0100
0001
1000
,  // measure 19
0100
1000
0000
0100
1000
0000
0010
0100
0001
0000
0010
0000
0001
0000
0000
1000
,  // measure 20
0001
0010
0001
1000
0001
0010
0001
1000
0010
0100
0010
1000
0010
0100
0010
1000
,  // measure 21
0100
1000
0100
0000
1000
0000
0100
0010
0100
0000
1000
0100
0000
0010
0001
0000
,  // measure 22
0010
0001
0010
0001
0100
0010
0100
0010
1000
0100
1000
0100
0010
0001
1000
0100
,  // measure 23
0010
0001
0010
0000
0011
0000
0010
0000
0001
1000
0001
0000
1001
0000
1000
0001
,  // measure 24
0100
0001
0100
0010
1000
0100
1000
0010
1000
0100
1000
0100
0010
0001
0100
0010
,  // measure 25
1000
0100
1000
0100
1000
0000
0100
1000
0010
0000
0100
0000
0001
0000
0010
0000
,  // measure 26
0001
0010
0001
0010
0100
1000
0100
1000
0010
0100
0010
0100
0001
0000
0010
0000
,  // measure 27
0001
0010
0100
1000
0010
1000
0100
0010
0000
0001
0010
0100
0000
1000
0100
0010
,  // measure 28
0001
0000
0010
0100
1000
0000
0001
0010
0100
1000
0100
0010
0001
0000
1000
0000
,  // measure 29
0010
0000
0100
0001
0010
0001
0100
0001
0000
0001
0000
1000
0100
0000
1000
0000
,  // measure 30
0100
0000
1000
0100
0010
0000
0100
0010
0001
0010
0100
1000
0010
0000
0100
0000
,  // measure 31
0001
0100
0010
0000
0110
0000
0000
1000
0100
0010
0100
0010
0110
0000
0100
1000
,  // measure 32
0010
0000
0010
0100
0001
0000
0001
0100
0010
1000
0100
0010
0001
0000
1000
0000
,  // measure 33
0001
0010
0001
1000
0010
0000
0100
0001
1000
0000
0010
0100
0001
0000
1000
0100
,  // measure 34
0010
0000
0001
0100
0010
0000
1000
0010
0100
0000
0001
0010
0100
0000
1000
0000
,  // measure 35
1100
0000
0100
1000
0000
0100
1000
0000
0110
0000
0001
0010
0100
1000
0020
0000
,  // measure 36
0030
0000
0001
0100
0010
1000
0020
0000
0030
0000
1000
0100
0010
0001
0020
0030
,  // measure 37
0020
0031
0100
0000
0101
0000
0001
1000
0100
0000
1000
0000
1100
0000
0100
1000
,  // measure 38
0010
0000
0001
0000
0010
0000
1000
0000
0010
0000
0001
0000
0010
0000
1000
0001
,  // measure 39
0010
0001
1000
0000
1001
0000
0001
1000
0010
0000
0100
0000
0110
0000
0010
1000
,  // measure 40
0001
0000
0010
0000
1000
0000
0010
0000
0001
0000
0010
0000
1000
0000
0010
0001
,  // measure 41
0100
0000
0010
0000
0110
0000
0100
1000
0001
0000
0010
0000
0011
0000
0001
1000
,  // measure 42
0010
0000
0001
0000
0010
0000
1000
0000
0010
0000
0001
0000
0010
0000
1000
0001
,  // measure 43
0010
0000
0100
0000
0110
0000
0010
0100
0001
0000
0010
0000
1010
0000
1000
0020
,  // measure 44
0100
0000
0100
0100
0100
0030
0110
0000
,  // measure 45
1010
0000
1010
0000
0011
0000
0011
0000
1010
0000
0011
0000
1000
0001
0100
0001
,  // measure 46
0020
0030
0000
0000
;
