#TITLE:HERO;
#SUBTITLE:;
#ARTIST:PAPAYA;
#TITLETRANSLIT:;
#SUBTITLETRANSLIT:;
#ARTISTTRANSLIT:;
#GENRE:;
#CREDIT:;
#BANNER:HERO.png;
#BACKGROUND:HERO-bg.png;
#LYRICSPATH:;
#CDTITLE:;
#MUSIC:HERO.ogg;
#OFFSET:0.000000;
#SAMPLESTART:75.220001;
#SAMPLELENGTH:15.000000;
#SELECTABLE:YES;
#DISPLAYBPM:138.000000;
#BPMS:0.000000=137.500000
,4.000000=138.000000
,140.000000=137.600006
,142.000000=138.000000
;
#STOPS:
;
#BGCHANGES:0.000=HERO.avi=1.000=0=0=0=StretchNoLoop====,
99999=-nosongbg-=1.000=0=0=0 // don't automatically add -songbackground-
;
#KEYSOUNDS:;
#ATTACKS:;

//---------------dance-single - ----------------
#NOTES:
     dance-single:
     :
     Beginner:
     2:
     0.114089,0.165285,0.010109,0.000000,0.000000,79.000000,78.000000,1.000000,0.000000,0.000000,0.000000,0.114089,0.165285,0.010109,0.000000,0.000000,79.000000,78.000000,1.000000,0.000000,0.000000,0.000000:
0000
0000
0000
0000
,
0000
0000
0000
0000
,
0000
0000
0000
0000
,
0000
0000
0000
0000
,
0000
0000
0000
0000
,
0000
0000
0000
0000
,
0001
0000
0000
0000
,
1000
0000
0000
0000
,
0001
0000
0000
0000
,
1000
0000
0000
0000
,
0001
0000
0001
0000
,
1000
0000
1000
0000
,
0001
0000
0000
0000
,
1000
0000
0000
0000
,
0001
0000
0001
0000
,
1000
0000
1000
0000
,
0010
0000
0000
0000
,
0010
0000
0010
0000
,
0100
0000
0000
0000
,
0100
0000
0100
0000
,
0001
0000
0000
0000
,
0001
0000
0001
0000
,
1000
0000
0000
0000
,
0001
0000
0000
0000
,
0001
0000
0001
0000
,
1000
0000
1000
0000
,
0001
0000
1000
0000
,
0001
0001
0001
0000
,
1000
0000
1000
0000
,
0001
0000
0001
0000
,
1000
0000
0001
0000
,
1000
1000
1000
0000
,
0000
0000
0000
0000
,
0000
0000
0000
0000
,
0000
0000
0000
0000
,
0000
0000
0001
0000
,
0000
0000
1000
0000
,
0000
0000
0001
0000
,
0001
0000
1000
0000
,
1000
0000
0001
0000
,
1000
0000
0001
0000
,
1000
0000
0001
0000
,
0000
0000
1000
0000
,
0000
0000
0001
0000
,
0001
0000
1000
0000
,
1000
0000
0001
0000
,
1000
0000
0001
0001
,
0001
0000
1000
0000
,
1000
0000
0001
0000
,
0001
0000
1000
0000
,
0001
0000
1000
1000
,
1000
0000
0100
0000
,
0000
0000
0010
0000
,
0010
0000
0100
0000
,
0000
0000
1001
0000
,
0000
0000
0000
0000
;

//---------------dance-single - ----------------
#NOTES:
     dance-single:
     :
     Easy:
     6:
     0.313385,0.385665,0.495350,0.131419,0.000000,217.000000,168.000000,49.000000,13.000000,0.000000,0.000000,0.313385,0.385665,0.495350,0.131419,0.000000,217.000000,168.000000,49.000000,13.000000,0.000000,0.000000:
0000
0000
0000
0000
,
0000
0000
0000
0000
,
1000
0010
0010
0000
,
0001
0010
0010
0000
,
1100
0101
1010
0012
,
1000
1000
1003
0000
,
0001
0010
0010
0000
,
0000
0000
0000
0000
,
0000
0001
0000
0001
,
0000
1000
0000
1000
,
0010
0100
0010
0100
,
1001
0110
1001
0000
,
0000
1000
0000
1000
,
0000
0001
0000
0001
,
0010
0100
0010
0100
,
1001
0110
1001
0110
,
0001
0100
1000
0100
,
0011
1100
0202
0303
,
0010
0100
1000
0001
,
1010
0101
2200
3300
,
0010
0100
0001
1000
,
1100
0011
0101
0010
,
1000
0100
0001
0010
,
1000
1000
1000
0000
,
0100
0100
1001
0000
,
0010
0010
1001
0000
,
0100
1001
0010
1001
,
0100
0010
1001
0000
,
0001
0001
1100
0000
,
0010
0010
0101
0000
,
1000
0011
0100
1010
,
0101
0011
2200
3300
,
0020
0100
0000
0130
,
0000
1000
0020
0100
,
0000
0130
2002
0000
,
0000
3003
0010
0010
,
0001
0000
0010
0010
,
1000
0000
0010
0010
,
0100
0100
1000
0001
,
1000
0001
0010
0010
,
1000
0000
0010
0010
,
0001
0000
0010
0010
,
0100
0100
0001
1000
,
0001
0000
0100
0100
,
1001
0000
0010
0010
,
1001
0000
0100
1001
,
0010
1001
0100
0010
,
1001
0000
1000
1000
,
0101
0000
0010
0010
,
1100
0000
0001
1010
,
0100
0011
1100
1010
,
0202
0303
0010
0010
,
0010
1001
0010
0010
,
0101
1100
0001
0010
,
1000
0100
1001
0000
,
0000
0000
0000
0000
;

//---------------dance-single - ----------------
#NOTES:
     dance-single:
     :
     Medium:
     8:
     0.379816,0.440760,0.525677,0.212293,0.000000,263.000000,211.000000,52.000000,21.000000,0.000000,0.000000,0.379816,0.440760,0.525677,0.212293,0.000000,263.000000,211.000000,52.000000,21.000000,0.000000,0.000000:
0000
0000
0000
0000
,
0000
0000
0000
0000
,
0000
0001
1000
0100
0010
0000
0010
0000
,
0000
1000
0001
0100
0010
0000
0010
0000
,
0000
0001
1000
0100
0010
0000
0010
0000
,
1100
0101
1001
0000
,
0000
1000
0001
0100
0010
0000
0010
0000
,
0200
0000
0000
0300
,
0000
0001
1000
0100
,
0000
1000
0001
0100
,
0010
0100
0010
0100
,
0011
1100
0101
0000
,
0000
1000
0001
0100
,
0000
0001
1000
0100
,
0010
0100
0010
0100
,
1010
0101
1100
0011
,
0001
2000
0001
3001
,
1010
0101
0101
0000
,
1000
0002
1000
1003
,
0011
1100
1100
0000
,
0010
0100
0001
0001
,
1100
1100
0101
0010
,
0100
1000
1000
0010
,
1000
0100
0001
0100
1000
0000
0000
0000
,
0100
0100
0100
0000
1001
0000
0000
0000
,
0010
0010
0010
0000
1001
0000
0000
0000
,
1000
1000
1000
0000
0001
0001
0001
0000
,
1100
0101
1001
0000
,
0102
0100
0103
0000
1001
0000
0000
0000
,
2010
0010
3010
0000
1001
0000
0000
0000
,
0021
0001
0031
0000
1200
1000
1300
0000
,
0101
1100
2002
3003
,
0200
0010
0000
0310
,
0000
1000
0200
0010
,
0000
0310
2002
3003
,
1000
1001
0001
1000
,
0001
0100
0001
0000
1000
0000
0001
0000
,
1000
0100
1000
0000
0010
0000
0100
0000
,
0010
0100
0001
1000
,
0001
1001
1000
0001
,
1000
0100
1000
0000
0001
0000
1000
0000
,
0001
0100
0001
0000
0010
0000
0100
0000
,
0010
0100
1000
0001
,
2002
0000
3003
0000
0100
0100
0100
0000
,
1001
0000
0000
0000
0010
0010
0010
0000
,
1001
0000
0000
0000
0001
0001
0001
0000
,
1000
1000
1000
0000
0101
0000
1100
0000
,
1001
0000
0000
0000
2100
0100
3100
0000
,
1001
0000
0000
0000
0012
0010
0013
0000
,
1001
0000
0000
0000
1020
1000
1030
0000
,
0201
0001
0301
0000
1100
0000
0101
0000
,
2002
0000
3003
0000
0000
0010
0100
0010
,
0001
0000
1000
0000
0000
0010
0100
0010
,
1000
0000
0001
0000
0000
0010
0100
0010
,
0001
1000
1001
0000
,
0000
0000
0000
0000
;

//---------------dance-single - ----------------
#NOTES:
     dance-single:
     :
     Hard:
     9:
     0.480908,0.495855,0.525677,0.171856,0.338657,333.000000,281.000000,52.000000,17.000000,0.000000,0.000000,0.480908,0.495855,0.525677,0.171856,0.338657,333.000000,281.000000,52.000000,17.000000,0.000000,0.000000:
0000
0000
0000
0000
,
0000
0000
0000
0000
,
0000
0000
0010
0000
0100
0000
0010
0000
1000
0000
0000
1000
0001
0000
0000
0000
,
0000
0000
0010
0000
0100
0000
0010
0000
0001
0000
0000
0001
1000
0000
0000
0000
,
0000
0000
0010
0000
0100
0000
0010
0000
1000
0000
0000
1000
0001
0000
0000
0001
,
1000
0000
0000
1000
0001
0000
0000
0001
1000
0000
0000
0000
0000
0000
0000
0000
,
0000
0000
0001
0000
1000
0000
0100
0000
0010
0000
0000
0010
0100
0000
0000
0100
,
2000
0000
0000
3000
,
0000
0000
0001
0002
0000
0000
1003
2000
,
0000
0000
3001
0002
0000
0000
1003
1000
,
0100
0000
0000
0100
0010
0000
0000
0010
0100
0000
0000
0100
0010
0000
0000
0000
,
0011
1100
0101
0000
,
0000
0000
1000
2000
0000
0000
3001
0002
,
0000
0000
1003
2000
0000
0000
3001
0001
,
0100
0000
0000
0100
0010
0000
0000
0010
0100
0000
0000
0100
0010
0000
0000
0000
,
1010
0101
1100
0101
,
0001
0000
0100
0000
1000
0000
0000
0000
0101
0000
0000
0100
0001
0000
0000
0001
,
0100
0000
0000
0010
1000
0000
0000
0001
0100
0000
0000
0000
0000
0000
0000
0000
,
1000
0000
0100
0000
0001
0000
0000
0000
1100
0000
0000
0100
1000
0000
0000
1000
,
0100
0000
0000
0010
0001
0000
0000
1000
0100
0000
0000
0000
0000
0000
0000
0000
,
0010
0000
1000
0000
0100
0000
0000
0000
0001
0000
0000
0001
0100
0000
0000
0100
,
1000
0000
0000
1000
0100
0000
0000
0100
0001
0000
0000
0001
0010
0000
0000
0010
,
0100
0000
0000
0100
1000
0000
0000
1000
0010
0000
0000
0000
1010
0000
0000
0000
,
1000
0100
0001
0100
1000
0010
0001
0000
,
0010
0000
0000
0010
1000
0000
0000
1000
0100
0000
0000
0000
1001
0000
0000
0000
,
0100
0000
0000
0100
0010
0000
0000
0010
0001
0000
0000
0000
0110
0000
0000
0000
,
1000
0000
0000
1000
0001
0000
0000
0001
1000
0000
0000
1000
0001
0000
0000
0000
,
1100
0101
0110
0000
,
0101
0000
0000
0001
0100
0000
0000
0100
0001
0000
0000
0000
1001
0000
0000
0000
,
1010
0000
0000
1000
0010
0000
0000
0010
1000
0000
0000
0000
1001
0000
0000
0000
,
0011
0000
0000
0010
0001
0000
0000
0000
1100
0000
0000
0100
1000
0000
0000
0000
,
0101
1100
2002
3003
,
0020
0100
0000
0130
,
0000
0001
1000
0100
0020
0000
0100
0000
,
0000
0130
2002
3003
,
0001
0000
0000
0000
1001
0000
0000
0000
1000
0000
0000
1000
0001
0000
0000
0001
,
0010
0000
0100
0000
1000
0000
0000
0000
0010
0000
0000
0010
1000
0000
0000
1000
,
0001
0010
0100
0000
0010
0000
1100
0000
,
0100
0011
1001
0110
,
1001
0000
0000
0000
0110
0000
0000
0000
0001
0000
0000
0001
1000
0000
0000
1000
,
0010
0000
0100
0000
0001
0000
0000
0000
0010
0000
0000
0010
0001
0000
0000
0001
,
1000
0010
0100
0000
0010
0000
0101
0000
,
0100
1010
1001
0110
,
2002
0000
0000
0000
3003
0000
0000
0000
0010
0000
0000
0010
0001
0000
0000
0001
,
0100
0000
0000
0000
1001
0000
0000
0000
0100
0000
0000
0100
0010
0000
0000
0010
,
1000
0000
0000
0000
0110
0000
0000
0000
0001
0000
0000
0001
1000
0000
0000
1000
,
0001
0000
0000
0001
1000
0000
0000
0000
0101
0000
0000
0000
1100
0000
0000
0000
,
0110
0000
0000
0000
0000
0000
0000
0000
1100
0000
0000
1000
0100
0000
0000
0100
,
1000
0000
0000
0000
1001
0000
0000
0000
0011
0000
0000
0001
0010
0000
0000
0010
,
0001
0000
0000
0000
1001
0000
0000
0000
1010
0000
0000
0010
1000
0000
0000
0000
,
0101
0000
0000
0100
0001
0000
0000
0000
1100
0000
0000
0000
0101
0000
0000
0000
,
2002
0000
3003
0000
0000
0001
1000
0100
,
0010
0000
0000
0010
0100
0000
0000
0000
0000
0000
1000
0000
0001
0000
0100
0000
,
0010
0000
0000
0010
0100
0000
0000
0000
0000
0000
0001
0000
1000
0000
0100
0000
,
0010
0000
0000
0010
0100
0000
0000
0000
1001
0000
0000
0000
0000
0000
0000
0000
,
0000
0000
0000
0000
;

//---------------dance-single - ----------------
#NOTES:
     dance-single:
     :
     Challenge:
     8:
     0.397146,0.440760,0.606551,0.000000,0.035382,275.000000,215.000000,60.000000,0.000000,96.000000,0.000000,0.397146,0.440760,0.606551,0.000000,0.035382,275.000000,215.000000,60.000000,0.000000,96.000000,0.000000:
0000
0000
0000
0000
,
0000
0000
0000
0000
,
0000
0001
1000
0100
0010
0000
0010
0000
,
0000
1000
0001
0100
0010
0000
0010
0000
,
0000
0001
1000
0100
0010
0000
0010
0000
,
1100
0101
1001
MMMM
,
0000
1000
0001
0100
0010
0000
0010
0000
,
0100
0100
0100
0000
MMMM
0000
1001
0000
,
0000
0000
0001
0001
0000
0000
1000
1000
,
0000
0000
0001
0001
0000
0000
1000
1000
,
0010
0100
0010
0100
,
0011
MMMM
0101
0000
,
0000
0000
1000
1000
0000
0000
0001
0001
,
0000
0000
1000
1000
0000
0000
0001
0001
,
0010
0100
0010
0100
,
1010
MMMM
1100
0101
,
0001
1000
0101
0101
,
1010
0101
0101
MMMM
,
1000
0001
1100
1100
,
0011
1100
1100
MMMM
,
0010
0100
0001
0001
,
1100
1100
0101
MMMM
,
0100
1000
1000
0010
,
1000
0100
0001
0100
1000
0000
MMMM
0000
,
0100
0100
0100
0000
1001
0000
MMMM
0000
,
0010
0010
0010
0000
1001
0000
MMMM
0000
,
1000
1000
1000
0000
0001
0001
0001
0000
,
1100
0101
1001
MMMM
,
0101
0000
0000
0001
0100
0000
0000
0000
1001
0000
0000
0000
MMMM
0000
0000
0000
,
1010
0000
0000
1000
0010
0000
0000
0000
1001
0000
0000
0000
MMMM
0000
0000
0000
,
0011
0011
1100
1100
,
0101
1100
1001
MMMM
,
1000
1000
1000
1000
,
0010
0010
0100
0100
,
1000
0000
0010
0000
0001
0100
1000
0010
,
0001
1001
0001
1000
,
0001
0100
0001
0000
1000
0000
0001
0000
,
1000
0100
1000
0000
0010
0000
0100
0000
,
0010
0100
0001
1000
,
0001
1001
1000
0001
,
1000
0100
1000
0000
0001
0000
1000
0000
,
0001
0100
0001
0000
0010
0000
0101
0000
,
0100
1010
1001
0110
,
1001
0000
MMMM
0000
0100
0100
0100
0000
,
1001
0000
MMMM
0000
0010
0010
0010
0000
,
1001
0000
MMMM
0000
0001
0001
0001
0000
,
1000
1000
1000
0000
0101
0000
MMMM
0000
,
1100
0000
0000
0000
0000
0000
0000
0000
1100
0000
0000
1000
0100
0000
0000
0000
,
1001
0000
0000
0000
MMMM
0000
0000
0000
0011
0000
0000
0001
0010
0000
0000
0000
,
1001
MMMM
1010
1010
,
0101
0101
1100
MMMM
,
0101
0000
0000
0000
0000
0010
0100
0010
,
MMMM
0000
0000
1000
0001
0000
0000
0000
0000
0000
0010
0000
0100
0000
0010
0000
,
MMMM
0000
0000
0001
1000
0000
0000
0000
0000
0000
0001
0000
1000
0000
0100
0000
,
MMMM
0000
0000
0010
0100
0000
0000
0000
1001
0000
0000
0000
0000
0000
0000
0000
,
0000
0000
0000
0000
;

//---------------dance-double - ----------------
#NOTES:
     dance-double:
     :
     Easy:
     6:
     0.313385,0.385665,0.454913,0.020218,0.000000,217.000000,172.000000,45.000000,2.000000,0.000000,0.000000,0.313385,0.385665,0.454913,0.020218,0.000000,217.000000,172.000000,45.000000,2.000000,0.000000,0.000000:
00000000
00000000
00000000
00000000
,
00000000
00000000
00000000
00000000
,
00010000
10000000
01000000
00010000
,
00001000
00000100
00000001
00000010
,
00010000
00100000
00010000
10000000
,
00010000
00010000
00010000
00000000
,
00001000
00000001
00000001
00000000
,
00000200
00000000
00000000
00000300
,
00000000
00000010
00000000
00000010
,
00000000
00000001
00000000
00000001
,
00000100
00001000
00010000
01000000
,
10010000
01100000
10010000
00000000
,
00000000
00100000
00000000
00100000
,
00000000
10000000
00000000
10000000
,
01000000
00010000
00001000
00000100
,
00001001
00000110
00001001
00000110
,
00000001
00000100
00001000
00010000
,
11000000
00110000
00011000
00000000
,
10000000
01000000
00010000
00001000
,
00000101
00001010
00011000
00000000
,
00000100
00001000
01000000
00010000
,
00001001
00001001
00001001
00000100
,
00010000
01000000
10000000
00010000
,
00100000
00100000
00100000
00000000
,
10000000
10000000
01100000
00000000
,
00001000
00001000
00000110
00000000
,
00000001
00000110
00001000
00011000
,
00100000
00100000
10010000
00000000
,
10000000
10000000
01010000
00000000
,
00001000
00001000
00000101
00000000
,
00000010
00011000
00100000
00011000
,
00001001
00011000
10010000
00000000
,
00200000
01000000
00000000
01300000
,
00000000
00010000
00001000
00000100
,
00000000
00000100
00001001
00000000
,
00000100
00000100
00000001
00000100
,
00001000
00000000
00010000
01000000
,
10000000
00000000
10000000
10000000
,
00010000
00010000
00001000
00001000
,
00000001
00000000
00000001
00000100
,
00001000
00000000
00010000
01000000
,
10000000
00000000
10000000
10000000
,
00010000
00010000
00001000
00001000
,
00000001
00000000
00000001
00000001
,
00000110
00000000
00010000
00010000
,
01100000
00000000
10000000
01100000
,
00010000
00011000
00000010
00000010
,
00001001
00000000
00000001
00000001
,
00001100
00000000
00010000
00010000
,
11000000
00000000
00100000
00011000
,
00000010
00011000
10010000
00011000
,
00001001
00000000
00000010
00000010
,
00000010
00001001
00010000
00010000
,
01010000
10100000
01000000
00010000
,
00001000
00000100
00001001
00000000
,
00000000
00000000
00000000
00000000
;

//---------------dance-double - ----------------
#NOTES:
     dance-double:
     :
     Medium:
     7:
     0.374040,0.413213,0.535787,0.070764,0.000000,259.000000,206.000000,53.000000,7.000000,0.000000,0.000000,0.374040,0.413213,0.535787,0.070764,0.000000,259.000000,206.000000,53.000000,7.000000,0.000000,0.000000:
00000000
00000000
00000000
00000000
,
00000000
00000000
00000000
00000000
,
00000010
00000010
00000010
00000000
00001000
00000000
01000000
00000000
,
00100000
00100000
00100000
00000000
00010000
00000000
00000100
00000000
,
00000010
00000010
00000010
00000000
00001000
00000000
01000000
00000000
,
10000000
00010000
10000000
00000000
,
10100000
00100000
00100000
00000000
00010000
00000000
00000100
00000000
,
00002000
00000000
00000000
00003000
,
00000000
00000000
00000010
00000100
00000000
00000000
00001000
00010000
,
00000000
00000000
00100000
10000000
00000000
00000000
10000000
01000000
,
00010000
00001000
00010000
00001000
,
00000101
00001010
00011000
00000000
,
00000000
00000000
00100000
01000000
00000000
00000000
00010000
00001000
,
00000000
00000000
00000010
00000001
00000000
00000000
00000001
00000100
,
00001000
00010000
00001000
00010000
,
11000000
00110000
00011000
00000000
,
00000010
00000001
00000100
00001000
,
01010000
00000000
00100000
10000000
00100000
00000000
00000000
00000000
,
00100000
10000000
01000000
00010000
,
00001100
00000000
00000010
00000001
00000010
00000000
00000000
00000000
,
00000100
00001000
00010000
01000000
,
00110000
00011000
00001010
00000001
,
00000100
00001000
00001000
00010000
,
01000000
10000000
00100000
00010000
00001000
00000000
00000000
00000000
,
00000101
00000100
00001001
00000000
,
00011000
00010000
10010000
00000000
,
10100000
00100000
01010000
00010000
,
00011000
00000110
00001001
00000000
,
00000100
00000100
00000100
00000000
00001001
00000000
00000000
00000000
,
00010000
00010000
00010000
00000000
10010000
00000000
00000000
00000000
,
00100000
00100000
00100000
00000000
00010000
00010000
00010000
00000000
,
00011000
00000110
00001001
00000000
,
00000020
00000100
00000000
00000130
,
00020000
00001000
00000000
00031000
,
00010000
00001000
00022000
00000000
,
00000000
00033000
00000010
00001000
,
00010000
01100000
00100000
00010000
,
00001000
00000110
00000001
00001000
,
00010000
10000000
10010000
00011000
,
00001001
00011000
00100000
00010000
,
00001000
00000110
00000010
00001000
,
00010000
01100000
10000000
00010000
,
00001000
00000001
00001001
00011000
,
20020000
30030000
11000000
01000000
,
10010000
00000000
00011000
00001000
,
00001001
00000000
00000011
00000010
,
00001100
00001000
00011000
01100000
,
10010000
00000000
00000000
00000000
01000000
01000000
01000000
00000000
,
10010000
00000000
00000000
00000000
00001000
00001000
00001000
00000000
,
00001001
00000000
00000000
00000000
00000010
00000010
00000010
00000000
,
00001000
00001000
00001000
00000000
00011000
00000000
01100000
00000000
,
10010000
00000000
00000000
00000000
00100000
00010000
00100000
00010000
,
00100000
00001000
00010000
00000000
00000010
00001000
00000010
00001000
,
00000010
00010000
00001000
00000000
00100000
00000000
01000000
00000000
,
10000000
00010000
00011000
00000000
,
00000000
00000000
00000000
00000000
;

//---------------dance-double - ----------------
#NOTES:
     dance-double:
     :
     Hard:
     9:
     0.450581,0.440760,0.222402,0.030328,0.000000,312.000000,290.000000,22.000000,3.000000,0.000000,0.000000,0.450581,0.440760,0.222402,0.030328,0.000000,312.000000,290.000000,22.000000,3.000000,0.000000,0.000000:
00000000
00000000
00000000
00000000
,
00000000
00000000
00000000
00000000
,
00000000
00000100
00000000
00000100
00000010
00000001
00000100
00000000
,
00000000
00000010
00000000
00000010
00010000
00000100
00001000
00000000
,
00000000
00000001
00000000
00000001
00000010
00000100
00010000
00000000
,
00001000
01000000
00100000
10000000
01000000
00000000
00000000
00000000
,
00000000
00100000
00000000
00100000
00001000
01000000
00010000
00000000
,
20000000
00000000
00000000
30000000
,
00100000
01000000
10000000
00000000
01010000
00000000
00001000
00000000
,
00010000
00000100
00000010
00000000
00001001
00000000
00000100
00000000
,
00010000
00001000
01000000
00000000
00100000
10000000
01000000
00000000
,
00100000
00001000
00010000
00000100
00000010
00000000
00001001
00000000
,
00000010
00000100
00000010
00000000
00001001
00000000
00000100
00000000
,
00010000
00001000
00100000
00000000
10010000
00000000
01000000
00000000
,
00100000
00010000
00001000
00000000
00000100
00000010
00000001
00000000
,
00001000
00000100
00010000
00001000
00100000
00000000
10010000
00000000
,
00000000
01000000
00100000
00001000
00010000
00000100
00001000
00000010
,
00010000
00000100
00001000
00000000
00011000
00000000
00000000
00000000
,
00000000
00000010
00000100
00000001
00001000
00000100
00010000
00000010
,
00001000
00000100
00010000
00000000
00101000
00000000
00000000
00000000
,
00000000
00010000
01000000
00100000
10000000
00010000
01000000
00001000
,
00100000
00010000
10000000
00000000
01100000
00000000
10010000
00000000
,
01000000
00010000
00001000
00000000
00010000
00001000
00000100
00000000
,
00000001
00000100
00000001
00000010
00000001
00000000
00001100
00000000
,
00010000
00010000
00001000
00001000
01000000
00000000
00100000
00000000
,
00010000
00010000
10000000
10000000
00100000
00000000
01000000
00010000
,
00100000
00001000
00010000
00000100
00001000
00000001
00000100
00000000
,
00000010
00001000
00000100
00010000
00001000
00000000
10010000
00000000
,
00100000
00100000
01000000
01000000
00001000
00000000
00010000
00000000
,
00010000
00010000
00000100
00000100
00000010
00000000
00000001
00000100
,
00000010
00010000
00000100
00001000
00000001
00000100
00000010
00000000
,
00010000
00001000
01000000
00100000
10000000
00000000
10010000
00000000
,
00200000
01000000
00000000
01300000
,
00000000
00001000
00010000
00000010
00001000
00000002
00000100
00000000
,
00000000
00000103
00001001
00000000
,
00000100
00000100
00000010
00001000
,
00000001
00000100
00001000
00000000
00010000
00100000
10000000
00000000
,
00010000
01000000
10000000
00000000
10000000
00000000
00100000
00000000
,
01000000
00001000
00100000
00000000
00010000
10000000
10100000
00000000
,
01001000
00110000
00100000
00010000
,
10000000
01000000
00010000
00000000
00001000
00000010
00000001
00000000
,
00001000
00000100
00000001
00000000
00000001
00000000
00000010
00000000
,
00000100
00010000
00000010
00000000
00001000
00000001
00000110
00000000
,
00011000
00000000
00000000
00000000
00001000
00001000
00010000
00010000
,
00000100
00000000
00000010
00000000
00001000
00001000
00000001
00000001
,
00000010
00000000
00000100
00001000
00000010
00010000
00001000
01000000
,
00010000
10000000
01000000
00000000
00100000
00010000
01000000
00001000
,
00010000
00000000
00001001
00000000
00000010
00000010
00000100
00000100
,
00010000
00000000
00001000
00000000
00001000
00001000
01000000
01000000
,
00100000
00000000
10000000
01000000
00100000
00001000
01000000
00010000
,
10000000
01000000
00100000
00000000
00001000
00010000
00000100
00000010
,
00000001
00000000
00011000
00000000
00000000
00010000
00000000
00010000
,
10000000
01000000
00100000
00000000
00000000
00001000
00000000
00001000
,
00010000
00000100
00000010
00000000
00000000
00000001
00000000
00000001
,
00001000
00000010
00010000
00000000
00011000
00000000
00000000
00000000
,
00000000
00000000
00000000
00000000
;

//---------------dance-double - ----------------
#NOTES:
     dance-double:
     :
     Challenge:
     8:
     0.358154,0.385665,0.404367,0.010109,0.000000,248.000000,208.000000,40.000000,1.000000,156.000000,0.000000,0.358154,0.385665,0.404367,0.010109,0.000000,248.000000,208.000000,40.000000,1.000000,156.000000,0.000000:
00000000
00000000
00000000
00000000
,
00000000
00000000
00000000
00000000
,
00010000
10000000
01000000
00010000
,
00001000
00000100
00000001
00000010
,
00010000
00100000
00010000
10000000
,
00010000
00010000
00010000
MMMMMMMM
,
10000000
00010000
00010000
00001000
,
00000200
00000000
00000300
MMMMMMMM
,
00000000
00000000
00000010
00000100
00000000
00000000
00001000
00010000
,
00000000
00000000
00100000
10000000
00000000
00000000
10000000
01000000
,
00010000
00001000
00010000
00001000
,
00000101
00001010
00011000
MMMMMMMM
,
00000000
00000000
00100000
01000000
00000000
00000000
00010000
00001000
,
00000000
00000000
00000010
00000001
00000000
00000000
00000001
00000100
,
00001000
00010000
00001000
00010000
,
11000000
00110000
00011000
MMMMMMMM
,
00000010
00000001
00000100
00001000
,
01010000
00000000
00100000
10000000
00100000
00000000
MMMMMMMM
00000000
,
00100000
10000000
01000000
00010000
,
00001100
00000000
00000010
00000001
00000010
00000000
MMMMMMMM
00000000
,
00000100
00001000
00010000
01000000
,
00110000
00011000
00001010
MMMMMMMM
,
00000100
00001000
00001000
00010000
,
01000000
10000000
00100000
00010000
00001000
00000000
00000000
00000000
,
00000101
00000100
00001001
MMMMMMMM
,
00011000
00010000
10010000
MMMMMMMM
,
10100000
00100000
01010000
00010000
,
00011000
00000110
00001001
MMMMMMMM
,
00000100
00000100
00000100
00000000
00001001
00000000
MMMMMMMM
00000000
,
00010000
00010000
00010000
00000000
10010000
00000000
MMMMMMMM
00000000
,
00100000
00100000
00100000
00000000
00010000
00010000
00010000
00000000
,
00011000
00000110
00001001
0000MMMM
,
00000100
00000010
00000000
00001000
,
00000000
00010000
00100000
00100000
,
10000000
01000000
00100000
MMMMMMMM
,
00100000
00001000
00010000
00000000
00000010
00000000
00001000
00000000
,
00000001
00000100
00001000
00000000
00010000
00000000
10000000
00000000
,
00010000
01000000
10000000
00000000
10000000
00000000
00100000
00000000
,
01000000
00000000
00100000
00000000
00010000
10000000
00100000
00000000
,
01001000
MMMMMMMM
00100000
00010000
,
10000000
01000000
00010000
00000000
00001000
00000000
00000001
00000000
,
00001000
00000100
00000001
00000000
00000001
00000000
00000010
00000000
,
00000100
00000000
00000010
00000000
00001000
00000001
00000010
00000000
,
00011000
MMMMMMMM
11000000
01000000
,
10010000
MMMMMMMM
00011000
00001000
,
00001001
MMMMMMMM
00000011
00000010
,
00001100
00001000
00011000
01100000
,
10010000
00000000
MMMMMMMM
00000000
00100000
00100000
01000000
00000000
,
00001000
00000000
00010000
00000000
00001000
00001000
00000100
00000000
,
00000010
00000000
00000001
00000000
00000010
00010000
00000100
00000000
,
00000001
00000100
00000010
00000000
00011000
00000000
01100000
00000000
,
10010000
00000000
MMMMMMMM
00000000
00000000
00010000
00000000
00010000
,
10000000
01000000
00100000
00000000
00000000
00001000
00000000
00001000
,
00010000
00000100
00000010
00000000
00000000
00000001
00000000
00000001
,
00001000
00000010
00010000
00000000
00011000
00000000
00000000
00000000
,
00000000
00000000
00000000
00000000
;

//---------------dance-couple - ----------------
#NOTES:
     dance-couple:
     :
     Easy:
     1:
     0.303275,0.385665,0.485241,0.000000,0.000000,210.000000,162.000000,48.000000,0.000000,0.000000,0.000000,0.301831,0.385665,0.485241,0.000000,0.000000,209.000000,161.000000,48.000000,0.000000,0.000000,0.000000:
00000000
00000000
00000000
00000000
,
00000000
00000000
00000000
00000000
,
00010000
00100001
00100000
00000001
,
00001000
10000010
00000010
10000000
,
00001010
01010000
00000101
10100000
,
00011000
00011000
00011000
00000000
,
10000000
00100010
00100000
00000010
,
10011001
00000000
00000000
00000000
,
00000001
10000000
00000001
10000000
,
00001000
00010000
00001000
00010000
,
00100010
01000100
00100010
01000100
,
10010110
01101001
10010110
00000000
,
00001000
00010000
00001000
00010000
,
00000001
10000000
00000001
10000000
,
00100010
01000100
00100010
01000100
,
01101001
10010110
01101001
10010110
,
00011000
01000100
10000001
01000100
,
00111010
11000101
01011100
00000000
,
00100010
01000100
10000001
00011000
,
10100011
01011100
11000101
00000000
,
00100010
01000100
00011000
10000001
,
11000101
00111010
01011100
00100010
,
00011000
01000100
10000001
00100010
,
00011000
00011000
00011000
00000000
,
01000100
01000100
10011001
00000000
,
00100010
00100010
10011001
00000000
,
01000100
10011001
00100010
10011001
,
01000100
00100010
10011001
00000000
,
00011000
00011000
11000101
00000000
,
00100010
00100010
01011100
00000000
,
10000001
00111010
01000100
10100011
,
01011100
00111010
11000101
00000000
,
00100010
01000100
00000000
01000100
,
00000000
10000001
00100010
01000100
,
00000000
01000100
10011001
00000000
,
00000000
00000000
00100010
00100010
,
00011000
00000000
00100010
00100010
,
10000001
00000000
00000010
00100000
,
00000100
01000000
10000001
00011000
,
10000001
00011000
00100010
00100010
,
10000001
00000000
00100010
00100010
,
00011000
00000000
00100000
00000010
,
01000000
00000100
00011000
10000001
,
00011000
00000000
01000100
01000100
,
10011001
00000000
00100010
00100010
,
10011001
00000000
01000100
10011001
,
00100010
10011001
01000100
00100010
,
10011001
00000000
00011000
00011000
,
11000101
00000000
00100010
00100010
,
01011100
00000000
10000001
00111010
,
01000100
10100011
01011100
00111010
,
11000101
00000000
00100010
00100010
,
00100010
10011001
00100010
00100010
,
11000101
01011100
10000001
00100010
,
00011000
01000100
10011001
00000000
,
00000000
00000000
00000000
00000000
;

//---------------dance-couple - ----------------
#NOTES:
     dance-couple:
     :
     Medium:
     1:
     0.345156,0.413213,0.454913,0.000000,0.000000,239.000000,194.000000,45.000000,0.000000,0.000000,0.000000,0.345156,0.440760,0.454913,0.000000,0.000000,239.000000,194.000000,45.000000,0.000000,0.000000,0.000000:
00000000
00000000
00000000
00000000
,
00000000
00000000
00000000
00000000
,
00000000
00010001
10000000
01000001
00100000
00000001
00100001
00000000
,
00000000
10000001
00010000
01000001
00100000
00000001
00100001
00000000
,
00000000
10000001
00001000
10000100
00000010
10000000
10000010
00000000
,
11000101
01011100
10011001
00000000
,
00000000
00010001
00001000
00010100
00000010
00010000
00010010
00000000
,
10011001
00000000
00000000
00000000
,
00000000
00010001
10000000
01000001
,
00000000
10001000
00000001
10000100
,
01000010
00100100
01000010
00100100
,
01010011
10101100
01010101
00000000
,
00000000
00010001
00001000
00010100
,
00000000
10001000
00010000
01001000
,
00100100
01000010
00100100
01000010
,
00110101
11001010
01010101
10100011
,
00010000
00000001
10000000
00000001
00010000
00000001
00010000
00000001
,
10100000
01010010
01011001
00000000
,
00001000
10000000
00000001
10000000
00001000
10000000
00001000
10000000
,
00000011
00101100
10011100
00000000
,
00100010
01000100
00011000
00011000
,
11000101
11000101
01011100
00100010
,
01000100
10000001
10000001
00100010
,
10000001
01000100
00011000
01000100
10000001
00000000
00000000
00000000
,
01000000
01000000
01000010
00000000
10010100
00000000
00000000
00000000
,
00000010
00000010
00100010
00000000
01001001
00000000
00000000
00000000
,
10000100
10000000
10000000
00000000
00000001
00000001
00100001
00000000
,
11000101
01011100
10011001
00000000
,
11000000
01000000
01000010
00000100
10010010
00000000
00000000
00000000
,
00000011
00000010
00100010
01000000
00101001
00000000
00000000
00000000
,
00111010
00011000
00011000
00000000
11000101
10000001
10000001
00000000
,
01011100
11000101
10011001
00000000
,
01000100
00100010
00000000
00100010
,
00000000
10000001
01000100
00100010
,
00000000
00100010
10011001
00000000
,
10000001
10011001
00011000
10000001
,
00011000
01000000
00011000
00000000
10000001
00000000
00011000
00000000
,
10000001
00000100
10000001
00000000
00100010
00000000
01000100
00000000
,
00100010
01000100
00011000
10000001
,
00011000
10011001
10000001
00011000
,
10000001
01000000
10000001
00000000
00011000
00000000
10000001
00000000
,
00011000
00000100
00011000
00000000
00100100
00000000
01000010
00000000
,
00100100
01000010
10000001
00011000
,
10011001
00000000
00000000
00000000
01000000
01000000
01000010
00000000
,
10010100
00000000
00000000
00000000
00000010
00000010
00100010
00000000
,
01001001
00000000
00000000
00000000
10000100
10000000
10000000
00000000
,
00000001
00000001
00100001
00000000
11000101
00000000
01011100
00000000
,
10011001
00000000
00000000
00000000
11000000
01000000
01000010
00000100
,
10010010
00000000
00000000
00000000
00000011
00000010
00100010
01000000
,
00101001
00000000
00000000
00000000
00111010
00011000
00011000
00000000
,
11000101
10000001
10000001
00000000
01011100
00000000
11000101
00000000
,
10011001
00000000
00000000
00000000
00000000
00100010
01000100
00100010
,
00011000
00000000
10000001
00000000
00000000
00100010
01000100
00100010
,
10000001
00000000
00011000
00000000
00000000
00011000
10000001
01000100
,
00100010
00100010
10011001
00000000
,
00000000
00000000
00000000
00000000
;

//---------------dance-couple - ----------------
#NOTES:
     dance-couple:
     :
     Hard:
     1:
     0.440471,0.468308,0.616660,0.000000,0.212293,305.000000,244.000000,61.000000,0.000000,0.000000,0.000000,0.440471,0.468308,0.616660,0.000000,0.212293,305.000000,244.000000,61.000000,0.000000,0.000000,0.000000:
00000000
00000000
00000000
00000000
,
00000000
00000000
00000000
00000000
,
00000000
00000000
00011000
00000000
10000001
00000000
01000010
00000000
00100100
00000000
00000000
00100100
01000010
00000000
00000000
00000000
,
00000000
00000000
10000001
00000000
00011000
00000000
01000010
00000000
00100100
00000000
00000000
00100100
01000010
00000000
00000000
00000000
,
00000000
00000000
00011000
00000000
10000001
00000000
01000010
00000000
00100100
00000000
00000000
00100100
01000010
00000000
00000000
01000010
,
10000001
00000000
00000000
10000001
01000010
00000000
00000000
01000010
00011000
00000000
00000000
00000000
00000000
00000000
00000000
00000000
,
00000000
00000000
10000001
00000000
00011000
00000000
01000010
00000000
00100100
00000000
00000000
00100100
01000010
00000000
00000000
00000000
,
10011001
00000000
00000000
00000000
,
00000000
00000000
00011000
00011000
00000000
00000000
10000001
10000001
,
00000000
00000000
00011000
00011000
00000000
00000000
10000001
10000001
,
01000010
00000000
00000000
01000010
00100100
00000000
00000000
00100100
01000010
00000000
00000000
01000010
00100100
00000000
00000000
00000000
,
00111100
10000001
01011010
00000000
,
00000000
00000000
10000001
10000001
00000000
00000000
00011000
00011000
,
00000000
00000000
10000001
10000001
00000000
00000000
00011000
00011000
,
01000010
00000000
00000000
01000010
00100100
00000000
00000000
00100100
01000010
00000000
00000000
01000010
00100100
00000000
00000000
00000000
,
10100101
00011000
11000011
01011010
,
00011000
10000001
01011010
01011010
,
10100101
00000000
00000000
00000000
01011010
00000000
00000000
00000000
01000010
00011000
00000000
00000000
00000000
00000000
00000000
00000000
,
10000001
00011000
11000011
11000011
,
00111100
00000000
00000000
00000000
11000011
00000000
00000000
00000000
01000010
10000001
00000000
00000000
00000000
00000000
00000000
00000000
,
00100100
00000000
00000000
00000000
01000010
00000000
00000000
00000000
00011000
00000000
00000000
00011000
01000010
00000000
00000000
01000010
,
10000001
00000000
10000001
00000000
01000010
00000000
00000000
01000010
00011000
00000000
00000000
00011000
00100100
00000000
00000000
00000000
,
01000010
10000001
10000001
10100101
,
10000001
01000010
00011000
01000010
10000001
00000000
00000000
00000000
,
00100100
00000000
00000000
00100100
01000010
00000000
00000000
00000000
10011001
00000000
00000000
00000000
00000000
00000000
00000000
00000000
,
01000010
00000000
00000000
01000010
00100100
00000000
00000000
00000000
10011001
00000000
00000000
00000000
00000000
00000000
00000000
00000000
,
10000001
00000000
00000000
10000001
00011000
00000000
00000000
00000000
00011000
00000000
00000000
00011000
10000001
00000000
00000000
00000000
,
11000011
01011010
01100110
00000000
,
01011010
00000000
00000000
00011000
01000010
00000000
00000000
00000000
10011001
00000000
00000000
00000000
00000000
00000000
00000000
00000000
,
10100101
00000000
00000000
10000001
00100100
00000000
00000000
00000000
10011001
00000000
00000000
00000000
00000000
00000000
00000000
00000000
,
00111100
00111100
11000011
11000011
,
01011010
11000011
10011001
00000000
,
00100100
01000010
00000000
01000010
,
00000000
00011000
10000001
01000010
00100100
00000000
01000010
00000000
,
00000000
01000010
10011001
00000000
,
00011000
00000000
00000000
00000000
10011001
00000000
00000000
00000000
10000001
00000000
00000000
10000001
00011000
00000000
00000000
00011000
,
00100100
00000000
01000010
00000000
10000001
00000000
00000000
00000000
00100100
00000000
00000000
00100100
10000001
00000000
00000000
10000001
,
00011000
00100100
01000010
00000000
00100100
00000000
11000011
00000000
,
01000010
00111100
10011001
01100110
,
10011001
00000000
00000000
00000000
01100110
00000000
00000000
00000000
00011000
00000000
00000000
00011000
10000001
00000000
00000000
10000001
,
00100100
00000000
01000010
00000000
00011000
00000000
00000000
00000000
00100100
00000000
00000000
00100100
00011000
00000000
00000000
00011000
,
10000001
00100100
01000010
00000000
00100100
00000000
01011010
00000000
,
01000010
10100101
10011001
01100110
,
10011001
00000000
00000000
00000000
00000000
00000000
00000000
00000000
00100100
00000000
00000000
00100100
01000010
00000000
00000000
00000000
,
10011001
00000000
00000000
00000000
00000000
00000000
00000000
00000000
01000010
00000000
00000000
01000010
00100100
00000000
00000000
00000000
,
10011001
00000000
00000000
00000000
00000000
00000000
00000000
00000000
10000001
00000000
00000000
10000001
00011000
00000000
00000000
00000000
,
00011000
00000000
00000000
00011000
10000001
00000000
00000000
00000000
11000011
00000000
00000000
00000000
01011010
00000000
00000000
00000000
,
01100110
00000000
00000000
00000000
00000000
00000000
00000000
00000000
01011010
00000000
00000000
00011000
01000010
00000000
00000000
00000000
,
10011001
00000000
00000000
00000000
00000000
00000000
00000000
00000000
10100101
00000000
00000000
10000001
00100100
00000000
00000000
00000000
,
10011001
00000000
00111100
00111100
,
11000011
11000011
01011010
11000011
,
10011001
00000000
00000000
00000000
00000000
00100100
01000010
00100100
,
10000001
00000000
00000000
10000001
00011000
00000000
00000000
00000000
00000000
00000000
00100100
00000000
01000010
00000000
00100100
00000000
,
00011000
00000000
00000000
00011000
10000001
00000000
00000000
00000000
00000000
00000000
00011000
00000000
10000001
00000000
01000010
00000000
,
00100100
00000000
00000000
00100100
01000010
00000000
00000000
00000000
10011001
00000000
00000000
00000000
00000000
00000000
00000000
00000000
,
00000000
00000000
00000000
00000000
;

//---------------dance-single - Edit----------------
#NOTES:
     dance-single:
     :
     Edit:
     14:
     0.698978,0.691847,0.687424,0.181965,0.621715,484.000000,416.000000,68.000000,18.000000,212.000000,0.000000,0.698978,0.691847,0.687424,0.181965,0.621715,484.000000,416.000000,68.000000,18.000000,212.000000,0.000000:
// measure 0
0000
0000
0000
0000
,  // measure 1
0000
0000
0000
0000
,  // measure 2
1000
0000
0100
0010
0001
0000
0100
0000
1000
0000
0000
0000
MMMM
0000
0000
0000
,  // measure 3
0001
0000
0010
0100
1000
0000
0100
0000
0010
0000
0000
0000
MMMM
0000
0000
0000
,  // measure 4
1000
0000
0010
0100
0001
0000
1000
0000
0100
0000
0000
0000
MMMM
0000
0000
0000
,  // measure 5
0020
2000
0000
3030
0002
0200
0000
0303
0020
0000
0000
0030
MMMM
0000
0000
0000
,  // measure 6
1000
0000
0001
0010
0100
0000
1000
0000
0100
0000
0000
0000
MMMM
0000
0000
0000
,  // measure 7
1010
0000
0010
1000
0001
0000
0100
0001
0000
1000
0100
0000
MMMM
0000
0010
0100
,  // measure 8
0001
0000
0010
0000
0100
0010
1000
0000
0020
0000
1030
0000
MMMM
0000
0010
0001
,  // measure 9
0100
0000
0001
0000
0010
0001
1000
0000
0200
0000
0310
0000
MMMM
0000
0010
1000
,  // measure 10
0001
0000
0010
0000
0100
0010
1000
0000
0002
0000
1003
0000
MMMM
0000
1000
0100
,  // measure 11
0010
0000
0001
0000
0010
0100
0001
0000
2000
0000
3001
0000
MMMM
0000
0010
0001
,  // measure 12
1000
0000
0100
0000
0010
0100
1000
0000
0002
0000
0103
0000
MMMM
0000
0010
0001
,  // measure 13
0100
0000
1000
0000
0100
0010
0001
0000
2000
0000
3001
0000
MMMM
0000
0001
0010
,  // measure 14
0100
0000
1000
0010
0100
0000
0001
0010
0100
1000
0100
0000
MMMM
0000
1000
0100
,  // measure 15
0010
0000
0001
0010
0100
0000
1000
0010
0100
0000
0000
1000
MMMM
0000
0100
0000
,  // measure 16
0110
0000
0010
1000
0001
0000
1001
0000
0101
0000
0001
0010
MMMM
0000
0100
0010
,  // measure 17
1000
0000
1010
0000
0010
0100
0001
0000
0101
0000
0000
0000
MMMM
0000
1000
0000
,  // measure 18
1010
0000
0010
0001
0100
0000
0110
0000
1100
0000
1000
0001
MMMM
0000
0100
0010
,  // measure 19
1000
0000
0010
1000
0001
0000
0100
0010
1000
0100
0010
0000
MMMM
0000
0010
1000
,  // measure 20
0001
0000
0101
0000
1100
0000
0010
1000
0100
0000
1100
0000
MMMM
0000
1000
0010
,  // measure 21
0100
0000
0000
0100
0001
0000
0000
0001
1000
0000
0001
0000
MMMM
0000
0001
0010
,  // measure 22
0100
0000
1000
0100
0000
0001
0100
0000
0010
0100
0001
0000
MMMM
0000
1000
0100
,  // measure 23
0010
0000
0001
0010
0000
1000
0010
0000
0001
0010
0100
0000
MMMM
0000
0010
0100
,  // measure 24
0001
0000
0000
0001
0010
0000
0000
0010
0100
0000
0000
0000
MMMM
0000
0010
0100
,  // measure 25
1000
0000
0000
1000
0010
0000
0000
0010
0100
0000
0000
0000
MMMM
0000
0001
0100
,  // measure 26
0010
0000
0000
0010
1000
0000
0000
1000
0001
0000
0010
0000
MMMM
0000
0100
0001
,  // measure 27
1000
0000
0000
1000
0010
0000
0000
0010
0100
0000
0000
0000
MMMM
0000
0001
0010
,  // measure 28
0100
0000
0000
1010
0100
0000
0000
0011
0100
0000
0000
0000
MMMM
0000
0010
1000
,  // measure 29
0001
0000
0000
0011
0100
0000
0000
0110
1000
0000
0000
0000
MMMM
0000
0100
1000
,  // measure 30
0010
0000
0100
0001
0010
0000
0100
1000
0010
0100
0001
0000
MMMM
0000
1000
0100
,  // measure 31
0010
0000
0000
0011
0100
0000
0000
1010
0002
0000
0000
0003
MMMM
0000
0000
0000
,  // measure 32
2002
0000
3003
MMMM
,  // measure 33
0000
0000
1000
0010
0100
0000
0101
0000
0001
0010
0100
0000
MMMM
0000
1000
0100
,  // measure 34
0010
0000
0001
0010
0100
0000
0000
0000
1001
0000
0001
0000
MMMM
0000
1000
0000
,  // measure 35
0001
0000
1000
0000
1100
0000
0000
0000
0101
0000
0000
0001
MMMM
0000
1000
0000
,  // measure 36
0100
0010
1000
0000
1010
0000
1100
0000
0101
0000
0000
0100
MMMM
0000
0010
0000
,  // measure 37
1000
0100
0010
0000
0011
0000
0110
0000
1100
0000
0000
1000
MMMM
0000
0100
0000
,  // measure 38
1000
0010
0100
0000
0101
0000
0110
0000
1100
0000
0000
0100
MMMM
0000
0010
0000
,  // measure 39
0100
0000
0000
0000
0000
0000
0000
0000
0000
0000
1000
0000
0010
0000
0000
0001
0000
0000
0100
0000
0000
0000
0000
0000
0101
0000
0000
0000
0000
0000
0000
0000
0000
0100
0000
0000
MMMM
0000
0000
0000
0000
0000
1010
0000
0000
0000
0000
0000
,  // measure 40
1000
0100
0010
0000
0110
0000
0011
0000
1010
0000
0000
1000
MMMM
0000
0010
0000
,  // measure 41
0001
0010
0100
0000
1100
0000
0101
0000
1001
0000
0000
0001
MMMM
0000
0100
0000
,  // measure 42
0001
0010
0100
0000
1100
0000
0110
0000
0011
0000
0000
0010
MMMM
0000
0110
0000
,  // measure 43
1100
0000
0001
0100
1000
0000
1001
0000
0011
0000
0000
0000
MMMM
0000
0100
0001
,  // measure 44
0010
0000
0100
1000
0001
0000
0010
0001
0100
0000
0000
0000
MMMM
0000
0010
1000
,  // measure 45
0001
0000
0100
0010
1000
0000
0010
0100
0001
0000
0000
0000
MMMM
0000
0000
0000
,  // measure 46
1100
0000
0000
0000
1001
0000
0001
0100
1000
0000
0000
0000
MMMM
0000
0000
0000
,  // measure 47
1010
0000
0010
1000
0100
0000
0110
0000
0011
0000
0000
0001
MMMM
0000
0100
0010
,  // measure 48
1000
0000
0000
1010
0101
0000
0000
0011
1100
0000
0000
0000
MMMM
0000
0100
0010
,  // measure 49
1000
0000
0000
1001
0110
0000
0000
1010
0101
0000
0000
0000
MMMM
0000
0000
0000
,  // measure 50
1010
0000
0010
1000
0100
0000
0110
0000
0011
0000
0000
0000
MMMM
0000
0000
0000
,  // measure 51
2002
0000
0000
0000
0000
0000
3003
0000
0000
0000
0001
0000
1000
0000
0000
0100
0000
0000
0010
0000
0000
0000
0000
0000
0011
0000
0000
0000
0000
0000
0001
0000
0000
0000
0000
0000
MMMM
0000
0000
0000
0000
0000
0001
0000
0000
0000
0000
0000
,  // measure 52
0010
0100
1000
0000
1100
0000
1000
0010
0100
0001
0010
0000
MMMM
0000
0100
0000
,  // measure 53
0010
0100
0001
0000
1000
0100
0010
0000
0011
0000
0001
0000
MMMM
0000
0010
0001
,  // measure 54
0100
0000
0010
1000
0100
0000
0010
0000
2002
0000
3003
0000
MMMM
0000
0000
0000
;
