#VERSION:0.83;
#TITLE:HERO (KCP DISCOTIQUE MIX);
#SUBTITLE:;
#ARTIST:PAPAYA;
#TITLETRANSLIT:;
#SUBTITLETRANSLIT:;
#ARTISTTRANSLIT:;
#GENRE:;
#ORIGIN:;
#CREDIT:;
#BANNER:HERO (KCP DISCOTIQUE MIX).png;
#BACKGROUND:HERO (KCP DISCOTIQUE MIX)-bg.png;
#PREVIEWVID:;
#JACKET:HERO (KCP DISCOTIQUE MIX)-jacket.png;
#CDIMAGE:;
#DISCIMAGE:;
#LYRICSPATH:;
#CDTITLE:cdtitle.png;
#MUSIC:HERO (KCP DISCOTIQUE MIX).ogg;
#OFFSET:0.020000;
#SAMPLESTART:61.889999;
#SAMPLELENGTH:15.000000;
#SELECTABLE:YES;
#DISPLAYBPM:128.000000;
#BPMS:0.000=127.000,
4.000=128.000;
#STOPS:;
#DELAYS:;
#WARPS:;
#TIMESIGNATURES:0.000=4=4;
#TICKCOUNTS:0.000=4;
#COMBOS:0.000=1;
#SPEEDS:0.000=1.000=0.000=0;
#SCROLLS:0.000=1.000;
#FAKES:;
#LABELS:0.000=Song Start;
#BGCHANGES:;
#KEYSOUNDS:;
#ATTACKS:
;

//---------------dance-single - ----------------
#NOTEDATA:;
#CHARTNAME:;
#STEPSTYPE:dance-single;
#DESCRIPTION:;
#CHARTSTYLE:;
#DIFFICULTY:Easy;
#METER:6;
#RADARVALUES:0.267436,0.339048,0.271918,0.000000,0.000000,179.000000,153.000000,26.000000,0.000000,0.000000,0.000000,0.000000,0.000000,0.000000,0.267436,0.339048,0.271918,0.000000,0.000000,179.000000,153.000000,26.000000,0.000000,0.000000,0.000000,0.000000,0.000000,0.000000;
#CREDIT:;
#DISPLAYBPM:128.000000;
#NOTES:
0000
0000
0000
0000
,
0000
0000
0000
0000
,
0000
0000
0000
0000
,
0000
0000
0000
0000
,
0000
0000
0000
0000
,
1000
1000
0001
0001
,
1000
0001
1000
0000
,
0010
0010
0100
0100
,
0010
0100
0010
0000
,
1000
0010
1000
0010
,
0100
0001
0100
0001
,
1000
1000
0001
0001
,
1001
1001
1001
0000
,
0100
0000
0010
0000
,
1000
0010
0100
0001
,
0010
0010
0100
0100
,
0110
0110
0110
0000
,
1000
1000
0001
0001
,
0100
0000
0010
0000
,
1000
1000
0001
0001
,
1000
0010
0100
0001
,
1000
0001
1000
0001
,
0010
0000
0100
0000
,
0010
0010
0010
0000
,
0001
0100
0010
1000
,
0010
0100
1001
0000
,
1000
1000
0001
0000
,
1000
0100
0010
0001
,
0100
0001
1000
0000
,
0010
0100
1001
0000
,
0001
0001
1000
0000
,
0010
0100
0001
1000
,
1000
0010
0100
0001
,
1000
0100
0010
0000
,
0010
0001
0010
0011
,
1000
0010
0100
0001
,
1001
0110
1001
0000
,
0100
0001
1000
1100
,
1000
0001
0010
0001
,
0100
0010
1000
0001
,
0110
0110
0110
0000
,
1000
0000
0001
0000
,
0010
0001
0011
1100
,
0010
0000
0100
0000
,
1001
1001
1001
0000
,
0100
0000
0010
0000
,
1000
0010
1000
1010
,
0010
0000
0100
0000
,
1100
0011
1100
0011
,
1000
0000
1000
0000
1000
0000
1000
0001
;

//---------------dance-single - ----------------
#NOTEDATA:;
#CHARTNAME:;
#STEPSTYPE:dance-single;
#DESCRIPTION:;
#CHARTSTYLE:;
#DIFFICULTY:Medium;
#METER:8;
#RADARVALUES:0.319728,0.417290,0.345127,0.000000,0.000000,214.000000,181.000000,33.000000,0.000000,0.000000,0.000000,0.000000,0.000000,0.000000,0.319728,0.417290,0.345127,0.000000,0.000000,214.000000,181.000000,33.000000,0.000000,0.000000,0.000000,0.000000,0.000000,0.000000;
#CREDIT:;
#DISPLAYBPM:128.000000;
#NOTES:
0000
0000
0000
0000
,
0000
0000
0000
0000
,
0000
0000
0000
0000
,
0000
0000
0000
0000
,
1001
0100
1001
0000
,
0010
0010
0100
0100
,
0001
1000
0001
1000
,
0010
0010
0100
0100
,
1001
0100
1001
0000
,
0010
0010
0010
0100
,
0001
0001
1000
0001
,
1000
0100
0010
0001
,
1000
0000
1000
0000
1000
0000
1000
0001
,
0000
0100
0000
0010
,
0000
1000
0000
0001
,
1000
0010
0100
0000
,
0100
0000
0100
0000
0100
0000
0100
0001
,
0000
1000
0000
0001
,
1000
0100
0010
0000
,
1000
0010
0100
0001
,
0010
0100
1000
0000
,
1000
1001
0001
1001
,
0010
0001
1000
0100
,
1100
1100
1000
0010
,
1000
0100
1000
0100
1000
0000
0000
0000
,
1001
0100
0010
0000
,
1000
1000
1000
0000
0001
0001
0001
0000
,
1000
0100
0010
0011
,
0100
0001
0010
0001
,
1001
0010
0100
0000
,
0001
0001
0001
0000
1000
1000
1000
0000
,
0001
0010
0100
1100
,
0011
1100
0011
1000
,
1000
0001
1000
0000
0010
0000
0100
0000
,
0010
0001
0100
1000
,
0001
1000
0001
0000
0010
0000
0100
0000
,
1100
0011
1100
0000
,
1000
0001
1000
0000
0010
0000
0100
0000
,
1000
0010
0001
0100
,
0001
1000
0001
0000
0010
0000
0100
0000
,
0011
1100
0011
0000
,
0010
0100
0010
0000
1000
0000
0100
0000
,
0010
1000
0100
0001
,
1000
0100
0010
0001
,
1100
0011
1100
0000
,
1001
0001
0010
1000
,
0010
0010
0010
1001
,
0010
0010
1000
0100
,
1001
1001
0110
0110
,
1010
0000
1010
0000
0101
0000
0100
0001
;

//---------------dance-single - ----------------
#NOTEDATA:;
#CHARTNAME:;
#STEPSTYPE:dance-single;
#DESCRIPTION:;
#CHARTSTYLE:;
#DIFFICULTY:Hard;
#METER:10;
#RADARVALUES:0.373514,0.417290,0.167334,0.000000,0.000000,250.000000,234.000000,16.000000,0.000000,0.000000,0.000000,0.000000,0.000000,0.000000,0.373514,0.417290,0.167334,0.000000,0.000000,250.000000,234.000000,16.000000,0.000000,0.000000,0.000000,0.000000,0.000000,0.000000;
#CREDIT:;
#DISPLAYBPM:128.000000;
#NOTES:
0000
0000
0000
0000
,
0000
0000
0000
0000
,
0000
0000
0000
0000
,
0000
0000
0000
0000
,
0011
0000
0101
0000
0010
1000
0100
0000
,
1000
0000
0001
0000
1000
0100
1000
0000
,
1100
0000
0101
0000
0010
0001
0100
0000
,
0000
1000
1000
0000
0001
0000
0100
0000
,
0001
0010
0100
0010
0001
0000
1000
0000
,
0001
0000
0001
1000
0001
0000
0100
0000
,
0010
0000
0010
0100
0010
0000
1000
0000
,
0000
0001
0001
0000
1000
0000
1000
0000
,
0100
1000
0100
1000
0001
0000
0010
0001
,
0100
0000
0010
1000
0001
0000
0100
0000
,
0001
0000
0100
0001
1000
0000
0010
0000
,
1000
0100
0010
0000
0010
0000
0000
0000
,
0100
0001
0100
0001
1000
0000
0010
1000
,
0100
0001
0100
0110
,
1000
0010
0100
0000
1000
0000
0001
0000
,
0100
0000
0001
0000
1000
0001
0100
0000
,
0011
0000
1000
0100
0001
0000
1100
0000
,
1000
0000
0001
0000
0010
1000
0100
0000
,
0010
1000
0100
0010
0001
0000
0000
0000
,
1000
0000
0001
1000
0100
0000
0000
0000
,
1000
0100
0010
0100
1000
0000
0000
0000
,
0010
0000
0010
0000
1000
0000
0001
1000
,
0000
0010
0100
0000
1001
0000
0000
0000
,
1000
0010
0100
0000
0001
1000
0100
0000
,
0010
0010
0100
1000
0001
0000
1001
0000
,
0010
1000
0100
0000
1001
0000
0100
0100
,
0000
0001
1000
0000
1001
0000
0000
0000
,
1000
0010
0100
0000
0001
0010
0100
0000
,
1000
0001
1000
0001
0100
0000
0000
0000
,
0000
1000
1000
0001
0010
0000
0100
0000
,
0000
1000
0001
1000
0010
0000
0101
0000
,
0000
0010
0010
0001
1000
0000
0100
0000
,
0100
0001
1000
0100
0001
0000
0000
0000
,
0000
0100
1000
0001
0010
0000
0100
0000
,
0000
1000
0001
1000
0010
0000
0100
0000
,
0000
0001
1000
0010
1000
0000
0100
0000
,
1001
0000
0010
1000
0100
0000
0000
0000
,
0000
1000
0100
0010
0001
0000
1100
0000
,
0000
1000
0010
1000
0001
0000
0100
0000
,
0000
0001
1000
0100
0010
0000
1001
0000
,
0110
0000
0001
1000
0100
0000
0000
0000
,
0000
0010
0100
0010
1000
0000
1000
0000
,
0000
0001
0010
0001
1000
0000
0100
0000
,
0000
0010
0001
0010
1000
0000
0100
0000
,
0010
0001
0100
1000
0100
0001
1000
0100
,
1000
0001
0010
0001
1000
0100
1000
0001
;

//---------------dance-couple - ----------------
#NOTEDATA:;
#CHARTNAME:;
#STEPSTYPE:dance-couple;
#DESCRIPTION:;
#CHARTSTYLE:;
#DIFFICULTY:Medium;
#METER:6;
#RADARVALUES:0.270424,0.365129,0.261460,0.000000,0.000000,181.000000,156.000000,25.000000,0.000000,0.000000,0.000000,0.000000,0.000000,0.000000,0.270424,0.365129,0.261460,0.000000,0.000000,181.000000,156.000000,25.000000,0.000000,0.000000,0.000000,0.000000,0.000000,0.000000;
#CREDIT:;
#DISPLAYBPM:128.000000;
#NOTES:
00000000
00000000
00000000
00000000
,
00000000
00000000
00000000
00000000
,
00000000
00000000
00000000
00000000
,
00000000
00000000
00000000
00000000
,
00110011
10011001
01010101
00000000
,
00100001
00100000
01000001
01000000
,
00010001
10001000
00010001
10001000
,
10000010
00000010
10000100
00000100
,
10010001
00011001
10011000
10001001
,
00100001
00100000
00100001
01000000
,
00010001
00010000
10001000
00010001
,
10000001
01000000
00100001
00010000
,
10001000
00000000
10001000
00000000
10001000
00000000
10001000
00010001
,
00000010
00000010
10000010
00000100
,
10000001
00000001
00011000
10000001
,
10001000
00000100
10000010
00000001
,
10001000
00000000
10001000
00000000
10001000
00000000
10001000
00010001
,
10000000
00100000
10000001
00010000
,
10000001
01000000
00010001
00100000
,
10001000
00000010
10001000
00000001
,
10001000
00000100
10000001
00000010
,
10001000
10011001
00010001
10011001
,
10001000
00000010
00001000
00000010
10001000
00000000
00000010
00000000
,
00100010
10011001
00000000
00000000
,
10000001
00100000
10000000
00100000
10000001
00000000
00100000
00000000
,
10000001
10000001
10011001
00000000
,
00000001
00000001
00000001
00000000
00010000
00010000
00010000
00000000
,
10001000
00000100
10000010
00000011
,
10000100
00000001
10000010
00000001
,
00100010
00100010
10011001
00000000
,
10000000
10000000
10000000
00000000
00001000
00001000
00001000
00000000
,
10000001
01000000
00100001
00110000
,
01000001
00010000
00100001
00010000
,
10001000
00000001
00001000
00000000
10000010
00000000
00000100
00000000
,
00100010
10001000
01000100
10011001
,
10000001
00010000
10000000
00000000
00100001
00000000
01000000
00000000
,
10101010
10011001
11001100
00000000
,
10000001
00010000
10000000
00000000
00100001
00000000
01000000
00000000
,
10001000
00100010
00010001
01000100
,
10001000
00000001
00001000
00000000
10000010
00000000
00000100
00000000
,
00110011
10011001
01010101
00000000
,
00000001
00100000
01000000
00100000
10000001
00000000
10000000
00000010
,
10000100
00000010
00001000
00000000
10001000
00000000
00000000
00000000
,
00000000
00010001
00100010
00010001
10001000
00000000
01000100
00000000
,
11001100
11001100
00110011
00000000
,
10000000
00000010
00000100
00000010
10000001
00000000
00000001
00100000
,
01000001
00100000
00010000
00000000
00010001
00000000
00000000
00000000
,
00000000
10001000
00100010
10001000
00010001
00000000
10001000
00000000
,
10010000
00001001
10010000
00001001
,
10010000
00000000
00001001
00000000
10011001
00000000
10001000
00010001
;

//---------------dance-double - ----------------
#NOTEDATA:;
#CHARTNAME:;
#STEPSTYPE:dance-double;
#DESCRIPTION:;
#CHARTSTYLE:;
#DIFFICULTY:Easy;
#METER:3;
#RADARVALUES:0.270424,0.391209,0.219626,0.000000,0.000000,181.000000,160.000000,21.000000,0.000000,0.000000,0.000000,0.000000,0.000000,0.000000,0.270424,0.391209,0.219626,0.000000,0.000000,181.000000,160.000000,21.000000,0.000000,0.000000,0.000000,0.000000,0.000000,0.000000;
#CREDIT:;
#DISPLAYBPM:128.000000;
#NOTES:
00000000
00000000
00000000
00000000
,
00000000
00000000
00000000
00000000
,
00000000
00000000
00000000
00000000
,
00000000
00000000
00000000
00000000
,
00001000
00010000
00100000
00000000
,
10000000
00000000
00100000
00000000
,
01000000
00000000
00001000
00000000
,
00010000
00000000
00000010
00000000
,
00001001
00001001
00000110
00000110
,
00000001
00000001
00001000
00001000
,
00000010
00010000
00001000
01000000
,
00010000
00010000
01000000
01000000
,
00110000
00110000
00011000
00011000
,
00010000
00000000
00000010
00000000
,
00001000
00000001
00000100
00000010
,
00010000
00001000
00100000
00010000
,
10000000
01000000
10010000
01100000
,
00010000
00000000
00100000
00000000
,
00001000
00000000
00010000
00000000
,
00000010
00000000
00000100
00000000
,
00000001
00001000
00000100
00000000
,
00000001
00000001
00001000
00001000
,
00010000
00001000
00100000
01000000
,
00010000
00010000
00010000
00000000
,
00001000
00001000
00001000
00000000
,
00010000
00000010
00001000
00000000
,
00000001
00000100
00000001
00000000
,
00001000
00000100
00000010
00001001
,
00000010
00001000
00000100
00011000
,
00001000
01000000
00100000
00000000
,
10000000
01000000
00100000
00000000
,
00010000
01000000
00010000
10000000
,
00010000
00100000
00001000
00010000
,
00000010
00000010
00000010
00001000
,
00000001
00001000
00000001
00001001
,
00010000
00010000
00010000
00001000
,
00100000
00010000
01000000
00000000
,
10000000
10000000
10000000
00010000
,
01000000
01000000
01000000
01100000
,
00100000
10000000
00010000
00100000
,
00001000
00010000
00000100
00000000
,
00000010
00000010
00001000
00001000
,
00010000
00000010
00000100
00000001
,
00001000
00001000
00000010
00000010
,
00010000
00001000
01000000
00000000
,
00010000
00100000
00001000
00001000
,
00100000
00100000
00100000
10010000
,
00100000
00100000
01000000
01000000
,
00110000
00110000
00011000
00011000
,
00001100
00000000
00001100
00000000
00010000
00000000
00001000
00010000
;

//---------------dance-double - ----------------
#NOTEDATA:;
#CHARTNAME:;
#STEPSTYPE:dance-double;
#DESCRIPTION:;
#CHARTSTYLE:;
#DIFFICULTY:Medium;
#METER:5;
#RADARVALUES:0.309270,0.417290,0.146417,0.000000,0.000000,207.000000,193.000000,14.000000,0.000000,0.000000,0.000000,0.000000,0.000000,0.000000,0.309270,0.417290,0.146417,0.000000,0.000000,207.000000,193.000000,14.000000,0.000000,0.000000,0.000000,0.000000,0.000000,0.000000;
#CREDIT:;
#DISPLAYBPM:128.000000;
#NOTES:
00000000
00000000
00000000
00000000
,
00000000
00000000
00000000
00000000
,
00000000
00000000
00000000
00000000
,
00000000
00000000
00000000
00000000
,
00011000
00011000
00110000
00000000
,
00001000
00010000
00000100
00001000
,
00000001
00000100
00000010
00010000
,
00000100
00010000
00001000
00100000
,
00010000
00000000
00010000
00000000
00010000
00000000
10000000
01000000
,
00000000
00000000
00100000
00000000
00000000
00000000
00100000
00010000
,
00000000
00000000
01000000
00000000
00000000
00000000
01000000
00001000
,
00010000
00000010
00001000
00000001
,
00001000
00000000
00001000
00000000
00001000
00000000
00000001
00000100
,
00000000
00000000
00000010
00000000
00000000
00000000
00010000
00001000
,
00000000
00000000
01000000
00000000
00000000
00000000
00010000
00100000
,
00000000
00010000
00000000
01000000
,
00010000
00000000
00010000
00000000
00010000
00000000
00001000
00000100
,
00000000
00000001
00000100
00000000
,
00000010
00010000
00001000
01000000
,
00010000
00010000
00010000
00000000
10000000
00000000
00010000
00000000
,
00100000
00001000
00010000
00000010
,
00001000
00001000
00001000
00000000
00000001
00000000
00000100
00000000
,
00000010
00010000
00001000
01000000
,
00010000
00010000
10000000
10000000
,
00100000
00000000
01000000
00000000
00001000
00010000
00001000
00010000
,
00000010
00000000
00000100
00000000
00000001
00000000
00001000
00000100
,
00000000
00010000
00000000
00001000
,
00100000
00010000
10000000
01000000
,
10000000
00000000
00010000
00000000
01000000
00001000
00010000
00001000
,
00010000
00000000
00000010
00000000
00000100
00000000
00000010
00001000
,
00000000
00000001
00000100
00000001
,
00001000
00000010
00010000
00001000
,
00100000
00010000
10010000
00000000
,
10000000
00010000
01000000
00001000
,
00010000
00000010
00001000
00001001
,
00000010
00010000
00001000
00100000
,
00010000
10000000
01000000
11000000
,
00000000
00000000
00010000
00000000
00000000
10000000
01000000
00000000
,
00100000
00000000
00100000
00000000
00100000
00001000
00010000
00000000
,
00000010
00000000
00000010
00000000
00000010
00000100
00000001
00000000
,
00001000
00000010
00001000
00000010
00001000
00000010
00001000
00000010
,
00010000
00000000
00010000
00000000
00010000
00001000
01000000
00000000
,
00100000
00000000
00100000
00000000
00100000
10000000
00010000
00000000
,
01000000
00000000
01000000
00000000
01000000
00001000
00010000
00000000
,
00000010
00001000
00000010
00001000
00000010
00001000
00000010
00001000
,
00000000
00000100
00000000
00100000
,
00010000
10000000
00100000
10010000
,
00100000
00001000
00010000
00000100
,
00011000
00110000
00011000
00001100
,
00011000
00000000
00011000
00000000
00011000
00000000
00010000
00001000
;

//---------------dance-double - ----------------
#NOTEDATA:;
#CHARTNAME:;
#STEPSTYPE:dance-double;
#DESCRIPTION:;
#CHARTSTYLE:;
#DIFFICULTY:Hard;
#METER:6;
#RADARVALUES:0.360067,0.417290,0.376502,0.000000,0.000000,241.000000,205.000000,36.000000,0.000000,0.000000,0.000000,0.000000,0.000000,0.000000,0.360067,0.417290,0.376502,0.000000,0.000000,241.000000,205.000000,36.000000,0.000000,0.000000,0.000000,0.000000,0.000000,0.000000;
#CREDIT:;
#DISPLAYBPM:128.000000;
#NOTES:
00000000
00000000
00000000
00000000
,
00000000
00000000
00000000
00000000
,
00000000
00000000
00000000
00000000
,
00000000
00000000
00000000
00000000
,
00011000
00110000
00011000
00000000
,
00000000
00100000
00010000
00100000
00001000
00000000
00001000
00000000
,
00000000
01000000
00010000
01000000
00001000
00000000
00001000
00000000
,
00000000
00010000
00000010
00010000
00000100
00000000
00000100
00000000
,
00001000
00000001
00000010
00000100
,
00010000
00000000
00001000
00000000
01000000
00010000
01000000
00000000
,
00100000
00000000
10000000
00000000
00010000
01000000
00010000
00000000
,
00100000
00001000
00010000
00000100
,
00001100
00000000
00000011
00000000
00001001
00000000
00001000
00000001
,
00000100
00000000
00000001
00000000
00001000
00000100
00010000
00000000
,
00001000
00000000
01000000
00000000
00010000
01000000
00010000
00000000
,
00100000
00001000
00010000
00000100
,
00001100
00000000
00000011
00000000
00001001
00000000
00001000
00000001
,
00001000
00000000
00000001
00000000
00000000
00000000
00000100
00000010
,
00000000
00000001
00000001
00001000
,
00000100
00000000
00010000
00000000
00000000
00000000
01000000
00100000
,
00000000
01000000
00010000
11000000
,
10000000
00010000
01000000
00001000
,
00011000
01000000
00011000
00000010
,
00000100
00000100
00000100
00000000
,
00001100
00000000
00000011
00000000
00001100
00000100
00010000
00000100
,
00010000
00000000
00001000
00000000
01000000
00000000
00010000
00100000
,
00000000
00010000
10010000
10000000
,
00100000
01000000
00100000
00000000
01000000
00000000
00001000
00000000
,
00010000
00000100
00010000
00000100
00000000
00000000
00001100
00000000
,
00000010
00000000
00001000
00000000
00000001
00000000
00000100
00000010
,
00000000
00010000
00001000
00100000
,
00010000
10000000
01000000
10000000
,
00010000
10010000
10000000
10010000
,
01000000
00000000
00010000
00000000
00100000
00001000
00001000
00000000
,
00010000
00000010
00001010
00000101
,
00000010
00010000
00001000
01000000
,
10100000
01010000
10100000
00000000
,
00000000
01000000
10000000
01000000
10000000
00000000
00010000
00000000
,
00100000
00001000
00011000
00010010
,
00000000
00000100
00001000
00000100
00001000
00000000
00001001
00000000
,
00001010
00000101
00001010
00000001
,
00000000
00000100
00000010
00000100
00000010
00000000
00001000
00000000
,
00100000
10000000
11000000
10010000
,
00000000
00010000
00100000
00001000
00010000
00000000
00010000
00000000
,
00000010
00001010
00000100
00000101
,
00000000
00000001
00000010
00000100
00001000
00000000
00001000
00000000
,
00000010
00010000
00001000
01000000
,
00100000
00100000
01010000
11000000
,
00100000
10000000
01000000
00010000
00001000
00000100
00000001
00000000
,
00000010
00000001
00000100
00001000
00010000
01000000
00010000
00001000
;

//---------------dance-solo - ----------------
#NOTEDATA:;
#CHARTNAME:;
#STEPSTYPE:dance-solo;
#DESCRIPTION:;
#CHARTSTYLE:;
#DIFFICULTY:Easy;
#METER:3;
#RADARVALUES:0.255484,0.260806,0.083667,0.000000,0.000000,171.000000,163.000000,8.000000,0.000000,0.000000,0.000000,0.000000,0.000000,0.000000,0.255484,0.260806,0.083667,0.000000,0.000000,171.000000,163.000000,8.000000,0.000000,0.000000,0.000000,0.000000,0.000000,0.000000;
#CREDIT:;
#DISPLAYBPM:128.000000;
#NOTES:
000000
000000
000000
000000
,
000000
000000
000000
000000
,
000000
000000
000000
000000
,
000000
000000
000000
000000
,
000100
000100
000100
000000
,
010000
010000
000010
000010
,
100000
001000
000001
001000
,
100000
100000
000001
000001
,
010000
000010
100001
000000
,
000100
000100
001000
001000
,
000010
000010
010000
010000
,
000000
000001
001000
000000
,
001000
001000
010010
000000
,
000001
000001
000001
000000
,
100000
100000
100000
000000
,
000100
000100
001000
000000
,
000010
010000
100001
000000
,
010000
010000
000010
000010
,
001000
000100
001000
000000
,
100000
100000
000001
000001
,
000100
001000
001000
000000
,
010000
000010
010000
000010
,
001000
000100
001000
000000
,
000100
000100
000100
000000
,
000001
001000
100000
001000
,
001000
001000
010010
000000
,
100000
100000
000001
000001
,
010000
000010
001000
000000
,
001000
100000
001000
000000
,
000100
001000
100001
000000
,
000010
000010
010000
010000
,
000001
001000
100000
001000
,
000100
000100
100001
000000
,
010000
010000
000010
000010
,
100000
100000
000001
000001
,
001000
000100
001000
000000
,
000010
010000
100001
000000
,
000010
010000
000010
010000
,
000001
000001
100000
100000
,
001000
000100
000001
100000
,
000100
001000
000100
000000
,
010000
010000
000010
000010
,
100000
001000
000001
001000
,
000001
000001
100000
100000
,
001000
001000
010010
000000
,
000010
001000
100000
001000
,
000001
000001
010000
010000
,
000010
001000
100000
001000
,
000001
010000
000010
100000
,
000100
000000
000100
000000
001000
000000
010000
000010
;

//---------------dance-solo - ----------------
#NOTEDATA:;
#CHARTNAME:;
#STEPSTYPE:dance-solo;
#DESCRIPTION:;
#CHARTSTYLE:;
#DIFFICULTY:Medium;
#METER:5;
#RADARVALUES:0.313752,0.417290,0.366044,0.000000,0.000000,210.000000,175.000000,35.000000,0.000000,0.000000,0.000000,0.000000,0.000000,0.000000,0.313752,0.417290,0.366044,0.000000,0.000000,210.000000,175.000000,35.000000,0.000000,0.000000,0.000000,0.000000,0.000000,0.000000;
#CREDIT:;
#DISPLAYBPM:128.000000;
#NOTES:
000000
000000
000000
000000
,
000000
000000
000000
000000
,
000000
000000
000000
000000
,
000000
000000
000000
000000
,
000110
001000
100001
000000
,
000100
000100
001000
001000
,
000010
010000
000001
001000
,
000100
000100
001000
001000
,
010100
001000
100001
000000
,
000010
000010
000010
001000
,
010000
010000
010000
001000
,
100000
001000
000100
000001
,
101000
000000
101000
000000
100001
000000
000001
001000
,
000000
100000
000000
000010
,
000000
010000
000000
000001
,
100000
000100
001000
000000
,
100001
000000
001001
000000
001001
000000
100000
001000
,
000000
000010
000010
000010
,
010000
100001
001001
000000
,
100000
000010
010000
000001
,
010010
100000
001000
000000
,
000010
001000
010000
001000
,
010010
001000
100001
001000
,
000001
000001
100000
100000
,
000001
001000
000001
001000
000001
000000
000000
000000
,
100001
001000
000100
000000
,
010000
010000
010000
000000
000010
000010
000010
000000
,
010000
000001
001000
001001
,
100000
000010
010000
001000
,
100001
000100
001000
000000
,
000010
000010
000010
000000
010000
010000
010000
000000
,
000100
100000
000001
001000
,
010100
100001
001001
000000
,
000010
000000
100000
000001
100000
000000
001000
000000
,
000000
010000
000001
001000
,
000000
000000
010000
000010
010000
000000
000010
000000
,
010100
100001
101000
000000
,
000001
000000
100000
001000
100000
000000
000001
000000
,
000000
100000
000100
001000
,
000000
000000
100000
000001
001000
000000
001000
000000
,
100001
010000
000010
000000
,
010000
000000
000010
100000
001000
000000
001000
000000
,
000000
000001
000001
001000
,
000000
100000
000001
001000
,
000110
100001
101000
000000
,
010000
010000
000010
000010
,
100000
001000
000001
001000
,
010000
000010
100000
001000
,
010010
010010
001001
001001
,
100001
000000
100001
000000
101000
000000
000001
001000
;

//---------------dance-solo - ----------------
#NOTEDATA:;
#CHARTNAME:;
#STEPSTYPE:dance-solo;
#DESCRIPTION:;
#CHARTSTYLE:;
#DIFFICULTY:Hard;
#METER:6;
#RADARVALUES:0.354091,0.365129,0.156876,0.000000,0.000000,237.000000,222.000000,15.000000,0.000000,0.000000,0.000000,0.000000,0.000000,0.000000,0.354091,0.365129,0.156876,0.000000,0.000000,237.000000,222.000000,15.000000,0.000000,0.000000,0.000000,0.000000,0.000000,0.000000;
#CREDIT:;
#DISPLAYBPM:128.000000;
#NOTES:
000000
000000
000000
000000
,
000000
000000
000000
000000
,
000000
000000
000000
000000
,
000000
000000
000000
000000
,
100001
000000
010010
000000
000001
100000
001000
000000
,
000010
000000
010000
000000
000001
001000
000001
000000
,
010000
000000
000010
000000
100000
001000
100000
000000
,
000000
000100
000100
000000
001000
000000
000010
000000
,
100000
001000
100000
001000
100000
000000
000000
000000
,
010000
000000
000001
100000
001000
000000
001000
000000
,
000010
000000
100000
000001
001000
000000
001000
000000
,
000000
000010
000010
000000
100000
000000
100000
000000
,
000001
001000
000001
001000
000001
000000
000000
000000
,
100000
000000
100000
000010
010000
000000
010000
000000
,
000010
000000
010000
000001
000001
000000
001000
000000
,
100000
100000
100000
000000
001000
000000
000000
000000
,
000010
000010
010000
000001
000001
000000
000000
000000
,
010000
010000
000001
101000
,
000001
001000
000001
000000
000100
000000
001000
000000
,
100000
000000
000010
000000
100000
000001
001000
000000
,
010100
000000
000001
100000
000001
000000
001001
000000
,
100000
000000
000010
000000
010000
000001
001000
000000
,
000001
100000
001000
100000
001000
000000
000000
000000
,
000001
000000
010000
000010
010000
000000
000000
000000
,
000001
001000
000001
001000
000001
000000
000000
000000
,
010000
000001
100000
000010
,
010000
001001
100001
000000
,
010000
000010
100000
000000
000010
010000
000001
000000
,
000100
000001
100000
001000
100000
000000
100001
000000
,
000010
100000
000010
000000
001000
000000
100000
000001
,
000000
010000
000001
000000
100001
000000
000000
000000
,
000010
100000
000010
000000
010000
000001
010000
000000
,
000100
100000
000001
001000
000001
000000
000000
000000
,
000000
000100
100000
000100
100000
000000
001000
000000
,
000000
000100
000001
000100
000001
000000
001000
000000
,
000000
000001
001000
000001
010000
000000
001000
000000
,
000010
010000
000010
010000
001000
000000
000000
000000
,
000000
010000
000100
010000
000001
000000
100000
000000
,
000000
000010
000100
000010
100000
000000
000001
000000
,
000000
100000
001000
100000
000001
000000
001000
000000
,
010010
000101
100001
000000
,
000000
000100
100000
000100
100000
000000
001000
000000
,
000000
000100
000001
000100
000001
000000
001000
000000
,
000000
000001
001000
000001
010000
000000
001000
000000
,
100001
010100
101000
000000
,
000000
010000
000100
010000
000001
000000
100000
000000
,
000000
000010
000100
000010
100000
000000
000001
000000
,
000000
100000
001000
100000
000001
000000
001000
000000
,
000010
000000
000010
000000
000100
000001
100000
001000
,
010000
000000
010000
000000
000100
100000
000001
001000
;

//---------------dance-single - ----------------
#NOTEDATA:;
#CHARTNAME:;
#STEPSTYPE:dance-single;
#DESCRIPTION:;
#CHARTSTYLE:;
#DIFFICULTY:Beginner;
#METER:2;
#RADARVALUES:0.161358,0.235314,0.010458,0.000000,0.000000,108.000000,107.000000,1.000000,0.000000,0.000000,0.000000,0.000000,0.000000,0.000000,0.161358,0.235314,0.010458,0.000000,0.000000,108.000000,107.000000,1.000000,0.000000,0.000000,0.000000,0.000000,0.000000,0.000000;
#CREDIT:;
#DISPLAYBPM:128.000000;
#NOTES:
0000
0000
0000
0000
,
0000
0000
0000
0000
,
0000
0000
0000
0000
,
0000
0000
0000
0000
,
0000
0000
0000
0000
,
0100
0000
0100
0000
,
0010
0000
0010
0000
,
1000
0000
1000
0000
,
0001
0001
0001
0000
,
1000
0000
1000
0000
,
0010
0010
0010
0000
,
0001
0000
0001
0000
,
0100
0100
0100
0000
,
1000
0000
1000
0000
,
0001
0001
0001
0000
,
0010
0000
0010
0000
,
0100
0100
0100
0000
,
1000
0000
1000
0000
,
0010
0000
0010
0000
,
0100
0000
0100
0000
,
0001
0000
0001
0000
,
0001
0000
0010
0000
,
0100
0000
1000
0000
,
0010
0000
0100
0000
,
0001
1000
0001
0000
,
0100
0010
0100
0000
,
0010
0100
0010
0000
,
1000
0000
1000
0000
,
1000
0001
1000
0000
,
0010
0000
0010
0000
,
0001
0000
0001
0000
,
0100
0000
0100
0000
,
1000
0100
1000
0000
,
0000
1000
0000
1000
,
0000
0001
0000
0001
,
0000
0010
0000
0010
,
0100
0100
0100
0000
,
0000
0010
0000
0010
,
0000
1000
0000
1000
,
0000
0001
0000
0001
,
0100
0100
0100
0000
,
0000
0010
0000
0010
,
0000
1000
0000
1000
,
0000
0001
0000
0001
,
0010
0010
0010
0000
,
0000
1000
0000
1000
,
0000
0010
0000
0010
,
0000
0100
0000
0100
,
0001
0001
0001
0000
,
1000
1000
1000
0001
,
1001
0000
0000
0000
;

//---------------dance-single - ----------------
#NOTEDATA:;
#CHARTNAME:;
#STEPSTYPE:dance-single;
#DESCRIPTION:;
#CHARTSTYLE:;
#DIFFICULTY:Challenge;
#METER:12;
#RADARVALUES:0.537860,0.655284,0.554295,0.261460,0.130730,360.000000,307.000000,53.000000,25.000000,0.000000,0.000000,0.000000,0.000000,0.000000,0.537860,0.655284,0.554295,0.261460,0.130730,360.000000,307.000000,53.000000,25.000000,0.000000,0.000000,0.000000,0.000000,0.000000;
#CREDIT:;
#DISPLAYBPM:128.000000;
#NOTES:
// measure 0
0000
0000
0000
0000
,  // measure 1
0000
0000
0000
0000
,  // measure 2
0000
0000
0000
0000
,  // measure 3
0000
0000
0000
0000
,  // measure 4
0101
0000
1100
0000
1010
0000
0010
1000
,  // measure 5
0001
0000
0100
0000
1000
0100
0000
0100
0000
0000
0010
0000
1000
0000
0001
0000
,  // measure 6
0200
0000
0000
0000
0001
0000
0000
1000
0000
0000
0001
0000
0301
0000
0000
0000
,  // measure 7
0001
0000
0010
0000
1000
0010
0000
0010
0000
0000
0100
0000
1000
0000
0100
0000
,  // measure 8
0101
0000
1010
0000
1100
0000
0010
0001
,  // measure 9
1000
0001
0100
0001
0010
0000
0011
0001
,  // measure 10
0100
0010
0100
1000
0020
0000
1030
0100
,  // measure 11
0000
0110
0000
0010
0001
0010
0000
0001
,  // measure 12
1001
0010
1001
0100
1001
0010
1001
0100
,  // measure 13
0000
0200
0000
0310
1000
0001
0101
0000
,  // measure 14
0100
0010
1000
0001
0011
0000
1100
0000
,  // measure 15
2010
0000
3200
0000
0302
1000
1003
0000
,  // measure 16
0011
1000
0101
1000
0011
1000
0101
1000
,  // measure 17
0000
0100
1000
0001
0100
1000
0100
0000
,  // measure 18
0110
0000
1010
0000
0101
0000
1000
0100
,  // measure 19
0001
0010
1000
0010
0001
0100
1000
0010
,  // measure 20
1010
0000
1001
0000
1100
0000
0100
0010
,  // measure 21
0001
0010
1000
0010
0001
0100
1000
0100
,  // measure 22
0001
0000
0000
0001
0010
0000
0000
0010
0100
0000
0000
0100
1000
0000
0200
0000
,  // measure 23
0000
0001
0000
1300
0000
0000
0100
1000
,  // measure 24
0110
0001
0110
1000
0110
0001
0110
1000
,  // measure 25
0010
0000
0000
0010
0100
0000
0000
0100
0001
0000
0000
0001
1000
0000
0002
0000
,  // measure 26
0000
0203
0000
2300
0000
3100
0001
1000
,  // measure 27
0200
0000
0310
0100
0000
0001
1000
0100
,  // measure 28
0020
0000
0031
1000
0000
0010
0001
0100
,  // measure 29
1000
0000
0000
1000
0010
0000
0000
0010
0100
0000
0000
0100
0001
0000
2000
0000
,  // measure 30
0000
3020
0000
0032
0000
0103
0001
1000
,  // measure 31
0100
0010
0100
0001
0000
0001
0100
0001
,  // measure 32
1100
0001
1010
0001
1100
0001
1010
0001
,  // measure 33
1000
0010
0100
0001
1000
0000
1001
0000
,  // measure 34
0101
0001
1000
0100
0010
0000
0110
0000
,  // measure 35
1010
0000
0010
0000
1000
0000
0001
0000
0010
0000
0000
0000
0110
0000
0000
0100
,  // measure 36
1000
0000
0000
0100
0001
0000
0000
0100
1000
0000
0000
0100
0001
0000
1000
0000
,  // measure 37
0010
0001
0010
1000
0020
0000
0130
0000
,  // measure 38
0010
0001
0100
1000
0200
0000
0310
0000
,  // measure 39
0010
0000
0100
0000
1000
0000
0001
0000
0200
0000
0000
0000
0310
0000
0000
0010
,  // measure 40
0100
0000
0000
0100
1000
0000
0000
1000
0001
0000
0000
0001
0010
0000
0100
0000
,  // measure 41
1000
0100
0001
1000
0200
0310
0200
0301
,  // measure 42
0010
1000
0001
0010
0020
1030
0020
0130
,  // measure 43
0010
0001
1000
0100
0002
0103
0002
0013
,  // measure 44
0001
0000
0000
0001
0010
0000
0000
0010
0100
0000
0000
0100
0010
0000
0100
0000
,  // measure 45
1000
0100
0010
0001
1001
0000
0101
0000
,  // measure 46
0001
0010
1000
0010
0011
0000
1010
0000
,  // measure 47
1000
0100
0001
0010
0110
0000
1001
0000
,  // measure 48
0101
0010
0101
0010
1100
0001
1100
0001
,  // measure 49
1010
0100
1010
0100
0011
1000
0011
2000
,  // measure 50
0000
3000
0000
0000
0000
0000
0000
0000
;
