#TITLE:HAVE YOU NEVER BEEN MELLOW (MM GROOVIN MIX);
#SUBTITLE:;
#ARTIST:THE OLIVIA PROJECT;
#TITLETRANSLIT:;
#SUBTITLETRANSLIT:;
#ARTISTTRANSLIT:;
#GENRE:;
#CREDIT:;
#BANNER:HAVE YOU NEVER BEEN MELLOW (MM GROOVIN MIX).png;
#BACKGROUND:HAVE YOU NEVER BEEN MELLOW (MM GROOVIN MIX)-bg.png;
#LYRICSPATH:;
#CDTITLE:;
#MUSIC:HAVE YOU NEVER BEEN MELLOW (MM GROOVIN MIX).ogg;
#OFFSET:0.000000;
#SAMPLESTART:55.062000;
#SAMPLELENGTH:15.000000;
#SELECTABLE:YES;
#DISPLAYBPM:170.000000;
#BPMS:0.000000=169.990005
;
#STOPS:
;
#BGCHANGES:;
#KEYSOUNDS:;
#ATTACKS:;

//---------------dance-single - ----------------
#NOTES:
     dance-single:
     :
     Easy:
     5:
     0.196143,0.275689,0.032690,0.021794,0.000000,126.000000,123.000000,3.000000,2.000000,0.000000,0.000000,0.196143,0.275689,0.032690,0.021794,0.000000,126.000000,123.000000,3.000000,2.000000,0.000000,0.000000:
0000
0000
0000
0000
,
0000
0000
0000
0000
,
0000
0000
0000
0000
,
0000
0000
0000
0000
,
0000
0000
0000
0000
,
0000
0000
0000
0000
,
0000
0000
0000
0000
,
0000
0000
0000
0000
,
0000
0000
0000
0000
,
0010
0000
0010
0000
,
0001
0000
0001
0000
,
1000
0000
1000
0000
,
0100
0000
0010
0000
,
0001
0000
0000
0001
,
0000
1000
0000
1000
,
0000
0001
0000
0001
,
0000
1000
0000
1000
,
0000
0010
0000
0100
,
0001
0000
0000
1000
,
0000
0100
0000
0010
,
0000
0001
0100
0010
,
1000
0000
1000
0000
,
0001
0000
0001
0000
,
1000
0000
1000
0000
,
0001
0000
0001
0000
,
0100
0000
0010
0000
,
0000
1000
0000
0001
,
0000
0010
0000
0100
,
0000
1000
0001
0100
,
0000
0010
0000
1000
,
0000
0100
0000
0010
,
0000
0001
0100
0000
,
0000
0010
0000
1000
,
0100
0010
0000
0001
,
0000
1000
0000
0010
,
0000
0100
0000
0001
,
0000
1000
0000
0100
,
0000
0010
0000
0001
,
1000
0001
0100
0010
,
0000
1001
0000
0000
,
0100
0010
0001
1000
,
0000
0010
0000
0100
,
0000
0001
1000
0100
,
0000
0001
0000
0010
,
0000
1000
0000
0010
,
0000
0100
0001
0000
,
1000
0100
0010
0001
,
0000
1001
0000
0000
,
0100
0010
0001
0100
,
0000
0010
0000
1000
,
0000
0100
0010
0001
,
0000
1000
0000
0100
,
0000
0010
0000
0001
,
0000
0100
0010
1000
,
0000
0100
0010
0001
,
1000
0000
1000
0000
,
0001
0000
0001
0000
,
0100
0000
0100
0000
,
0010
0000
0100
0000
,
0001
0000
0001
0000
,
1000
0000
1000
0000
,
0100
0000
0100
0000
,
0010
0001
1000
0000
,
2002
3003
0000
0000
;

//---------------dance-single - ----------------
#NOTES:
     dance-single:
     :
     Medium:
     7:
     0.325348,0.344612,0.174349,0.021794,0.000000,209.000000,193.000000,16.000000,2.000000,0.000000,0.000000,0.325348,0.344612,0.174349,0.021794,0.000000,209.000000,193.000000,16.000000,2.000000,0.000000,0.000000:
0000
0000
0000
0000
,
0000
0000
0000
0000
,
0000
0000
0000
0000
,
0000
0000
0000
0000
,
0000
0000
0000
0000
,
0000
0000
0000
0000
,
0000
0000
0000
0000
,
0000
0000
0000
0000
,
0000
0000
0000
0000
,
1000
1000
0001
0001
,
0010
0010
0100
0100
,
1000
1000
0001
0001
,
0100
0100
0100
0100
,
1001
0000
0010
0100
,
1001
0000
0100
0010
,
1100
0000
0001
0010
,
0101
0000
0010
1000
,
0101
0000
1000
0100
,
1001
0000
0100
0010
,
1010
0000
0001
0010
,
0100
1000
0001
0100
,
0010
1001
0000
1100
,
0000
1001
0000
0101
,
0010
1000
0100
0010
,
0001
0100
0010
1000
,
0001
0100
1000
0100
,
0001
0100
1000
0100
,
0000
0000
0010
0000
0000
0000
0010
0010
,
0000
0010
0000
0010
,
0001
1000
0010
0010
,
0100
0001
1000
1000
,
0100
0010
0001
1000
,
0100
0010
0001
1000
,
0100
0100
1000
1000
,
0001
0001
0010
0010
,
0100
1000
0001
0100
,
0010
1000
0100
0010
,
0001
1000
0100
0010
,
0001
0100
0100
0100
,
0010
1001
0000
0100
,
0000
0000
0100
0100
0000
0000
0100
0000
,
0000
1001
0000
0010
,
0000
0000
0010
0010
0000
0000
0010
0000
,
0100
0001
1000
0010
,
1000
0100
0010
0001
,
0100
0010
1000
0100
,
0010
0001
1000
0010
,
0000
1001
0000
0100
,
0000
0000
0100
0100
0000
0000
0100
0000
,
0000
1001
0000
0010
,
0000
0000
0010
0010
0000
0000
0010
0000
,
1000
0001
0100
0010
,
1000
0001
0100
0010
,
1000
0100
0010
0010
,
0001
0100
0010
0010
,
1000
1000
0001
0001
,
0100
0100
0010
0010
,
1000
0100
0010
0001
,
0100
0010
1000
0100
,
0010
0010
0001
0001
,
0100
0100
0010
0010
,
1000
1000
0100
0100
,
0010
0001
1000
0100
,
2002
3003
0000
0000
;

//---------------dance-single - ----------------
#NOTES:
     dance-single:
     :
     Hard:
     11:
     0.516820,0.551378,0.272420,0.021794,0.000000,332.000000,307.000000,25.000000,2.000000,0.000000,0.000000,0.516820,0.551378,0.272420,0.021794,0.000000,332.000000,307.000000,25.000000,2.000000,0.000000,0.000000:
0000
0000
0000
0000
,
0000
0000
0000
0000
,
0000
0000
0000
0000
,
0000
0000
0000
0000
,
0000
0000
0000
0000
,
0000
0000
0000
0000
,
0000
0000
0000
0000
,
0000
0000
0000
0000
,
0000
0000
0000
0000
,
1000
0100
1000
0100
0010
0010
0010
0000
,
0001
0100
0010
1000
0100
0100
0100
0000
,
0010
0001
0100
0010
1000
0100
0010
0000
,
0001
0001
0001
0001
0000
1000
0100
0000
,
1001
0000
0000
0000
0001
1000
0100
0000
,
1001
0000
0000
0000
1000
0001
0100
0000
,
0110
0000
0000
0000
0001
1000
0100
0000
,
1001
0000
0000
0000
0010
0100
1000
0000
,
0101
0000
0000
0000
1000
0100
0010
0000
,
1001
0000
0000
0000
0100
0010
1000
0000
,
1100
0000
0000
0000
0010
0001
0100
0000
,
0010
1000
0100
0000
0010
0001
0100
0010
,
0000
0000
1001
0000
1000
0100
0010
0000
,
0000
0000
1001
0000
0001
0100
0010
0000
,
0000
0000
1001
0000
0100
0010
1000
0000
,
0000
0000
1100
0000
0010
0001
0100
0000
,
0000
0000
1001
0000
0100
0010
1000
0000
,
0000
0000
1100
0000
0010
0001
0100
0000
,
0010
1000
0100
0000
0010
0001
0100
0000
,
0010
1000
0100
0010
0001
0100
0010
0000
,
1000
0000
1000
0000
0001
0100
0100
0000
,
0010
0000
0010
0000
1000
0001
0001
0000
,
0010
0100
1000
0000
0010
0100
0001
0000
,
1000
0010
0100
0000
0001
0010
0100
0000
,
1000
0000
0001
0000
1000
0001
1000
0000
,
0100
0000
0010
0000
0001
0100
0010
0000
,
1000
0100
0010
0000
0001
0100
0010
0000
,
1000
0001
0100
0000
0010
1000
0001
0000
,
0010
0100
1000
0010
0100
0001
1000
0000
,
0100
0010
0001
0100
0010
1000
0100
0010
,
0001
0000
1001
0000
1000
0100
1000
0000
,
0001
0100
0001
0000
1000
0100
1000
0000
,
1001
0000
0101
0000
0010
1000
0100
0000
,
0010
0001
0100
0000
0010
1000
0001
0000
,
1100
0000
0101
0000
1000
0010
0100
0000
,
0001
1000
0100
0000
0010
0001
1000
0000
,
0010
1000
0100
0010
0001
0100
0010
0000
,
1000
0100
0010
0001
1000
0100
0010
0000
,
1001
0000
1100
0000
0010
0001
0100
0000
,
0010
1000
0100
0000
0010
0001
0100
0000
,
1001
0000
1100
0000
0010
0001
0100
0000
,
0010
1000
0100
0010
0001
1000
0100
0000
,
0000
0000
0101
0000
1000
0100
0010
0000
,
0000
0000
1001
0000
0100
0010
1000
0000
,
0100
0010
0001
0100
0010
1000
0100
0010
,
0001
1000
0100
0010
0001
1000
0010
0000
,
0100
0001
0100
0001
1000
0100
0100
0000
,
0010
0001
0010
0001
1000
0010
0010
0000
,
0100
0001
0100
1000
0100
0001
0010
0100
,
1000
0000
0001
0000
1000
0001
0000
0100
,
0010
1000
0010
1000
0100
0010
0010
0000
,
0001
0100
0010
1000
0100
0010
0010
0000
,
0001
1000
0100
0010
0001
0100
0010
1000
,
0100
0100
0100
0100
0000
0010
0001
0000
,
2002
3003
0000
0000
;

//---------------dance-double - ----------------
#NOTES:
     dance-double:
     :
     Easy:
     3:
     0.227276,0.308924,0.010897,0.000000,0.000000,146.000000,145.000000,1.000000,0.000000,0.000000,0.000000,0.227276,0.308924,0.010897,0.000000,0.000000,146.000000,145.000000,1.000000,0.000000,0.000000,0.000000:
00000000
00000000
00000000
00000000
,
00000000
00000000
00000000
00000000
,
00000000
00000000
00000000
00000000
,
00000000
00000000
00000000
00000000
,
00000000
00000000
00000000
00000000
,
00000000
00000000
00000000
00000000
,
00000000
00000000
00000000
00000000
,
00000000
00000000
00000000
00000000
,
00000000
00000000
00000000
00000000
,
10000000
00000000
01000000
00000000
,
00001000
00000000
00000100
00000000
,
00000010
00000000
00000001
00000000
,
00000100
00000000
00010000
00000000
,
10000000
00000000
01000000
00000000
,
00010000
00000100
00000010
00000000
,
00000001
00000000
00000100
00000000
,
00010000
01000000
00100000
00000000
,
10000000
00000000
01000000
00000000
,
00010000
00000000
01000000
00000000
,
00001000
00010000
00000100
00000000
,
00001000
00000001
00000100
00000000
,
00000010
00000000
00010000
00000000
,
00100000
00000000
10000000
00000000
,
01000000
00000000
00001000
00000000
,
00000100
00000000
00000001
00000000
,
00000100
00001000
00000010
00000000
,
00010000
00001000
01000000
00000000
,
00100000
00000000
10000000
00000000
,
01000000
00100000
00001000
00010000
,
00000100
00000000
00001000
00000000
,
00000001
00000000
00000100
00000000
,
00000010
00000000
00010000
00000000
,
00001000
00100000
00010000
00000000
,
10000000
01000000
00100000
00000000
,
00001000
00010000
00000100
00000000
,
00000010
00000010
00000010
00000000
,
00000001
00000001
00000001
00000000
,
00000100
00000000
00000010
00000000
,
00010000
00001000
00100000
01000000
,
00000000
10000000
00000000
00010000
,
01000000
00001000
00010000
00000000
,
00000000
00000100
00000000
00000010
,
00000001
00000100
00000010
00000000
,
00000000
00010000
00000000
00001000
,
00000000
00100000
00000000
00010000
,
10000000
01000000
00100000
00000000
,
00001000
00010000
00000100
00000000
,
00000000
00000010
00000000
00000001
,
00000100
00000010
00001000
00000000
,
00000000
00000100
00000000
00010000
,
00001000
00100000
01000000
00000000
,
10000000
10000000
10000000
00000000
,
00010000
00010000
00010000
00000000
,
01000000
01000000
01000000
00000000
,
00001000
00010000
00001000
00010000
,
00000100
00000100
00001000
00000000
,
00000001
00000001
00000100
00000000
,
00000010
00000010
00001000
00000000
,
00000100
00010000
00001000
00100000
,
00010000
00010000
10000000
00000000
,
01000000
01000000
00100000
00000000
,
00001000
00001000
00010000
00000000
,
00000100
00000010
00000001
00000100
,
00001001
00000000
00000000
00000000
;

//---------------dance-double - ----------------
#NOTES:
     dance-double:
     :
     Medium:
     5:
     0.319121,0.411899,0.087174,0.000000,0.000000,205.000000,197.000000,8.000000,0.000000,0.000000,0.000000,0.319121,0.411899,0.087174,0.000000,0.000000,205.000000,197.000000,8.000000,0.000000,0.000000,0.000000:
00000000
00000000
00000000
00000000
,
00000000
00000000
00000000
00000000
,
00000000
00000000
00000000
00000000
,
00000000
00000000
00000000
00000000
,
00000000
00000000
00000000
00000000
,
00000000
00000000
00000000
00000000
,
00000000
00000000
00000000
00000000
,
00000000
00000000
00000000
00000000
,
00000000
00000000
00000000
00000000
,
10000000
00010000
01000000
00001000
,
00010000
00000000
00000100
00000000
00000010
00000001
00000010
00000000
,
00000100
00010000
00001000
01000000
,
00100000
00100000
00100000
00100000
,
10000000
01000000
00010000
01000000
,
00001000
00010000
00000100
00000010
,
00000001
00001000
00000100
00010000
,
00001000
00100000
01000000
10000000
,
00010000
00000000
00000000
01000000
,
00001000
00000000
00000000
00010000
,
00000100
00000000
00000000
00000000
,
00000010
00000001
00001000
00000100
,
00010000
00001000
01000000
00100000
,
10000000
01000000
00100000
00010000
,
01000000
00001000
00010000
00000100
,
00000010
00000001
00001000
00000100
,
00010000
00000000
00001000
00000000
,
00100000
00010000
10000000
00000000
,
01000000
00000000
00100000
00000000
,
00001000
00000000
00010000
00000000
00000100
00001000
00000100
00000000
,
00000010
00000010
00000001
00000001
,
00000100
00000000
00000010
00000000
00001000
00000100
00010000
00000000
,
00001000
00001000
00010000
00010000
,
00000100
00000010
00000001
00000000
,
00001000
00001000
00000100
00000100
,
00010000
00001000
01000000
00100000
,
10000000
01000000
00100000
00001000
,
00010000
00000100
00000010
00000001
,
00001000
00000000
00000100
00000000
00010000
00001000
00010000
00000000
,
00000010
00000100
00000001
00001000
,
00000000
00000100
00000000
00000100
,
00010000
00001000
00100000
01000000
,
00000000
10000000
00000000
00010000
,
01000000
00001000
00010000
00000010
,
00001000
00000000
00001000
00000000
00000100
00000010
00000000
00000000
,
00000001
00000000
00001000
00000000
00000100
00010000
00000000
00000000
,
00001000
00001000
00100000
00100000
,
10010000
11000000
01100000
00110000
,
00000000
01000000
00000000
00001000
,
00010000
00000000
00000100
00000000
00000010
00000001
00000010
00000000
,
00000000
00000100
00000000
00010000
,
00001000
00100000
01000000
00000000
,
10000000
00000000
00010000
00000000
01000000
01000000
00000000
00000000
,
00001000
00000000
00010000
00000000
00000100
00000100
00000000
00000000
,
00001001
00001100
00000101
00000000
,
00001000
00000100
00010000
00001000
,
00100000
00000000
00100000
00000000
00100000
01000000
00000000
00000000
,
10000000
00010000
01000000
00000000
,
00001000
00000000
00001000
00000000
00001000
00010000
00000000
00000000
,
00000100
00000010
00000001
00000100
,
00000010
00000000
00000010
00000000
00000010
00010000
00000000
00000000
,
00001000
00100000
00010000
00000000
,
10000000
00000000
10000000
00000000
10000000
01000000
00000000
00000000
,
00100000
00001000
00010000
00000100
,
00001001
00000000
00000000
00000000
;

//---------------dance-double - ----------------
#NOTES:
     dance-double:
     :
     Hard:
     8:
     0.484130,0.549199,0.283317,0.000000,0.000000,311.000000,285.000000,26.000000,0.000000,0.000000,0.000000,0.484130,0.549199,0.283317,0.000000,0.000000,311.000000,285.000000,26.000000,0.000000,0.000000,0.000000:
00000000
00000000
00000000
00000000
,
00000000
00000000
00000000
00000000
,
00000000
00000000
00000000
00000000
,
00000000
00000000
00000000
00000000
,
00000000
00000000
00000000
00000000
,
00000000
00000000
00000000
00000000
,
00000000
00000000
00000000
00000000
,
00000000
00000000
00000000
00000000
,
00000000
00000000
00000000
00000000
,
10000000
01000000
00100000
00010000
00000000
01000000
01000000
00000000
,
00001000
00010000
00000100
00000010
00000000
00000001
00000001
00000000
,
00001000
00000100
00010000
00001000
00000000
00100000
00100000
00000000
,
10010000
11000000
01010000
00011000
,
00000100
00000000
00000010
00000000
00000001
00000100
00000010
00000000
,
00010000
00000000
00001000
00000000
00100000
00010000
10000000
00000000
,
01000000
00100000
00001000
00010000
,
00000100
00000010
00000001
00000100
,
00000010
00001000
00000100
00000000
00010000
00001000
00100000
00000000
,
00010000
10000000
01000000
00100000
00010000
01000000
00001000
00000000
,
00010000
00000100
00000010
00000001
,
00001000
00000100
00010000
00001000
,
00000000
00000000
10010000
00000000
01000000
00100000
00010000
00000000
,
01000000
00000000
00001000
00000000
00010000
00000100
00001000
00000000
,
00000001
00000100
00000010
00001001
,
00000100
00000000
00010000
00000000
00001000
00100000
00010000
00000000
,
10000000
00000000
10000000
00000000
10000000
10000000
00000000
00000000
,
00010000
00000000
01000000
00000000
00001000
00010000
00000000
00000000
,
00000100
00000010
00000001
00001000
,
00000100
00010000
00001000
00100000
,
00010000
01000000
00100000
00000000
10000000
01000000
00100000
00000000
,
00010000
01000000
00001000
00000000
00010000
00000100
00000010
00000000
,
00000001
00000100
00000010
00001000
00000100
00000000
00011000
00000000
,
00100000
01000000
10000000
00010000
01000000
00000000
00011000
00000000
,
00000100
00000010
00000001
00000000
00000100
00000010
00001000
00000000
,
00000100
00000000
00010000
00000000
00001000
00100000
00010000
00000000
,
10000000
01000000
00100000
00010000
01000000
00000000
00011000
00000000
,
00000100
00000010
00000001
00000100
00000010
00000000
00001001
00000000
,
00000100
00000000
00010000
00000000
00001000
00100000
00010000
00000000
,
11000000
01010000
00011000
00001100
,
00000001
00000000
00000100
00000000
00000010
00010000
00001000
00000000
,
00100000
00010000
01000000
00000000
00100000
10000000
01000000
00000000
,
00100000
00000000
00001000
00000000
00010000
00000100
00001000
00000000
,
00000001
00000100
00000010
00000000
00001001
00000000
00000110
00000000
,
00010000
00000000
00001000
00000000
00100000
00010000
10000000
00000000
,
01000000
00100000
00010000
00000000
01000000
00000000
00001000
00000000
,
00010000
00000100
00000010
00000001
00000100
00000010
00000010
00000000
,
00001000
00000100
00010000
00001000
01000000
00010000
00010000
00000000
,
00000000
00000000
11000000
00000000
00100000
00010000
00100000
00000000
,
00001000
00010000
00000100
00000000
00000010
00000001
00000100
00000000
,
00000010
00010000
00001000
00000000
00100000
00010000
10000000
00000000
,
01100000
10010000
01001000
00010010
,
00000100
00000000
00000010
00000000
00000001
00001000
00000100
00000000
,
00010000
00001000
00100000
00000000
00010000
10000000
01000000
00000000
,
00100000
00001000
00010000
00000100
,
00000010
00000001
00000100
00000010
00001000
00000100
00010000
00000000
,
00011000
00000000
00011000
00000000
00100000
01000000
01000000
00000000
,
10000000
00010000
01000000
00001000
00010000
00000100
00000100
00000000
,
00001001
00000000
00000110
00000000
00010000
00001000
00001000
00000000
,
00100000
00000000
01000000
00000000
10000000
00010000
00000000
01000000
,
00001000
00000000
00001000
00000000
00010000
00000100
00000100
00000000
,
00000010
00000001
00000100
00000010
00001000
00000100
00000100
00000000
,
00010000
00000000
00001000
00000000
00100000
00010000
00010000
00000000
,
10000000
01000000
00100000
00010000
01000000
00001000
00001000
00000000
,
10010000
00000000
00000000
00000000
;

//---------------dance-couple - ----------------
#NOTES:
     dance-couple:
     :
     Challenge:
     8:
     0.350255,0.549199,0.130762,0.000000,0.000000,225.000000,213.000000,12.000000,0.000000,0.000000,0.000000,0.350255,0.549199,0.130762,0.000000,0.000000,225.000000,213.000000,12.000000,0.000000,0.000000,0.000000:
00000000
00000000
00000000
00000000
,
00000000
00000000
00000000
00000000
,
00000000
00000000
00000000
00000000
,
00000000
00000000
00000000
00000000
,
00000000
00000000
00000000
00000000
,
00000000
00000000
00000000
00000000
,
00000000
00000000
00000000
00000000
,
00000000
00000000
00000000
00000000
,
00000000
00000000
00000000
00000000
,
10000000
10000000
00000001
00000001
,
00100000
00100000
00000100
00000100
,
10000000
10000000
00000001
00000001
,
01000000
00000010
01000000
00000010
,
00000000
10000000
00000000
10000000
,
00000000
00000001
00000000
00000001
,
00000000
10000000
00000000
10000000
,
00000000
00000001
00000000
00000001
,
00000000
01000000
00000000
00100000
,
00000000
00000100
00000000
00000010
,
00000000
00000000
01000100
00000000
00000000
00000000
01000100
01000100
,
00000000
01000100
00000000
01000100
,
10011001
00000000
00100000
01000000
,
10011001
00000000
00000100
00000010
,
11001100
00000000
00010000
00100000
,
01010101
00000000
00000010
00001000
,
11001100
00000000
00100000
00010000
,
01010101
00000000
00001000
00000010
,
10000100
01000001
00101000
00010100
,
01000010
00100001
10000100
00010010
,
10001000
00000000
10001000
00000000
00010001
01000100
01000100
00000000
,
00100010
00000000
00100010
00000000
10001000
00010001
00010001
00000000
,
00100010
01000100
10001000
00000000
00100010
01000100
00010001
00000000
,
10001000
00100010
01000100
00000000
00010001
00100010
01000100
00000000
,
10001000
00000000
00010001
00000000
10001000
00010001
10001000
00000000
,
01000100
00000000
00100010
00000000
00010001
01000100
00100010
00000000
,
10001000
01000100
00100010
00000000
00010001
01000100
00100010
00000000
,
10001000
00010001
01000100
00000000
00100010
10001000
00010001
00000000
,
00100010
01000100
10001000
00100010
01000100
00010001
10001000
00000000
,
01000100
00100010
00010001
01000100
00100010
10001000
01000100
00000000
,
00000000
00000000
10010001
00000000
10000000
01000000
10000001
00000000
,
00010000
01000000
00010001
00000000
10000000
01000000
10000001
00000000
,
10010000
00000000
01010100
00000000
00100000
10000000
01000100
00000000
,
00100000
00010000
01000100
00000000
00100000
10000000
00010100
00000000
,
11000000
00000000
01010001
00000000
10000000
00100000
01000001
00000000
,
00010000
10000000
01000001
00000000
00100000
00010000
10000001
00000000
,
00100000
10000000
01000100
00100000
00010000
01000000
00100100
00000000
,
10000000
01000000
00100000
00010000
10000000
01000000
00100000
00000000
,
00000000
00000000
10001001
00000000
00001000
00000100
10001000
00000000
,
00000001
00000100
10000001
00000000
00001000
00000100
10001000
00000000
,
00001001
00000000
01000101
00000000
00000010
00001000
01000100
00000000
,
00000010
00000001
01000100
00000000
00000010
00001000
01000001
00000000
,
00001100
00000000
10000101
00000000
00001000
00000010
10000100
00000000
,
00000001
00001000
10000100
00000000
00000010
00000001
10001000
00000000
,
00000010
00001000
01000100
00000010
00000001
00000100
01000010
00000000
,
00001000
00000100
00000010
00000001
00001000
00000100
00000010
00000000
,
01000100
00010001
01000100
00010001
10001000
01000100
01000100
00000000
,
00100010
00010001
00100010
00010001
10001000
00100010
00100010
00000000
,
01000100
00010001
01000100
10001000
01000100
00010001
00100010
01000100
,
10001000
00000000
00010001
00000000
10001000
00010001
00000000
01000100
,
00100010
10001000
00100010
10001000
01000100
00100010
00100010
00000000
,
00010001
01000100
00100010
10001000
01000100
00100010
00100010
00000000
,
00010001
10001000
01000100
00100010
00010001
01000100
00100010
10001000
,
01000100
01000100
01000100
01000100
00000000
00100010
00010001
00000000
,
10011001
00000000
00000000
00000000
;

//---------------dance-solo - ----------------
#NOTES:
     dance-solo:
     :
     Easy:
     3:
     0.222606,0.274600,0.054484,0.000000,0.000000,143.000000,138.000000,5.000000,0.000000,0.000000,0.000000,0.222606,0.274600,0.054484,0.000000,0.000000,143.000000,138.000000,5.000000,0.000000,0.000000,0.000000:
000000
000000
000000
000000
,
000000
000000
000000
000000
,
000000
000000
000000
000000
,
000000
000000
000000
000000
,
000000
000000
000000
000000
,
000000
000000
000000
000000
,
000000
000000
000000
000000
,
000000
000000
000000
000000
,
000000
000000
000000
000000
,
010000
000000
000010
000000
,
100000
000000
001000
000000
,
000100
000000
000001
000000
,
100000
000000
100000
000000
,
000100
000000
001000
000000
,
000010
000000
100000
000000
,
000001
000000
010000
000000
,
001000
000000
000100
000000
,
000001
010000
001000
000000
,
100000
000010
001000
000000
,
000100
000000
100000
000000
,
001000
000100
000001
001000
,
000010
000000
100000
000000
,
000001
000000
010000
000000
,
001000
000000
000100
000000
,
000001
000000
100000
000000
,
000100
001000
000010
000000
,
000100
001000
010000
000000
,
000001
000000
001000
000000
,
000100
100000
000010
010000
,
000001
000000
000100
000000
,
001000
000000
100000
000000
,
000001
001000
000010
000000
,
100000
001000
010000
000000
,
000001
000000
000100
000000
,
001000
000000
100000
000000
,
000001
000100
000010
000000
,
100000
000100
010000
000000
,
000010
000100
001000
000000
,
010000
000001
100000
000010
,
000000
100001
000000
000100
,
001000
010000
000001
000000
,
000000
100001
000000
001000
,
000100
000001
100000
000000
,
000010
010000
000010
000000
,
000100
001000
000100
000000
,
000001
010000
000100
100000
,
000001
010000
001000
000000
,
000000
100001
000000
001000
,
000100
000001
010000
000000
,
000000
100001
000000
000100
,
001000
000010
100000
000000
,
001000
010000
000001
000000
,
100000
000100
001000
000000
,
000010
100000
001000
000000
,
010000
000001
000100
000010
,
000000
100000
000000
001000
,
000000
000100
000000
000001
,
000000
010000
000000
000010
,
000000
100000
000000
001000
,
000000
000010
000000
000001
,
000000
010000
000000
000010
,
000000
001000
000000
000100
,
000000
100000
000000
000001
,
100001
000000
000000
000000
;

//---------------dance-solo - ----------------
#NOTES:
     dance-solo:
     :
     Medium:
     5:
     0.358038,0.446224,0.261523,0.000000,0.000000,230.000000,206.000000,24.000000,0.000000,0.000000,0.000000,0.358038,0.446224,0.261523,0.000000,0.000000,230.000000,206.000000,24.000000,0.000000,0.000000,0.000000:
000000
000000
000000
000000
,
000000
000000
000000
000000
,
000000
000000
000000
000000
,
000000
000000
000000
000000
,
000000
000000
000000
000000
,
000000
000000
000000
000000
,
000000
000000
000000
000000
,
000000
000000
000000
000000
,
000000
000000
000000
000000
,
010000
000010
000100
000001
,
001000
000000
000010
000000
100000
000001
000001
000000
,
001000
000100
100000
000010
,
010000
010000
010000
010000
,
000100
100000
001000
000100
,
000001
010000
000010
001000
,
000100
100000
001000
000100
,
000001
010000
000010
000100
,
100001
001000
000100
000000
,
100001
001000
000100
000000
,
000001
010000
000010
100000
,
010100
100001
001000
000100
,
000001
001000
000010
100000
,
001000
000100
000001
010000
,
000010
100000
000100
001000
,
000010
010000
000001
000100
,
010010
100000
001000
000000
,
010001
000100
000010
000000
,
100001
001000
000100
000000
,
100000
001000
010000
000001
,
000100
000000
001000
000000
,
100000
000000
000001
000000
010000
001000
000000
000000
,
000100
000000
000001
000000
,
100000
000000
000100
000000
001000
000010
000000
000000
,
100000
000000
001000
000000
,
000100
000000
000001
000000
010000
000010
000000
000000
,
100000
000000
000100
000000
001000
000010
000000
000000
,
100000
000000
001000
000000
000100
000001
000000
000000
,
010000
000000
000010
000000
,
001100
010001
100010
010100
,
100000
100000
001000
001000
,
000100
000100
000001
000001
,
010000
000000
000010
100000
000100
000000
000000
000000
,
010000
000000
000010
000100
000001
000000
000000
000000
,
100000
000000
001000
000000
000100
000001
000000
000000
,
010000
000000
000010
000000
100000
000100
000000
000000
,
001000
010000
001000
000010
,
100001
001100
010001
100010
,
001000
001000
000100
000100
,
100000
100000
001000
001000
,
010000
000000
000001
000100
001000
000000
000000
000000
,
010000
000000
000100
001000
000001
000000
000000
000000
,
100000
000000
001000
000000
000100
000001
000000
000000
,
010000
000000
000010
000000
001000
000100
000000
000000
,
100000
000000
001000
000000
010000
000001
000000
000000
,
000110
100001
011000
100001
,
000010
001000
000100
000100
,
000001
010000
000100
100000
,
000001
010000
000100
100000
,
010010
000101
011000
100001
,
001000
000100
100000
001000
,
010000
000001
001000
000010
,
100000
001000
000100
000001
,
010000
000000
000010
000000
001000
001000
001000
000000
,
100001
000000
000000
000000
;

//---------------dance-solo - ----------------
#NOTES:
     dance-solo:
     :
     Hard:
     7:
     0.502810,0.549199,0.305111,0.000000,0.000000,323.000000,295.000000,28.000000,0.000000,0.000000,0.000000,0.502810,0.549199,0.305111,0.000000,0.000000,323.000000,295.000000,28.000000,0.000000,0.000000,0.000000:
000000
000000
000000
000000
,
000000
000000
000000
000000
,
000000
000000
000000
000000
,
000000
000000
000000
000000
,
000000
000000
000000
000000
,
000000
000000
000000
000000
,
000000
000000
000000
000000
,
000000
000000
000000
000000
,
000000
000000
000000
000000
,
010100
000000
000110
000000
100000
001000
001000
000000
,
010001
000000
100010
000000
000100
001000
001000
000000
,
100001
000000
001100
000000
000010
100000
001000
000000
,
000100
000100
000100
000100
,
000001
001000
000010
000000
100000
000000
001000
000000
,
010000
000001
000100
000000
001000
000000
100000
000000
,
000001
001000
000100
000000
100000
001000
000100
000000
,
000001
010000
000010
100000
000100
001000
000001
000000
,
100000
001000
010000
000000
100001
000000
000110
000000
,
010000
001000
000100
000000
010001
000000
100010
000000
,
001000
000000
000100
000000
100000
001000
010000
000000
,
000001
000100
000001
000000
010000
000010
100000
000100
,
001000
000001
100000
000000
001000
000000
000100
000000
,
000001
010000
000010
000000
001000
000000
000100
000000
,
100000
001000
010000
001000
000100
000001
010000
000000
,
000010
100000
000100
100000
000001
010000
001000
000000
,
000100
000001
010000
000010
100000
000000
001100
000000
,
100000
001000
000100
000001
010000
000000
001100
000000
,
000001
001000
000010
000000
100000
000001
010000
000000
,
001000
000100
000001
000000
010000
000010
100000
000000
,
001000
000000
000100
000000
000001
010000
000010
000000
,
001000
000000
000100
000000
100000
000010
010000
000000
,
001000
001000
001000
000000
100001
000000
000000
000000
,
001000
001000
001000
000000
100001
000000
000000
000000
,
000100
000000
000010
000000
001000
000100
100000
000000
,
000001
000000
000100
000000
001000
010000
000001
000000
,
100000
000100
001000
000000
000010
000000
100000
000000
,
001000
010000
000001
000000
000100
000000
001000
000000
,
010000
000001
010000
000000
000010
100000
000010
000000
,
010100
100001
011000
000101
,
000000
000000
101000
000000
000001
001000
000010
000000
,
100000
001000
010000
000000
000001
001000
000010
000000
,
000000
000000
100001
000000
010000
001000
000100
000000
,
000001
001000
000010
100000
000100
010000
001000
000000
,
000000
000000
100001
000000
001000
000100
001000
000000
,
000000
000000
100001
000000
000010
001000
000100
000000
,
000001
000100
001000
000000
100000
000100
001000
000000
,
000010
100000
000001
010000
001000
000100
000001
010000
,
000000
000000
100010
000000
001000
000100
001000
000000
,
000010
100000
000001
000000
010000
000010
000100
000000
,
000001
000000
001000
000000
000100
100000
000010
010000
,
001000
000100
000001
010000
000010
100000
000100
000000
,
000000
000000
010010
000000
001000
000100
000001
000000
,
000000
000000
010010
000000
100000
001000
000100
000000
,
010000
000001
000100
000010
010000
000000
010000
000001
,
000100
000010
010000
000000
010000
000100
100000
000010
,
010000
000000
010000
000000
000001
000100
000010
000000
,
010000
000100
100000
001000
010000
010000
010000
000000
,
000001
000000
001000
000000
000100
100000
001000
000000
,
010001
000000
100010
000000
000100
001000
000000
010000
,
000001
000000
000001
000000
100000
000100
010000
000000
,
000010
001000
000100
100000
001000
000100
000100
000000
,
000001
000000
010000
000000
000010
100000
000100
000000
,
010000
000010
000100
000001
001000
000100
100000
000000
,
010010
000000
000000
000000
;

//---------------dance-single - ----------------
#NOTES:
     dance-single:
     :
     Beginner:
     5:
     0.202369,0.516917,0.217936,0.239730,0.000000,130.000000,110.000000,20.000000,22.000000,0.000000,0.000000,0.202369,0.516917,0.217936,0.239730,0.000000,130.000000,110.000000,20.000000,22.000000,0.000000,0.000000:
0000
0000
0000
0000
,
0000
0000
0000
0000
,
0000
0000
0000
0000
,
0000
0000
0000
0000
,
0000
0000
0000
0000
,
0000
0000
0000
0000
,
0000
0000
0000
0000
,
0000
0000
0000
0000
,
0000
0000
0000
0000
,
0010
0010
0020
0030
,
0100
0100
0200
0300
,
1000
1000
2000
3000
,
2002
0000
0000
3003
,
0000
0000
1000
0001
,
0100
0000
0001
1000
,
0100
0000
1000
0001
,
0010
0000
0001
1000
,
0010
0000
0000
0001
,
0000
1000
0000
0100
,
0000
0020
0000
0000
,
0000
0030
0000
0000
,
0000
0110
0000
0000
,
0000
0000
0000
0000
,
0100
0000
0000
0000
,
0001
0000
0000
0000
,
1000
1000
1000
0000
,
0001
0001
0001
0000
,
2002
0000
0000
0000
,
3003
0000
0000
0000
,
1000
0000
0000
0000
,
0001
0000
0000
0000
,
0100
0000
0000
0000
,
0010
0000
0000
0000
,
1000
1000
1000
0000
,
0001
0001
0001
0000
,
0220
0000
0000
0000
,
0330
0000
0000
0000
,
2002
0000
0000
0000
,
3003
0000
0000
0000
,
0000
1001
0000
0000
,
1000
0001
0100
0000
,
0000
0110
0010
1000
,
0002
0000
0000
0003
,
0000
1000
0000
1000
,
0000
0001
0000
0001
,
0000
0100
0000
0100
,
0010
0010
0010
0010
,
0000
1001
0001
1000
,
0100
0010
0000
0000
,
0000
1001
1000
0001
,
0100
0000
0000
0000
,
0010
0100
0001
0000
,
0010
1000
0100
2002
,
0000
0000
0000
3003
,
0000
0000
0000
0000
,
0001
1000
0002
0003
,
0100
0010
0200
0300
,
1000
0010
2000
3000
,
1100
1010
0101
0011
,
0001
1000
0002
0003
,
0100
0010
0200
0300
,
0010
1000
0001
1001
,
1100
1010
0101
0011
,
2002
3003
0000
0000
;

//---------------dance-single - ----------------
#NOTES:
     dance-single:
     :
     Challenge:
     15:
     0.938682,1.137218,0.446769,0.054484,0.904435,603.000000,562.000000,41.000000,5.000000,0.000000,0.000000,0.938682,1.137218,0.446769,0.054484,0.904435,603.000000,562.000000,41.000000,5.000000,0.000000,0.000000:
// measure 0
0000
0000
0000
0000
,  // measure 1
0000
0000
0000
0000
,  // measure 2
0000
0000
0000
0000
,  // measure 3
0000
0000
0000
0000
,  // measure 4
0000
0000
0000
0000
,  // measure 5
0000
0000
0000
0000
,  // measure 6
0000
0000
0000
0000
,  // measure 7
0000
0000
0000
0000
,  // measure 8
0000
0000
0000
0000
,  // measure 9
1100
0000
0100
0010
0000
0100
0010
0000
0011
0000
0110
0000
1100
0000
0000
0000
,  // measure 10
1010
0000
0010
1000
0000
0001
0010
0000
0011
0000
0110
0000
1100
0000
0000
0000
,  // measure 11
0101
0000
0001
0100
0000
1000
0010
0000
0011
0000
0110
0000
1100
0000
0000
0000
,  // measure 12
0100
0010
0100
0000
0010
0100
0010
0000
0100
0000
0010
0100
0000
0001
1000
0000
,  // measure 13
0100
0001
0100
1000
0001
0100
1000
0100
,  // measure 14
0001
0010
1000
0010
0001
0100
1000
0001
,  // measure 15
0100
0010
1000
0010
0100
0001
1000
0100
,  // measure 16
0010
0001
0100
0010
1000
0010
0001
0100
,  // measure 17
1000
0100
0001
0010
1000
0010
0001
0100
,  // measure 18
1000
0100
0001
1000
0010
0001
0100
0010
,  // measure 19
0000
0001
0010
0001
0100
0001
0010
1000
,  // measure 20
0100
1000
0010
1000
1001
1001
1001
1001
,  // measure 21
0000
0110
1001
0001
0010
0001
0100
0001
,  // measure 22
1000
0100
0001
0100
1000
0010
0001
0100
,  // measure 23
0010
1000
0001
0010
1000
0001
0100
0010
,  // measure 24
1000
0001
0010
1000
0100
0010
1000
0001
,  // measure 25
0010
1000
0001
0100
0001
1000
0010
1000
,  // measure 26
0100
0001
0100
0010
1000
0001
0010
0100
,  // measure 27
0000
0100
1000
0100
0001
0100
1000
0010
,  // measure 28
0001
0010
1000
0010
0001
0010
1000
0010
,  // measure 29
0001
0000
0010
0100
0000
0010
0100
0000
1000
0000
0100
0010
0000
0100
0010
0000
,  // measure 30
0001
0000
0010
0001
0000
0010
0001
0000
0100
0000
1000
0100
0000
1000
0100
0000
,  // measure 31
0001
0000
0100
0001
0000
0100
0001
0000
1000
0000
0010
1000
0000
0010
1000
0000
,  // measure 32
0001
0000
1000
0001
0000
1000
0001
0000
0100
0000
0010
0100
0000
0010
0100
0000
,  // measure 33
0001
0010
0001
0000
0100
0000
0010
0000
1000
0010
1000
0000
0100
0000
0010
0000
,  // measure 34
0001
0010
0001
0010
0100
0000
1000
0000
0010
1000
0010
1000
0100
0000
0010
0000
,  // measure 35
0001
0010
0001
0000
0010
0100
0010
0000
0100
1000
0100
1000
0010
1000
0010
1000
,  // measure 36
0001
0010
0001
0000
0010
0100
0010
0000
1000
0100
1000
0100
0010
0001
0010
0001
,  // measure 37
0100
0001
0100
0001
0100
0001
0100
0001
0100
0001
0100
0001
0100
0001
0100
0001
,  // measure 38
0100
0100
0100
0100
0100
0100
0100
0100
,  // measure 39
0000
0000
0100
0000
1001
0001
0010
0000
0010
0100
1000
0000
0010
0100
1000
0000
,  // measure 40
0010
0001
0100
0001
0010
0001
0100
0001
0010
0001
0100
0001
0010
0001
0100
0000
,  // measure 41
1100
1000
0010
0000
0100
0010
0001
0000
0001
0100
0010
0000
1000
0100
1000
0100
,  // measure 42
1000
0100
1000
0100
1000
0100
1000
0100
1000
0100
1000
0100
1000
0100
1000
0000
,  // measure 43
0100
1000
0100
0000
0010
0000
0100
0010
0001
0000
0001
0010
0000
0100
0010
0000
,  // measure 44
1000
0001
1000
0000
0001
0000
0100
0000
0001
0010
0001
0000
0100
0000
0010
0000
,  // measure 45
1000
0010
1000
0010
1000
0010
1000
0010
1000
0010
1000
0010
1000
0010
1000
0010
,  // measure 46
1000
0001
1000
0001
1000
0001
1000
0001
1000
0100
1000
0100
1000
0100
1000
0100
,  // measure 47
0010
0001
0010
0000
0011
0010
0100
0000
0100
1000
0010
0000
0100
0001
0010
0000
,  // measure 48
0001
1000
0010
1000
0001
1000
0010
1000
0001
1000
0010
1000
0001
1000
0010
0000
,  // measure 49
1010
1000
0100
0000
0100
0010
0001
0000
0001
0100
0010
0000
1000
0001
1000
0001
,  // measure 50
1000
0001
1000
0001
1000
0001
1000
0001
1000
0001
1000
0001
1000
0001
1000
0000
,  // measure 51
0001
0100
0001
0000
0010
0000
1000
0010
0100
0000
0001
0100
0000
1000
0100
0000
,  // measure 52
0010
0001
0010
0000
0100
0000
1000
0000
0001
0010
0001
0000
0100
0000
1000
0000
,  // measure 53
0000
0000
1000
0100
0001
1000
0010
0100
0001
0010
0100
1000
0001
0010
1000
0010
,  // measure 54
0100
0001
1000
0001
0010
0100
0001
0100
1000
0100
0010
0001
0010
0100
1000
0001
,  // measure 55
0100
0000
1000
0100
0000
0100
0001
0000
0101
0000
1001
0000
1010
0000
0000
0000
,  // measure 56
0110
0000
0010
0100
0000
0100
0001
0000
0101
0000
1001
0000
1010
0000
0000
0000
,  // measure 57
0011
0000
0010
1000
0000
0001
0100
0000
0101
0000
1001
0000
1010
0000
0000
0000
,  // measure 58
2200
3300
0202
0303
1001
0110
0000
0110
,  // measure 59
0100
0001
0100
1000
0000
1000
0100
0001
0100
1000
0100
0000
1001
0000
0000
0000
,  // measure 60
0001
0010
1000
0010
0000
0010
0001
0010
1000
0010
0001
0000
1001
0000
0000
0000
,  // measure 61
0010
1000
0010
0001
0000
0001
0010
1000
0010
0001
0010
0000
1001
0000
0000
0000
,  // measure 62
0100
0001
0100
0000
0100
1000
0100
0000
0100
0010
0100
0000
0100
0010
1000
0001
,  // measure 63
0200
0300
0000
0000
;
