#VERSION:0.83;
#TITLE:H2hoe;
#SUBTITLE:;
#ARTIST:Cupcakke;
#TITLETRANSLIT:;
#SUBTITLETRANSLIT:;
#ARTISTTRANSLIT:;
#GENRE:;
#ORIGIN:;
#CREDIT:;
#BANNER:;
#BACKGROUND:H2hoe-bg.png;
#PREVIEWVID:;
#JACKET:H2hoe-jacket.png;
#CDIMAGE:;
#DISCIMAGE:;
#LYRICSPATH:;
#CDTITLE:;
#MUSIC:H2hoe.mp3;
#OFFSET:0.000000;
#SAMPLESTART:146.800003;
#SAMPLELENGTH:12.000000;
#SELECTABLE:YES;
#DISPLAYBPM:124.000000;
#BPMS:0.000=134.000,
4.000=124.000;
#STOPS:78.000=0.480,
173.500=0.500,
300.500=0.240;
#DELAYS:;
#WARPS:;
#TIMESIGNATURES:0.000=4=4;
#TICKCOUNTS:0.000=4;
#COMBOS:0.000=1;
#SPEEDS:0.000=1.000=0.000=0;
#SCROLLS:0.000=1.000;
#FAKES:;
#LABELS:0.000=Song Start;
#BGCHANGES:;
#KEYSOUNDS:;
#ATTACKS:
;

//---------------dance-single - ----------------
#NOTEDATA:;
#CHARTNAME:;
#STEPSTYPE:dance-single;
#DESCRIPTION:;
#CHARTSTYLE:;
#DIFFICULTY:Challenge;
#METER:16;
#RADARVALUES:0.704556,0.801163,0.279976,0.312281,0.783395,916.000000,864.000000,52.000000,58.000000,0.000000,0.000000,0.000000,0.000000,0.000000,0.704556,0.801163,0.279976,0.312281,0.783395,916.000000,864.000000,52.000000,58.000000,0.000000,0.000000,0.000000,0.000000,0.000000;
#CREDIT:;
#DISPLAYBPM:124.000000;
#NOTES:
// measure 0
0000
0000
0000
0000
,  // measure 1
0000
0000
0000
0000
,  // measure 2
0000
0000
0000
0000
,  // measure 3
0000
0000
0000
0000
,  // measure 4
0000
0000
0020
0000
0000
0000
0130
0010
0001
0000
0010
0000
0000
0000
1100
0000
,  // measure 5
0000
0000
2000
0000
0000
0000
3001
0010
0100
0000
1000
0000
0000
0000
0101
0000
,  // measure 6
0000
0000
0002
0000
0000
0000
0013
1000
0100
0000
0010
0000
0000
0000
0110
0000
,  // measure 7
0000
0000
0200
0000
0000
0001
0000
0000
0310
0000
0000
0000
0100
0000
0110
0000
,  // measure 8
0000
0000
1000
0000
0010
0000
0001
0000
0100
0000
1000
0000
0100
0001
0010
0000
,  // measure 9
0100
0000
1000
0000
0100
0010
1000
0000
0100
0010
2000
0000
0000
0000
3001
0000
,  // measure 10
1000
0100
0020
0000
0001
0000
0000
0000
1030
0000
0000
0000
1001
0000
0000
0000
,  // measure 11
0001
0010
0200
0000
1000
0000
0000
0000
0301
0000
0000
0000
1001
0000
0000
0000
,  // measure 12
1100
0000
1000
0000
0010
0000
0100
0000
0001
0000
0010
0000
0001
0010
0100
0000
,  // measure 13
0010
0000
1000
0000
0100
0010
0001
0000
0001
0010
0200
0000
0000
0000
1300
0000
,  // measure 14
0010
1000
0002
0000
0100
0000
0000
0000
0013
0000
0000
0000
0011
0000
0000
0000
,  // measure 15
0100
0010
2000
0000
0010
0000
0000
0000
3100
0000
0000
0000
1001
0000
0000
0000
,  // measure 16
0000
0000
1000
0000
0001
0100
0000
1000
0100
0010
0001
0010
0001
0000
0101
0000
,  // measure 17
0000
0000
0010
0000
0001
0010
0000
1000
0010
0100
0001
0010
0001
0000
1001
0000
,  // measure 18
0000
0000
1000
0000
0100
1000
0000
0100
0001
0010
0100
0000
0010
0000
1010
0000
,  // measure 19
1000
0100
0010
0000
0001
0010
0000
1000
0020
0000
0000
0000
0030
0000
0100
0000
,  // measure 20
0001
0100
0000
1000
0100
0010
0001
0000
0101
0000
1001
0000
0010
0000
0010
1000
,  // measure 21
0000
0010
0001
0010
0100
0001
1000
0000
1001
0000
1001
0000
0000
0000
2100
0000
,  // measure 22
3001
0000
2010
0000
3100
0000
2001
0000
3010
0000
0110
0000
0001
0010
0002
0000
,  // measure 23
0013
0102
1003
0012
0103
0002
0003
0100
,  // measure 24
0001
0100
0000
1000
0100
0000
0000
0000
0100
0000
0110
0000
0000
0000
0010
0000
,  // measure 25
1000
0010
0000
0001
0010
0000
0000
0000
0010
0000
0110
0000
0000
0000
1000
0000
,  // measure 26
0001
0100
0000
1000
0100
0000
0000
0000
0100
0000
1100
0000
0000
0000
1000
0000
,  // measure 27
0010
0001
0000
0010
1000
0000
0000
0000
0010
0000
1001
0000
0000
0000
1100
0000
,  // measure 28
0000
1010
0000
0000
1001
0000
0000
0000
0002
0000
0103
0000
0000
0000
0110
0000
,  // measure 29
0000
1001
0000
0000
0110
0000
0000
0000
2000
0000
3100
0000
0000
0000
1010
0000
,  // measure 30
0001
0010
0000
1000
0010
0000
0000
0000
0100
0000
0202
0000
0303
0000
0001
0000
,  // measure 31
0100
0010
0000
1000
0100
0000
0010
0001
1000
0010
0100
0001
0010
0001
0100
0010
,  // measure 32
1000
0100
0010
1000
0100
0010
1000
0100
0010
1000
0100
0010
0001
1000
0001
0010
,  // measure 33
0000
0100
0010
1000
0100
0010
0001
0000
0101
0000
1100
0000
1000
0100
0010
0001
,  // measure 34
0100
0010
1000
0010
0001
0100
0010
1000
0100
0010
0001
0000
0010
0100
0001
0010
,  // measure 35
0001
0100
0010
1000
0100
0010
1000
0001
0100
0000
0010
0000
0001
1000
0010
0000
,  // measure 36
0100
0001
1000
0000
0010
0001
0100
0000
0010
1000
0200
0000
0310
0000
1000
0000
,  // measure 37
0001
0100
0010
0000
1000
0100
0010
0000
0001
0100
0020
0000
1030
0000
0100
0000
,  // measure 38
0010
0100
1000
0000
0001
0100
0010
0000
1010
0000
1100
0000
1001
0000
0000
0000
,  // measure 39
0000
0100
0010
0000
0100
0000
0120
0000
0031
0000
0210
0000
1300
0000
2000
0000
,  // measure 40
0000
0000
0000
3020
0000
0000
0000
0032
,  // measure 41
0000
0000
0000
0203
0000
0000
0000
0320
,  // measure 42
0000
0000
0000
0030
0000
0000
0000
2002
,  // measure 43
0000
0000
0000
0000
0000
0000
3003
0000
1000
0010
0100
0000
0010
0001
0100
0000
,  // measure 44
1000
0100
0010
0000
0001
0100
0010
0000
1000
0010
0100
0001
0010
0001
0100
0000
,  // measure 45
0010
0001
0100
0010
1000
0001
0100
0000
0010
0001
0100
0010
2000
0000
0000
0000
,  // measure 46
3001
0100
0010
0000
0100
1000
0010
0000
1000
0100
0010
0001
0200
0000
0000
0000
,  // measure 47
0301
0010
0100
0000
0010
0100
1000
0000
0000
0000
0000
1000
0100
0010
0001
1000
,  // measure 48
0010
0100
0001
0010
0001
0100
0010
0000
1000
0010
0100
0000
0010
0001
1000
0000
,  // measure 49
0001
0100
0010
1000
0100
0010
0001
0000
0100
0010
1000
0000
0010
0100
0001
0000
,  // measure 50
1000
0100
0010
0001
0100
0010
1000
0010
0100
0001
0010
0001
0100
0010
1000
0010
,  // measure 51
0100
0001
0010
0001
0000
0010
0000
0100
0010
1000
0100
0010
0001
1000
0010
0100
,  // measure 52
0001
0010
0001
0000
0100
0001
0000
1000
0100
0010
0001
0000
0010
1000
0100
0000
,  // measure 53
0010
0001
1000
0000
0100
1000
0000
0000
0100
1000
0001
0000
0001
0010
1000
0000
,  // measure 54
0010
0100
0001
0000
1000
0100
0000
0000
0010
0001
1000
0000
0001
0100
0010
0000
,  // measure 55
1000
0010
0100
0000
0001
0100
0000
1000
0010
1000
0010
0100
0001
0100
0001
1000
,  // measure 56
0100
1000
0100
0010
0001
0000
0011
0000
0001
0000
0010
0001
0010
0001
0100
0010
,  // measure 57
0100
0010
0001
1000
0001
0000
0101
0000
0100
0000
1000
0100
1000
0100
0010
0001
,  // measure 58
0010
0001
1000
0010
1000
0000
1001
0000
0001
0000
0100
0001
0100
0001
1000
0100
,  // measure 59
1000
0100
0010
0001
0010
0000
0110
0000
0100
0000
0001
0000
0010
1000
0100
0000
,  // measure 60
0010
0001
0100
0000
0010
0001
0000
0000
0100
0010
1000
0000
0100
0010
0001
0000
,  // measure 61
1000
0010
0100
0000
0010
0001
0000
0100
0001
0010
0100
0000
0010
1000
0100
0000
,  // measure 62
0010
0001
1000
0000
0001
0100
0000
1000
0100
0010
0001
0100
0010
1000
0010
0000
,  // measure 63
0001
0010
0001
0000
0010
1000
0010
0001
0010
0001
0100
0000
0000
0000
0101
0000
,  // measure 64
1100
0000
1001
0000
0000
0000
1010
0000
1100
0000
1001
0000
0001
0100
1000
0000
,  // measure 65
1000
0100
0001
0000
0010
0001
0100
0010
1000
0000
0100
0000
0010
1000
0100
0000
,  // measure 66
0010
0001
0100
0000
0001
0010
0100
1000
0010
0000
0100
0000
1000
0100
0010
0000
,  // measure 67
0001
0010
0100
0000
1000
0010
0100
0001
0010
0000
0001
0000
0100
0010
1000
0000
,  // measure 68
0001
0010
0100
0000
1000
0100
0010
0001
0100
0000
0010
0000
0001
0010
0100
0000
,  // measure 69
1000
0010
0100
0000
0001
1000
0100
0010
0001
0000
0100
0000
0010
0001
0100
0000
,  // measure 70
1000
0100
0010
0000
0001
1000
0100
0010
0001
0000
0200
0000
0302
0000
0023
0000
,  // measure 71
2030
0200
0000
3300
0000
2000
0000
0100
,  // measure 72
0000
3200
0000
0001
0000
0302
0000
0010
,  // measure 73
0000
0000
0023
0000
0000
0000
0130
0000
0001
0010
0100
1000
0020
0000
0000
0000
,  // measure 74
0000
0000
2000
0000
0000
0000
3030
0000
1000
0100
0001
0020
0200
0000
0000
0000
,  // measure 75
0000
0000
0330
0000
0000
0000
0100
0001
1000
0000
0100
1000
0001
0000
0100
0001
,  // measure 76
1000
0000
0010
0001
0100
0000
0010
1000
0100
0000
0010
0001
1000
0001
0010
0001
,  // measure 77
0200
0000
0010
0000
0310
0000
1000
0010
0100
0001
0010
0001
0100
0000
0010
0010
,  // measure 78
0010
0000
0010
0010
0010
0000
1000
0100
0010
0001
0100
0010
0100
0000
0100
0100
,  // measure 79
0100
0000
0100
0100
0100
0000
1000
0010
0100
0000
0010
0001
0100
0000
0001
0010
,  // measure 80
0100
0000
1000
0100
0010
0001
0100
0001
0010
0000
1000
0010
0100
0000
0001
0010
,  // measure 81
0100
1000
0010
0100
0001
0000
0100
0001
0010
0001
0100
0010
1000
0000
0000
0000
,  // measure 82
2000
0000
3000
0000
0000
0000
1000
0100
0010
0001
0010
0100
0001
0000
0000
0000
,  // measure 83
0002
0000
0003
0000
0000
0000
0001
0100
1000
0000
1000
0010
0001
0000
0001
0100
,  // measure 84
0020
0000
1030
0000
0100
0000
0010
0001
0100
0000
0100
1000
0010
0000
0010
0001
,  // measure 85
0200
0000
1300
0000
0100
0000
1000
0100
0010
0000
0100
0010
0001
0000
1000
0100
,  // measure 86
0020
0000
0031
0000
0010
0000
0001
0010
0100
0000
0001
0100
0010
0000
0001
0010
,  // measure 87
2000
0000
3100
0000
0001
0000
0010
1000
0010
0001
0010
1000
0010
0000
0001
0010
,  // measure 88
1000
0010
0001
0010
1000
0000
0100
0001
0100
1000
0100
0001
0100
0000
1000
0100
,  // measure 89
0001
0100
1000
0100
0001
0000
1000
0100
0010
0100
1000
0100
0010
0000
1000
0010
,  // measure 90
0100
0010
1000
0010
0100
0000
0001
0010
0100
0010
0001
0010
0100
0000
0001
0100
,  // measure 91
0010
0100
0001
0100
0010
0000
0000
0000
2000
0000
0000
0000
0000
0000
0000
0000
,  // measure 92
3020
0000
0032
0000
,  // measure 93
0103
0000
0000
0000
;

//---------------dance-double - ----------------
#NOTEDATA:;
#CHARTNAME:;
#STEPSTYPE:dance-double;
#DESCRIPTION:;
#CHARTSTYLE:;
#DIFFICULTY:Challenge;
#METER:15;
#RADARVALUES:0.511495,0.701018,0.290745,0.312281,0.285360,665.000000,611.000000,54.000000,58.000000,0.000000,0.000000,0.000000,0.000000,0.000000,0.511495,0.701018,0.290745,0.312281,0.285360,665.000000,611.000000,54.000000,58.000000,0.000000,0.000000,0.000000,0.000000,0.000000;
#CREDIT:;
#DISPLAYBPM:124.000000;
#NOTES:
00000000
00000000
00000000
00000000
,
00000000
00000000
00000000
00000000
,
00000000
00000000
00000000
00000000
,
00000000
00000000
00000000
00000000
,
00000000
00000002
00000000
00000013
00000001
00000200
00000000
00000300
,
00000000
00002000
00000000
00013000
00001000
00200000
00000000
00300000
,
00000000
02000000
00000000
13000000
00100000
00020000
00000000
00030000
,
00000000
00000000
00010000
00000000
00000000
10000000
00000000
00000000
00100000
00000000
00000000
00000000
00100000
00000000
01000000
00000000
,
00000000
00000000
00100000
00000000
00010000
00000000
00100000
00000000
01000000
00000000
00010000
00000000
00100000
01000000
00100000
00000000
,
00010000
00001000
00000100
00001000
00010000
00002000
00000000
00003000
,
00010000
00100000
00001000
00000000
00011000
00000000
00011000
00000000
,
00010000
00000010
00000100
00000000
00000110
00000000
00000110
00000000
,
00000001
00000000
00000010
00000000
00000100
00000000
00000010
00000000
00000001
00000000
00000100
00000000
00001000
00000100
00001000
00000000
,
00000100
00000010
00000100
00001000
00010000
00200000
00000000
00300000
,
01000000
00100000
10000000
00000000
10010000
00000000
10010000
00000000
,
00010000
00001000
00000100
00000000
00000101
00000000
00002200
00000000
,
00003300
00000000
00001100
00000000
00001000
00000010
00000000
00000010
00001000
00000000
00000010
00000000
00000100
00000000
00000202
00000000
,
00000303
00000000
00000011
00000000
00000010
00000100
00000000
00000100
00001000
00000000
00000100
00000000
00010000
00000000
00022000
00000000
,
00033000
00000000
00101000
00000000
00100000
00010000
00000000
00010000
01000000
00000000
00010000
00000000
10000000
00000000
01000000
00000000
,
00100000
00010000
00100000
00000000
10000000
00100000
00000000
01000000
00020000
00000000
00000000
00000000
00030000
00000000
01000000
00000000
,
00100000
00010000
00000000
00010000
00001000
00000000
00010000
00000000
00000100
00000000
00002200
00000000
00003300
00000000
00001001
00000000
,
00000001
00000010
00000000
00000010
00000100
00000000
00001000
00000000
00000100
00000000
00020200
00000000
00030300
00000000
00011000
00000000
,
00010000
00001000
00000000
00001000
00100000
00000000
00010000
00100000
00010000
00000000
01000000
00000000
00010000
10000000
00010000
00000000
,
10000000
00100000
00000000
01000000
00010000
00000000
10000000
00000000
01000000
00000000
02200000
00000000
03300000
00000000
00100000
00000000
,
00000000
00010000
00000000
00000000
01000000
00000000
00000000
00000000
00010000
00000000
00001000
00000000
00000000
00000000
00000100
00000000
,
00000000
00000001
00000000
00000000
00000010
00000000
00000000
00000000
00000100
00000000
00001000
00000000
00000000
00000000
00010000
00000000
,
00000000
00100000
00000000
00000000
01000000
00000000
00000000
00000000
10000000
00000000
01000000
00000000
00000000
00000000
00100000
00000000
,
00000000
00001000
00000000
00000000
00010000
00000000
00000000
00000000
00000100
00000000
00000010
00000000
00000000
00000000
00000001
00000000
,
00000000
00000100
00000000
00000000
00001000
00000000
00000000
00000000
00010000
00000000
01000000
00000000
00000000
00000000
10000000
00000000
,
00000000
00100000
00000000
00000000
00010000
00000000
00000000
00000000
00001000
00000000
00000010
00000000
00000000
00000000
00000001
00000000
,
00000000
00000100
00000000
00000000
00001000
00000000
00000000
00000000
00100000
00000000
00010000
00000000
00000000
00000000
10000000
00000000
,
00000000
00100000
00000000
00000000
00010000
00000000
00000000
00000000
00001000
00000000
00000010
00000000
00000100
00000001
00000100
00000001
,
00000100
00000010
00000100
00000010
00001000
00000100
00001000
00000100
00010000
00001000
00010000
00000000
00001000
00010000
00001000
00000000
,
00010000
00001000
00000000
00001000
00100000
00000000
00010000
00000000
01000000
00000000
01100000
00000000
00100000
10000000
00100000
00000000
,
10000000
00100000
00000000
00100000
01000000
00000000
00010000
00000000
00100000
00000000
00010000
00000000
00001000
00100000
00001000
00000000
,
00010000
00000000
00000100
00000000
00001000
00000100
00001000
00000100
00000010
00000001
00000010
00000000
00000001
00001000
00000001
00000000
,
00000100
00001000
00000100
00000000
00010000
00001000
00010000
00001000
00100000
00000000
00010000
00000000
01010000
00000000
01000000
00000000
,
00100000
10000000
00100000
00000000
10000000
01000000
10000000
00000000
01000000
00000000
00100000
00000000
01100000
00000000
00100000
00010000
,
00100000
00010000
01000000
00001000
01000000
00001000
00010000
00000000
00011000
00000000
00011000
00000000
00022000
00000000
00000000
00000000
,
00033000
00000000
00010000
00000100
00000000
00000100
00002000
00000000
00003100
00000000
00000020
00000000
00000031
00000000
00000002
00000000
,
00000000
00000023
00000000
00000230
00000000
00002300
00000000
00023000
,
00000000
00230000
00000000
02300000
00000000
03000000
00000000
20000000
,
00000000
00000000
00000000
30000000
00000000
00000000
00000000
20020000
,
00000000
00000000
00000000
00000000
00000000
00000000
30030000
00000000
00010000
00000000
10000000
00010000
10000000
00000000
01000000
00010000
,
01000000
00000000
00100000
00010000
00100000
00000000
00010000
00000000
00000100
00000000
00001000
00000000
00000010
00000000
00000100
00000000
,
00000001
00000020
00000000
00000030
00000010
00000100
00001000
00000000
,
00011000
00000000
00101000
00000000
00100000
00010000
01000000
00000000
,
01010000
00000000
00000000
00000000
10100000
00000000
00000000
00000000
00000000
00000000
00000000
00000000
00100000
10000000
00100000
10000000
,
00100000
01000000
00100000
00000000
01000000
00000000
00010000
00000000
00001000
00100000
00001000
00000000
00010000
00000100
00010000
00000000
,
00001000
00000000
00000010
00000000
00000100
00000000
00000001
00000000
00000010
00000001
00000010
00000000
00001000
00000100
00001000
00000000
,
00000100
00000000
00010000
00000000
00001000
00000000
00100000
00000000
01000000
00010000
01000000
00000000
10000000
00100000
10000000
00000000
,
01000000
00000000
10000000
00000000
00010000
00000000
01000000
00000000
00100000
01000000
00100000
00000000
10000000
00010000
10000000
00000000
,
01000000
00000000
00100000
00000000
00010000
00100000
00000000
00000000
00001000
00100000
00001000
00000000
00010000
00000100
00010000
00000000
,
00000100
00000000
00001000
00000000
00000010
00000100
00000000
00000000
00000001
00000100
00000001
00000000
00000010
00000100
00000010
00000000
,
00001000
00000000
00000100
00000000
00001000
00000100
00000000
00000000
00001000
00010000
00001000
00000000
00010000
00100000
00010000
00000000
,
00100000
00000000
01000000
00000000
10000000
01000000
00000000
00000000
02000000
00000000
00100000
00000000
00100000
00000000
03100000
00000000
,
01100000
00000000
01100000
10010000
00000000
00200000
00010000
00010000
,
00310000
00000000
00101000
00011000
00000000
00020000
00000100
00000100
,
00030100
00000000
00010100
00001100
00000000
00000020
00000100
00000100
,
00000130
00000000
00000011
00000110
00000000
00000100
00001000
00000010
,
00000001
00000000
00000100
00000000
00010000
00001000
00000000
00000000
00010000
00000000
00001000
00000000
00100000
00000000
00010000
00000000
,
01000000
00000000
00100000
00000000
10000000
00100000
00000000
00000000
01000000
00000000
00010000
00000000
00100000
00000000
00001000
00000000
,
00010000
00000000
00000100
00000000
00000010
00000001
00000000
00000000
00000001
00000010
00000001
00000000
00000100
00001000
00000100
00000000
,
00010000
00000000
00001000
00000000
00010000
00100000
00000000
00000000
00100000
01000000
00100000
00000000
00000000
00000000
10010000
00000000
,
01100000
00000000
10010000
00000000
00000000
00000000
10000000
00000000
00100000
00000000
00010000
00000000
01000000
00010000
00000000
00010000
,
00100000
00000000
00101000
00000000
00000000
00000000
00001000
00000000
00010000
00000000
00000100
00000000
00001000
00000010
00000000
00000010
,
00000100
00000000
00000101
00000000
00000000
00000000
00001000
00000000
00000100
00000000
00010000
00000000
00001000
00010000
00000000
00001000
,
00010000
00000000
00011000
00000000
00000000
00000000
00010000
00000000
00100000
00000000
01000000
00000000
10000000
00100000
00000000
01000000
,
00010000
00000000
01010000
00000000
00000000
00000000
00100000
00000000
10000000
00000000
00010000
00000000
00100000
01000000
00000000
10000000
,
01000000
00000000
01100000
00000000
00000000
00000000
00100000
00000000
00010000
00000000
00001000
00000000
00010000
00001000
00000000
00010000
,
00001000
00000000
00000100
00000000
00000001
00000000
00000010
00000000
00000100
00000000
00001000
00000001
00001000
00000000
00000100
00000000
,
00000010
00001000
00000000
00000000
00000000
20000000
00000000
00000000
,
30000000
02000000
00000000
00000000
03000000
00200000
00000000
00000000
,
00300000
00020000
00000000
00000000
00030000
00002000
00000000
00000000
,
00003000
00000200
00000000
00000000
00000300
00000020
00000000
00000000
,
00000030
00000001
00000000
00000010
00001000
00000001
00000010
00000100
,
00000001
00001000
00000100
00010000
00001000
01000000
00010000
10000000
,
00200000
00000000
00000000
00310000
10000000
01000000
00000000
11000000
,
00000000
00110000
00000000
00010000
00001000
00000100
00000000
00001100
,
00000000
00000110
00000000
00000010
00000100
00000001
00001000
00000100
,
00000010
00001000
00000001
00000010
00000100
00001000
00010000
00100000
,
02000000
00000000
00000000
13000000
00100000
00010000
00000000
00000000
,
00011000
00000000
00000000
00001000
00000100
00000001
00000000
00000000
,
00000110
00000000
00000000
00000010
00001000
00020000
00000000
00100000
,
00100000
00130000
00000000
00010000
00100000
00002000
00000000
00000010
,
00000010
00003010
00000000
00000100
00001000
00020000
00000000
01000000
,
01000000
01030000
00000000
01000000
00010000
00002000
00000000
00000100
,
00000100
00003100
00000000
00001000
00010000
00200000
00000000
10000000
,
10000000
10300000
00000000
10000000
00010000
00000020
00000000
00000001
,
00000001
00000031
00000000
00000001
00000010
00000200
00000000
00001000
,
00001000
00001300
00000000
00001000
00010000
02000000
00000000
00010000
,
00010000
00000000
03010000
00000000
00000000
00000000
00000000
00000000
10100000
00000000
10000000
01000000
10000000
00000000
00000000
00000000
,
00110000
00000000
00010000
01000000
00010000
00000000
00001000
00010000
00000200
00000000
00000000
00000000
00000000
00000000
00000000
00000000
,
00001300
00000000
00000000
00000000
;
