#TITLE:Groove 2001;
#SUBTITLE:;
#ARTIST:Sho-T feat.Brenda;
#TITLETRANSLIT:;
#SUBTITLETRANSLIT:;
#ARTISTTRANSLIT:;
#GENRE:;
#CREDIT:;
#BANNER:Groove 2001.png;
#BACKGROUND:Groove 2001-bg.png;
#LYRICSPATH:;
#CDTITLE:;
#MUSIC:Groove 2001.ogg;
#OFFSET:0.000000;
#SAMPLESTART:58.215000;
#SAMPLELENGTH:15.000000;
#SELECTABLE:YES;
#BPMS:0.000000=140.000000
;
#STOPS:
;
#BGCHANGES:;
#KEYSOUNDS:;
#ATTACKS:;

//---------------dance-single - ----------------
#NOTES:
     dance-single:
     :
     Beginner:
     3:
     0.171749,0.279093,0.246890,0.000000,0.000000,112.000000,89.000000,23.000000,0.000000,0.000000,0.000000,0.171749,0.279093,0.246890,0.000000,0.000000,112.000000,89.000000,23.000000,0.000000,0.000000,0.000000:
0000
0000
0000
0000
,
0000
0000
0000
0000
,
0000
0000
0000
0000
,
0000
0000
0000
0000
,
0010
0000
0000
0000
,
0001
0000
1000
0000
,
0010
0000
0000
0000
,
1000
0000
0001
0000
,
0100
0000
0000
0000
,
0010
0000
0100
0000
,
1001
0000
0010
0000
,
0100
0000
0100
0000
,
1001
0000
0010
0000
,
0100
0000
0001
0000
,
0110
0000
0010
0000
,
0010
0000
1000
0000
,
0110
0000
0110
0000
,
0010
0000
0100
0000
,
1001
0000
0000
0000
,
0000
0000
0000
0000
,
0000
0000
0000
0000
,
0000
0000
0000
0000
,
0110
0000
0001
0000
,
0110
0000
1000
0000
,
0110
0000
0001
0000
,
0110
0000
1000
0000
,
0010
0010
0010
0000
,
1000
0000
1000
0000
,
1001
0000
0010
0000
,
0010
0010
0010
0000
,
0110
0000
1000
0000
,
0010
0000
0001
0000
,
0100
0000
1000
0000
,
0000
0000
0000
0000
,
1001
0000
0100
0000
,
0010
0010
0010
0000
,
0010
0000
1001
0000
,
0100
0000
1001
1001
,
1001
0000
0100
0000
,
0100
0000
0001
0000
,
0010
0000
1001
0000
,
0010
0000
0000
0000
,
0010
0000
0110
0000
,
0010
0000
1001
0000
,
1000
0000
1001
0000
,
0010
0000
0001
0001
,
0001
0000
0110
0000
,
0010
0000
0100
0000
,
1000
0000
0110
0000
,
0010
0010
0000
0000
,
0001
0001
0000
0000
,
1000
1000
0000
0000
,
0100
0000
0000
0000
;

//---------------dance-single - ----------------
#NOTES:
     dance-single:
     :
     Easy:
     6:
     0.289827,0.362821,0.257624,0.000000,0.000000,189.000000,165.000000,24.000000,0.000000,0.000000,0.000000,0.289827,0.362821,0.257624,0.000000,0.000000,189.000000,165.000000,24.000000,0.000000,0.000000,0.000000:
0000
0000
0000
0000
,
0000
0000
0000
0000
,
0000
0000
0000
0000
,
0000
0000
0000
0000
,
0010
0000
0000
0000
,
0001
0100
1000
0100
,
0010
0000
0000
0000
,
1000
0010
0001
0010
,
0100
0000
0000
0000
,
0010
1000
0100
0001
,
0010
1001
0010
1001
,
0100
0001
1000
0100
,
0010
1001
0010
1001
,
0100
1000
0001
0100
,
0010
1001
0010
1001
,
0010
0001
1000
0100
,
0010
1001
0010
1001
,
0010
1000
0100
0001
,
0010
0000
0000
0000
,
0000
0000
0000
0000
,
0100
0000
0000
0000
,
1000
0000
0100
0001
,
0010
0010
0000
0100
,
1000
1000
0000
0001
,
0100
0100
0000
1000
,
0001
0001
0000
0010
,
1000
1000
0000
0001
,
0010
0010
0000
0100
,
0001
0001
0000
1000
,
0010
0001
0100
1000
,
0010
0010
0000
0001
,
1000
1000
0000
0100
,
0010
0010
0000
0001
,
1000
0100
1000
0001
0100
0000
0001
0000
,
0010
1001
0100
1001
,
0010
1000
0001
0100
,
0010
1001
0100
1001
,
0100
0000
1000
0000
0001
1000
0100
0000
,
0010
1001
0100
1001
,
0100
0001
1000
0100
,
0010
1001
0100
1001
,
0010
1000
0001
0100
0000
0000
0000
0000
,
0001
1100
0001
1100
,
0010
1000
0001
0100
,
1000
0101
1000
0101
,
0010
0000
0100
0000
0001
1000
0100
0000
,
0001
1100
0001
1100
,
0010
0001
0100
0001
,
1000
0101
1000
0101
,
0010
1000
0010
0000
0000
0000
0000
0000
,
0001
0100
0001
0000
0000
0000
0000
0000
,
1000
0100
1000
0000
0000
0000
0000
1000
,
0100
0000
0000
0000
;

//---------------dance-single - ----------------
#NOTES:
     dance-single:
     :
     Medium:
     8:
     0.352700,0.418639,0.171749,0.000000,0.026836,230.000000,214.000000,16.000000,0.000000,0.000000,0.000000,0.352700,0.418639,0.171749,0.000000,0.026836,230.000000,214.000000,16.000000,0.000000,0.000000,0.000000:
0000
0000
0000
0000
,
0000
0000
0000
0000
,
0000
0000
0000
0000
,
0000
0000
0000
0000
,
0010
0000
0000
0000
,
1000
0010
0001
0010
,
0100
0000
0000
0000
,
0001
0100
1000
0100
,
0010
0000
0000
0000
,
0010
0001
0100
1000
,
0010
1001
0010
1001
,
0010
0000
0001
0000
1000
0001
0100
0000
,
0010
1001
0010
1001
,
0010
0000
1000
0000
0001
1000
0100
0000
,
0010
1001
0100
1001
,
0100
0000
1000
0000
0010
1000
0100
0000
,
0010
1001
0100
1001
,
1000
0000
0100
0000
1000
0000
0001
1000
0000
0000
0000
0000
0000
0000
0000
0000
,
0010
0000
0000
0000
,
0000
0000
0000
0000
,
0100
0000
0000
0000
,
0001
0000
0000
0100
,
0010
1000
0010
0000
0000
0001
0100
0000
,
1000
0100
1000
0000
0000
0010
0100
0000
,
0001
1000
0001
0000
0000
1000
0100
0000
,
0001
0100
0001
0000
1000
0000
0100
0000
,
0010
0001
0010
0000
0000
1000
0100
0000
,
0010
0100
0010
0000
0000
0001
0100
0000
,
1000
0001
1000
0000
0000
0100
0001
0000
,
1000
0100
0001
0010
,
1000
0100
0001
0000
0000
0100
1000
0000
,
0001
1000
0100
0000
0010
0001
0000
1000
,
0001
0100
1000
0000
0000
0100
0001
0000
,
1000
0100
1000
0001
0100
0001
1000
0000
,
0010
1001
0100
1001
,
0010
0000
0100
0000
0010
0001
0100
0000
,
0010
1001
0100
1001
,
0010
1000
0001
0010
0100
1000
0100
0000
,
1000
1000
0000
0000
0001
0001
0000
0000
,
0100
0001
1000
0100
0010
0001
0100
0000
,
0001
0001
0000
1000
0001
0100
0000
0010
,
1000
0001
1000
0100
0000
0000
0000
0000
,
0001
1100
0001
1100
,
0010
0001
0100
0010
1000
0001
0100
0000
,
1000
0101
1000
0101
,
0010
0001
1000
0010
0100
0001
0100
0000
,
0001
0001
0000
0000
1000
1000
0000
0000
,
0010
1000
0100
0001
0100
1000
0010
0000
,
0001
0100
0010
0000
1000
0001
0100
0000
,
0001
0000
0100
0000
0001
0000
1000
0100
0000
0000
0000
0000
0000
0000
0000
0000
,
1000
0000
0100
0000
1000
0000
0001
0100
0000
0000
0000
0000
0000
0000
0000
0000
,
0001
0000
1000
0000
0001
0000
0010
0100
0000
0000
0000
0000
0000
1000
0000
0000
,
0100
0000
0000
0000
;

//---------------dance-single - ----------------
#NOTES:
     dance-single:
     :
     Hard:
     9:
     0.412505,0.474458,0.139546,0.000000,0.139546,269.000000,256.000000,13.000000,0.000000,0.000000,0.000000,0.412505,0.474458,0.139546,0.000000,0.139546,269.000000,256.000000,13.000000,0.000000,0.000000,0.000000:
0000
0000
0000
0000
,
0000
0000
0000
0000
,
0000
0000
0000
0000
,
0000
0000
0000
0000
0000
0000
0000
1000
,
0010
0000
0000
0000
,
1000
0000
0010
0000
0100
0000
0010
1000
,
0100
0000
0000
0000
,
0001
0100
1000
0100
,
0010
0000
0000
0000
,
0100
0010
1000
0001
,
0010
1001
0100
1001
,
0010
1000
0001
0000
1000
0001
0100
0001
,
0010
1001
0100
1001
,
0010
0001
1000
0000
0001
1000
0100
1000
,
0010
1001
0100
1001
,
0100
0001
1000
0000
0010
1000
0100
1000
,
0010
1001
0100
1001
,
1000
0000
0100
0000
1000
0000
0001
1000
0000
0010
0000
0100
0000
0001
0000
0000
,
0010
0000
0000
0000
,
0000
0000
0000
0000
,
0010
0000
0000
0000
,
1000
0000
0000
0100
,
0010
1000
0100
0000
0000
0001
0100
0000
,
1000
0100
0010
0000
0000
1000
0100
0000
,
1000
0010
1000
0000
0000
0001
0100
0000
,
0010
0100
0010
0000
0100
0000
1001
0000
,
0100
1000
0100
0000
0000
1000
0001
0000
,
0010
0100
1000
0000
0000
0001
0100
0000
,
0001
0100
0001
0000
0000
0010
0100
0000
,
0001
0000
1000
0000
0100
0000
1000
0001
0000
1000
0000
0100
0000
1000
0000
0000
,
0010
0100
0001
0000
0000
0010
0100
1000
,
0001
0100
1000
0000
0000
0100
0001
0100
,
0010
1000
0001
0000
0000
0010
0100
0000
,
1000
0000
0100
0000
1000
0000
0010
0000
1000
0000
0000
0000
0001
1000
0001
1000
,
0001
1100
0001
1100
,
0010
1000
0001
0100
0001
1000
0010
0000
,
1000
0101
1000
0101
,
0010
0001
1000
0100
0010
0001
1000
0000
,
0001
0100
1000
0000
1000
0100
0001
0000
,
0010
0100
1000
0010
0100
0001
0100
0000
,
1000
0100
0001
0000
0001
0100
1000
0100
,
1000
0000
0100
0000
1000
0000
0001
1000
0000
0001
0000
0100
0000
0001
0000
0000
,
0010
0001
0100
0000
0001
0010
0100
0000
,
0010
1000
0001
0100
0010
1000
0001
0000
,
1000
0001
0100
0000
0001
0010
0100
0000
,
0010
0001
1000
0100
0010
0001
1000
0000
,
0001
0100
1000
0000
1000
0100
0001
0000
,
0010
0100
1000
0001
0100
0010
1000
0000
,
1000
0100
0001
0000
0001
0100
1000
0100
,
1000
0000
0100
0000
1000
0000
0001
1000
0000
0001
0000
0100
0000
0001
0000
0000
,
0010
0000
0100
0000
0010
0000
0001
0100
0000
0001
0000
1000
0000
0100
0000
0000
,
1000
0000
0001
0000
0100
0000
0001
0010
0000
0001
0000
1000
0000
0100
0000
0000
,
0010
0000
0000
0000
;

//---------------dance-double - ----------------
#NOTES:
     dance-double:
     :
     Easy:
     6:
     0.289827,0.362821,0.257624,0.000000,0.000000,189.000000,165.000000,24.000000,0.000000,0.000000,0.000000,0.289827,0.362821,0.257624,0.000000,0.000000,189.000000,165.000000,24.000000,0.000000,0.000000,0.000000:
00000000
00000000
00000000
00000000
,
00000000
00000000
00000000
00000000
,
00000000
00000000
00000000
00000000
,
00000000
00000000
00000000
00000000
,
00100000
00000000
00000000
00000000
,
10000000
00010000
00001000
00000010
,
00000100
00000000
00000000
00000000
,
00001000
00010000
01000000
10000000
,
00100000
00000000
00000000
00000000
,
10000000
01000000
00010000
00001000
,
00010000
00011000
00001000
00011000
,
00010000
01000000
10000000
00100000
,
01000000
10010000
00100000
10010000
,
10000000
01000000
00010000
00001000
,
00010000
00011000
00001000
00011000
,
00001000
00000100
00000001
00000010
,
00000100
00001001
00000010
00001001
,
00000100
00001000
00000010
00000001
,
00000100
00000000
00000000
00000000
,
00000000
00000000
00000000
00000000
,
01000000
00000000
00000000
00000000
,
10000000
00000000
01000000
00010000
,
00001000
00001000
00000000
00010000
,
00000100
00000100
00000000
00000010
,
00000001
00000001
00000000
00000100
,
00001000
00001000
00000000
00010000
,
00001000
00001000
00000000
00010000
,
01000000
01000000
00000000
10000000
,
01000000
01000000
00000000
00010000
,
00001000
00000100
00000001
00000010
,
00000100
00000100
00000000
00010000
,
00001000
00001000
00000000
01000000
,
00100000
00100000
00000000
10000000
,
00010000
01000000
00010000
10000000
01000000
00000000
00100000
00000000
,
01000000
10010000
00100000
10010000
,
10000000
01000000
00010000
00001000
,
00010000
00011000
00001000
00011000
,
00001000
00000000
00000100
00000000
00000001
00001000
00000100
00000000
,
00000010
00001001
00000100
00001001
,
00000001
00000100
00001000
00010000
,
00001000
00011000
00010000
00011000
,
00001000
00010000
00001000
01000000
00000000
00000000
00000000
00000000
,
00001000
00011000
00010000
00011000
,
00001000
00000100
00000001
00000010
,
00000001
00001100
00000001
00001100
,
00010000
00000000
00001000
00000000
01000000
00001000
00010000
00000000
,
00001000
00011000
00010000
00011000
,
00010000
01000000
10000000
00100000
,
10000000
01010000
10000000
01010000
,
00001000
00010000
00001000
00000000
00000000
00000000
00000000
00000000
,
00000100
00000001
00000100
00000000
00000000
00000000
00000000
00000000
,
00001000
00000100
00001000
00000000
00000000
00000000
00000000
00000010
,
00000100
00000000
00000000
00000000
;

//---------------dance-double - ----------------
#NOTES:
     dance-double:
     :
     Medium:
     8:
     0.358834,0.418639,0.171749,0.000000,0.026836,234.000000,218.000000,16.000000,0.000000,0.000000,0.000000,0.358834,0.418639,0.171749,0.000000,0.026836,234.000000,218.000000,16.000000,0.000000,0.000000,0.000000:
00000000
00000000
00000000
00000000
,
00000000
00000000
00000000
00000000
,
00000000
00000000
00000000
00000000
,
00000000
00000000
00000000
00000000
,
00100000
00000000
00000000
00000000
,
00100000
10000000
01000000
00010000
,
00001000
00000000
00000000
00000000
,
00000010
00000001
00000100
00001000
,
00010000
00000000
00000000
00000000
,
00100000
01000000
00001000
00010000
,
00001000
00011000
00010000
00011000
,
00001000
00000000
00000100
00000000
00000001
00001000
00000100
00000000
,
00000010
00001001
00000100
00001001
,
00000010
00000000
00001000
00000000
00000001
00000100
00001000
00000000
,
00010000
00011000
00001000
00011000
,
00010000
00000000
01000000
00000000
10000000
00100000
01000000
00000000
,
00100000
10010000
01000000
10010000
,
00100000
00000000
00001000
00000000
00010000
00000000
00001000
00010000
00000000
00000000
00000000
00000000
00000000
00000000
00000000
00000000
,
00000010
00000000
00000000
00000000
,
00000000
00000000
00000000
00000000
,
01000000
00000000
00000000
00000000
,
00010000
00000000
00000000
01000000
,
00100000
10000000
00100000
00000000
00000000
01000000
00010000
00000000
,
10000000
01000000
10000000
00000000
00000000
00010000
00001000
00000000
,
00000100
00000001
00000100
00000000
00000000
00000010
00000001
00000000
,
00000100
00000010
00000100
00000000
00000001
00000000
00001000
00000000
,
00010000
00100000
00010000
00000000
00000000
00100000
01000000
00000000
,
00010000
00001000
00010000
00000000
00000000
00001000
00000100
00000000
,
00000001
00000010
00000001
00000000
00000000
00001000
00000100
00000000
,
00001000
00010000
00100000
01000000
,
10000000
01000000
00010000
00000000
00000000
00001000
00010000
00000000
,
00001000
00000100
00000001
00000000
00000010
00000001
00000000
00000100
,
00001000
00010000
01000000
00000000
00000000
10000000
00100000
00000000
,
10000000
01000000
00010000
00001000
00000100
00000001
00000100
00000000
,
00000010
00001001
00000100
00001001
,
00000010
00000000
00001000
00000000
00010000
00100000
01000000
00000000
,
10000000
01010000
10000000
01010000
,
00100000
01000000
00010000
00100000
00001000
00000100
00000001
00000000
,
00001000
00001000
00000100
00000000
00000001
00000001
00000100
00000000
,
00001000
00000001
00000010
00000100
00001000
00000010
00001000
00000000
,
00000100
00000100
00000000
00010000
00001000
01000000
00000000
00100000
,
10000000
01000000
10000000
00010000
00000000
00000000
00000000
00000000
,
00100000
10010000
01000000
10010000
,
10000000
01000000
00010000
00001000
00010000
00001000
00000100
00000000
,
00000001
00001100
00000001
00001100
,
00000010
00000100
00001000
00000010
00010000
01000000
10000000
00000000
,
00010000
00010000
01000000
00000000
10000000
10000000
01000000
00000000
,
00010000
10000000
00100000
01000000
00010000
00100000
00010000
00000000
,
00000100
00001000
00000001
00000000
00000010
00000001
00000100
00000000
,
00001000
00000000
00010000
00000000
00001000
00000000
01000000
00010000
00000000
00000000
00000000
00000000
00000000
00000000
00000000
00000000
,
10000000
00000000
01000000
00000000
10000000
00000000
00010000
01000000
00000000
00000000
00000000
00000000
00000000
00000000
00000000
00000000
,
00001000
00000000
00000100
00000000
00001000
00000000
00000100
00000001
00000000
00000000
00000000
00000000
00000000
00000010
00000000
00000000
,
00000100
00000000
00000000
00000000
;

//---------------dance-double - ----------------
#NOTES:
     dance-double:
     :
     Hard:
     9:
     0.412505,0.474458,0.139546,0.000000,0.139546,269.000000,256.000000,13.000000,0.000000,0.000000,0.000000,0.412505,0.474458,0.139546,0.000000,0.139546,269.000000,256.000000,13.000000,0.000000,0.000000,0.000000:
00000000
00000000
00000000
00000000
,
00000000
00000000
00000000
00000000
,
00000000
00000000
00000000
00000000
,
00000000
00000000
00000000
00000000
00000000
00000000
00000000
10000000
,
00100000
00000000
00000000
00000000
,
00010000
00000000
00100000
00000000
01000000
00000000
10000000
01000000
,
00010000
00000000
00000000
00000000
,
00001000
00000010
00000001
00000100
,
00001000
00000000
00000000
00000000
,
00000001
00001000
00010000
00100000
,
01000000
10010000
00100000
10010000
,
00100000
10000000
00010000
00000000
00100000
00001000
00010000
00001000
,
01000000
00011000
00000100
00011000
,
00100000
00001000
00010000
00000000
00000010
00001000
00000100
00001000
,
00000010
00001001
00000100
00001001
,
00000010
00000001
00001000
00000000
00000010
00010000
00001000
00010000
,
00000010
00011000
00100000
00011000
,
00010000
00000000
00001000
00000000
01000000
00000000
00010000
00100000
00000000
01000000
00000000
10000000
00000000
00100000
00000000
00000000
,
01000000
00000000
00000000
00000000
,
00000000
00000000
00000000
00000000
,
00000010
00000000
00000000
00000000
,
00000001
00000000
00000000
00000100
,
00000010
00000001
00000100
00000000
00000000
00001000
00010000
00000000
,
01000000
10000000
00100000
00000000
00000000
10000000
00010000
00000000
,
01000000
00100000
01000000
00000000
00000000
00001000
00010000
00000000
,
00000100
00001000
00000100
00000000
00000010
00000000
00001001
00000000
,
00000001
00000100
00000001
00000000
00000000
00001000
00000100
00000000
,
00010000
01000000
10000000
00000000
00000000
00100000
01000000
00000000
,
00001000
00010000
00001000
00000000
00000000
00100000
01000000
00000000
,
10000000
00000000
00010000
00000000
01000000
00000000
00010000
10000000
00000000
00010000
00000000
01000000
00000000
00010000
00000000
00000000
,
00100000
00001000
00010000
00000000
00000000
00001000
00000100
00000001
,
00000010
00000100
00001000
00000000
00000000
00000001
00000100
00000001
,
00000100
00001000
00010000
00000000
00000000
00100000
01000000
00000000
,
10000000
00000000
01000000
00000000
10000000
00000000
00100000
00000000
10000000
00000000
00000000
00000000
00010000
10000000
00010000
10000000
,
00010000
11000000
00010000
11000000
,
00100000
10000000
01000000
00010000
00001000
00000100
00000001
00000000
,
00001000
00000101
00001000
00000101
,
00000010
00000001
00000100
00001000
00010000
00001000
01000000
00000000
,
00100000
10000000
01000000
00000000
00100000
00010000
01000000
00000000
,
00010000
00100000
00001000
00010000
01000000
10000000
01000000
00000000
,
00100000
00010000
01000000
00000000
00010000
10000000
01000000
10000000
,
00010000
00000000
10000000
00000000
01000000
00000000
00100000
00010000
00000000
10000000
00000000
01000000
00000000
00010000
00000000
00000000
,
00000010
00001000
00000100
00000000
00001000
00000001
00000100
00000000
,
00000010
00000001
00000100
00001000
00010000
01000000
10000000
00000000
,
00010000
10000000
01000000
00000000
10000000
00100000
01000000
00000000
,
00100000
10000000
01000000
00010000
00001000
00010000
00000100
00000000
,
00001000
00000100
00000001
00000000
00000001
00000100
00001000
00000000
,
00001000
00000010
00010000
00001000
00000100
00000001
00000100
00000000
,
00000001
00000100
00001000
00000000
00010000
01000000
10000000
00100000
,
10000000
00000000
01000000
00000000
10000000
00000000
00010000
10000000
00000000
01000000
00000000
00010000
00000000
00001000
00000000
00000000
,
00010000
00000000
00001000
00000000
00010000
00000000
00000010
00001000
00000000
00000100
00000000
00010000
00000000
00001000
00000000
00000000
,
00010000
00000000
00001000
00000000
01000000
00000000
00010000
00100000
00000000
01000000
00000000
10000000
00000000
00100000
00000000
00000000
,
01000000
00000000
00000000
00000000
;

//---------------dance-solo - ----------------
#NOTES:
     dance-solo:
     :
     Easy:
     4:
     0.294427,0.362821,0.257624,0.000000,0.000000,192.000000,168.000000,24.000000,0.000000,0.000000,0.000000,0.294427,0.362821,0.257624,0.000000,0.000000,192.000000,168.000000,24.000000,0.000000,0.000000,0.000000:
000000
000000
000000
000000
,
000000
000000
000000
000000
,
000000
000000
000000
000000
,
000000
000000
000000
000000
,
000100
000000
000000
000000
,
000010
100000
001000
100000
,
000100
000000
000000
000000
,
010000
000001
001000
000001
,
000100
000000
000000
000000
,
010000
100000
000001
001000
,
000100
100001
000100
100001
,
000100
010000
001000
100000
,
000100
100001
000100
100001
,
000100
000010
001000
000001
,
000100
100001
000100
100001
,
010000
000010
001000
000001
,
000100
100001
000100
100001
,
000010
010000
001000
100000
,
000010
000000
000000
000000
,
000000
000000
000000
000000
,
001000
000000
000000
000000
,
100000
000000
000010
000001
,
001000
001000
000000
000100
,
010000
010000
000000
000001
,
001000
001000
000000
000010
,
100000
100000
000000
001000
,
000100
000100
000000
000001
,
100000
100000
000000
001000
,
010000
010000
000000
000001
,
001000
000100
100000
001000
,
010000
010000
000001
001000
,
000001
000001
100000
001000
,
100000
100000
000010
001000
,
000010
100000
001000
100000
001000
000000
100000
000000
,
000100
100001
001000
100001
,
000100
010000
001000
100000
,
000100
100001
001000
100001
,
000100
000000
000010
000000
001000
000001
100000
000000
,
000100
100001
001000
100001
,
010000
000010
001000
000001
,
000100
100001
001000
100001
,
000010
100000
001000
100000
000000
000000
000000
000000
,
000001
101000
000001
101000
,
010000
000010
001000
000001
,
100000
001001
100000
001001
,
010000
000000
000010
000000
001000
000001
100000
000000
,
000001
101000
000001
101000
,
010000
000010
001000
000001
,
100000
001001
100000
001001
,
010000
000010
010000
000000
000000
000000
000000
000000
,
100000
001000
100000
000000
000000
000000
000000
000000
,
000001
001000
000001
000000
000000
000000
000000
010000
,
001000
000000
000000
000000
;

//---------------dance-solo - ----------------
#NOTES:
     dance-solo:
     :
     Medium:
     6:
     0.352700,0.418639,0.214687,0.000000,0.026836,230.000000,210.000000,20.000000,0.000000,0.000000,0.000000,0.352700,0.418639,0.214687,0.000000,0.026836,230.000000,210.000000,20.000000,0.000000,0.000000,0.000000:
000000
000000
000000
000000
,
000000
000000
000000
000000
,
000000
000000
000000
000000
,
000000
000000
000000
000000
,
000100
000000
000000
000000
,
010000
000100
001000
000001
,
000100
000000
000000
000000
,
001000
100000
000100
001000
,
000001
000000
000000
000000
,
010000
000001
001000
100000
,
000100
100001
000100
100001
,
001000
000000
100000
000000
010000
100000
001000
000000
,
000100
100001
000100
100001
,
001000
000000
000001
000000
000010
000001
001000
000000
,
000100
100001
001000
100001
,
000100
000000
001000
000000
000010
100000
001000
000000
,
000100
100001
001000
100001
,
001000
000000
000001
000000
100000
000000
000001
001000
000000
000000
000000
000000
000000
000000
000000
000000
,
000010
000000
000000
000000
,
000000
000000
000000
000000
,
001000
000000
000000
000000
,
010000
000000
000000
000001
,
001000
000001
001000
000000
000000
000010
001000
000000
,
000001
100000
000001
000000
000000
000100
001000
000000
,
100000
001000
100000
000000
000000
000010
001000
000000
,
000001
001000
000001
000000
010000
000000
001000
000000
,
000100
001000
000100
000000
000000
000001
001000
000000
,
000010
001000
000010
000000
000000
100000
001000
000000
,
010000
000001
010000
000000
000000
000001
001000
000000
,
000100
100000
001000
000100
,
000001
001000
000001
000000
000000
010000
001000
000000
,
100000
000010
100000
000000
000001
001000
000000
000100
,
010000
001000
100000
000000
000000
000001
001000
000000
,
000001
100000
000100
001000
000010
001000
000001
000000
,
000100
100001
001000
100001
,
001000
000000
100000
000000
010000
100000
001000
000000
,
000100
100001
001000
100001
,
001000
000000
000001
000000
000010
000001
001000
000000
,
000010
000010
000000
000000
010000
010000
000000
000000
,
000100
100000
001000
010000
000100
001000
000001
000000
,
010000
010000
000000
001000
100000
000001
000000
000100
,
000010
001000
000001
001000
000000
000000
000000
000000
,
000010
101000
000010
101000
,
000100
100000
001000
010000
001000
000010
000001
000000
,
010000
001001
010000
001001
,
000100
000001
001000
000010
001000
010000
100000
000000
,
000010
101000
000010
101000
,
000100
001000
000010
000100
001000
100000
001000
000000
,
010000
001001
010000
001001
,
000010
000000
001000
000000
000010
000000
100000
001000
000000
000000
000000
000000
000000
000000
000000
000000
,
010000
000000
001000
000000
010000
000000
000001
001000
000000
000000
000000
000000
000000
000000
000000
000000
,
000001
000000
001000
000000
000001
000000
010000
001000
000000
000000
000000
000000
000000
000001
000000
000000
,
001000
000000
000000
000000
;

//---------------dance-solo - ----------------
#NOTES:
     dance-solo:
     :
     Hard:
     7:
     0.412505,0.474458,0.139546,0.000000,0.139546,269.000000,256.000000,13.000000,0.000000,0.000000,0.000000,0.412505,0.474458,0.139546,0.000000,0.139546,269.000000,256.000000,13.000000,0.000000,0.000000,0.000000:
000000
000000
000000
000000
,
000000
000000
000000
000000
,
000000
000000
000000
000000
,
000000
000000
000000
000000
000000
000000
000000
100000
,
000010
000000
000000
000000
,
010000
000000
001000
000000
100000
000000
010000
100000
,
001000
000000
000000
000000
,
000001
000010
000001
001000
,
000100
000000
000000
000000
,
001000
000001
001000
000100
,
010000
100001
001000
100001
,
000100
100000
001000
000000
000100
000010
001000
000001
,
000010
100001
001000
100001
,
000100
000001
100000
000000
000100
010000
001000
100000
,
010000
100001
001000
100001
,
001000
000010
000100
000000
001000
100000
000100
100000
,
010000
100001
001000
100001
,
000100
000000
001000
000000
000001
000000
100000
000001
000000
000100
000000
001000
000000
100000
000000
000000
,
000100
000000
000000
000000
,
000000
000000
000000
000000
,
001000
000000
000000
000000
,
000010
000000
000000
001000
,
010000
100000
001000
000000
000000
100000
001000
000000
,
010000
000100
001000
000000
000000
000001
001000
000000
,
000010
100000
000010
000000
000000
100000
001000
000000
,
010000
001000
010000
000000
000100
000000
100001
000000
,
001000
000010
001000
000000
000000
000100
100000
000000
,
001000
100000
000010
000000
000000
000100
000001
000000
,
001000
000010
001000
000000
000000
000100
001000
000000
,
000010
000000
100000
000000
001000
000000
100000
001000
000000
010000
000000
001000
000000
100000
000000
000000
,
000100
100000
000001
000000
000000
000010
000001
001000
,
000001
000100
001000
000000
000000
100000
000100
001000
,
000010
001000
000001
000000
000000
001000
000100
000000
,
010000
000000
001000
000000
100000
000000
000100
000000
100000
000000
000000
000000
000001
100000
000001
100000
,
000001
101000
000010
101000
,
000001
100000
000100
010000
001000
100000
000001
000000
,
010000
001001
010000
001001
,
100000
000001
000100
000010
001000
000001
100000
000000
,
001000
000001
000010
000000
000010
000001
001000
000000
,
000100
100000
001000
100000
000100
100000
001000
000000
,
001000
100000
010000
000000
010000
100000
001000
100000
,
001000
000000
100000
000000
000001
000000
001000
000001
000000
010000
000000
001000
000000
100000
000000
000000
,
000010
100000
001000
000000
000100
000001
001000
000000
,
010000
100000
001000
100000
000001
001000
000100
000000
,
010000
000001
001000
000000
000100
100000
001000
000000
,
000010
000001
001000
000001
100000
001000
000100
000000
,
001000
100000
010000
000000
010000
100000
001000
000000
,
100000
000001
001000
000001
000100
000001
001000
000000
,
001000
000001
000010
000000
000010
000001
001000
000001
,
001000
000000
000001
000000
100000
000000
001000
100000
000000
000010
000000
001000
000000
000001
000000
000000
,
100000
000000
001000
000000
100000
000000
000010
001000
000000
000001
000000
100000
000000
001000
000000
000000
,
010000
000000
000001
000000
001000
000000
000010
000100
000000
000001
000000
010000
000000
001000
000000
000000
,
000100
000000
000000
000000
;

//---------------dance-single - ----------------
#NOTES:
     dance-single:
     :
     Challenge:
     16:
     0.711533,0.837278,0.289827,0.193218,0.574287,464.000000,437.000000,27.000000,18.000000,0.000000,0.000000,0.711533,0.837278,0.289827,0.193218,0.574287,464.000000,437.000000,27.000000,18.000000,0.000000,0.000000:
// measure 0
0000
0000
0000
0000
,  // measure 1
0000
0000
0000
0000
,  // measure 2
0000
0000
0000
0000
,  // measure 3
0000
0000
0000
0000
0000
0000
0000
1000
,  // measure 4
0001
0000
0100
0010
0000
1000
0010
0000
1000
0000
0001
0000
1000
0000
0001
1000
,  // measure 5
0001
0000
1000
0000
0100
0000
0010
0001
0010
0000
0001
0000
1000
0001
1000
0000
,  // measure 6
0001
0000
0010
0000
0010
0000
0001
0000
1000
0000
0001
0000
0100
0000
0010
1000
,  // measure 7
0020
0000
2030
0000
3002
0000
0203
0000
0320
0000
2030
0000
3002
0000
0023
0100
,  // measure 8
0130
0010
0010
0001
1000
0100
0100
1000
,  // measure 9
0010
0000
1000
0010
0000
0100
0000
0001
0000
1000
0001
0000
1000
0000
0001
1000
,  // measure 10
0001
1000
0001
0000
0011
0000
0001
1000
0001
0000
0101
0000
0101
0000
0001
1000
,  // measure 11
0100
0000
0001
0000
0100
0000
1000
0000
0100
0000
0001
0000
0100
0000
1000
0010
,  // measure 12
1000
0010
1000
0000
1010
0000
1000
0100
1000
0000
1010
0000
1010
0000
1000
0100
,  // measure 13
0001
0000
0100
0000
1000
0000
0100
0000
0001
0000
0100
0000
1000
0100
1000
0100
,  // measure 14
0001
0100
0001
0000
0110
0000
0010
0000
1000
0100
1000
0000
0110
0000
0100
1000
,  // measure 15
0001
0000
0100
0000
0001
0000
0100
0000
0010
0000
1000
0000
0010
0000
1000
0001
,  // measure 16
0010
0001
0010
0000
0011
0000
0001
1000
0001
0000
0101
0000
0101
0000
0001
1000
,  // measure 17
0100
1000
0000
0100
0001
0010
0001
0010
0000
0010
0000
0001
0010
0010
0001
0001
,  // measure 18
2000
0000
0000
0000
,  // measure 19
3200
0000
0000
0000
,  // measure 20
0320
0000
0000
0000
,  // measure 21
0032
0000
0000
0000
0000
0000
0000
0000
0000
0000
0000
0000
1003
0001
0010
0100
,  // measure 22
1000
0001
0100
0001
1000
0010
0100
0001
,  // measure 23
1000
0010
0100
0001
1000
0100
0010
0100
,  // measure 24
1000
0001
0010
0001
0100
0010
0100
0001
,  // measure 25
1000
0001
0010
0001
1000
0010
1000
0001
,  // measure 26
0100
0000
0001
0000
1000
0000
0100
0000
1000
0000
0001
0000
0100
0000
0010
0100
,  // measure 27
0001
0000
0010
0000
0001
0000
0100
0000
0010
0000
1000
0000
0001
0000
1000
0001
,  // measure 28
0010
0000
0001
0000
1000
0000
0010
0000
1000
0000
0001
0000
0100
0000
0010
1000
,  // measure 29
0010
1000
0001
0010
0001
1000
0100
1000
,  // measure 30
0001
0100
0010
1000
0001
1000
0010
0100
,  // measure 31
0001
1000
0100
0010
0001
0010
0100
1000
,  // measure 32
0001
0000
1000
0000
0010
0000
0100
0000
0001
0000
0100
0000
0010
1000
0010
1000
,  // measure 33
0001
0000
0000
0001
0000
0000
1000
0000
0000
1000
0000
0000
0001
0000
0000
0001
0000
0000
1000
0000
0000
1000
0000
0000
0001
0000
0000
0001
0000
0000
1000
0000
0000
1000
0000
0000
0001
0000
0000
0000
0100
0000
0000
0000
0010
0000
0000
0000
,  // measure 34
1000
0100
1000
0000
1100
0000
0100
1000
0001
0000
0100
0000
0101
0000
0001
1000
,  // measure 35
0010
0100
0001
1000
0100
1000
0010
0000
,  // measure 36
0010
1000
0100
0000
1100
0000
1000
0001
0010
0000
0001
0000
0011
0000
0010
0001
,  // measure 37
0100
0001
1000
0010
0100
0001
1000
0000
,  // measure 38
0001
1000
0100
0000
1100
0000
1000
0001
0100
0000
0010
0000
0110
0000
0010
0100
,  // measure 39
0001
1000
0100
1000
0010
0100
0001
0000
,  // measure 40
1000
0001
0010
0000
0011
0000
0001
0010
0100
0000
1000
0000
1100
0000
1000
0001
,  // measure 41
0010
0001
0000
1000
0000
0010
0100
0010
0000
0100
0000
0001
1000
0001
1000
0100
,  // measure 42
1000
0010
0100
0000
0110
0000
0010
0100
0001
0000
1000
0000
1100
0000
1000
0100
,  // measure 43
0010
0001
0010
1000
0010
0001
0100
0000
,  // measure 44
0100
0010
1000
0000
1010
0000
0010
0100
0001
0000
0100
0000
0101
0000
0001
1000
,  // measure 45
0100
0001
0100
1000
0100
0001
0010
0000
,  // measure 46
0010
0100
1000
0000
1100
0000
1000
0100
0010
0000
0001
0000
0011
0000
0010
0001
,  // measure 47
0100
0010
1000
0001
0010
0001
1000
0000
,  // measure 48
1000
0001
0100
0000
0101
0000
0001
1000
0100
0000
1000
0000
1100
0000
1000
0100
,  // measure 49
0020
0001
0000
0100
0000
0031
0010
0100
2000
0010
0000
0100
0000
3010
1000
0100
,  // measure 50
0020
0001
0000
0100
0000
0031
0010
0001
0200
0010
0000
1000
0000
0310
1000
0010
,  // measure 51
0200
1000
0000
0010
0000
1300
0010
0100
0002
0010
0000
0100
0000
0013
0100
1000
,  // measure 52
0001
0000
0000
0000
;
