#TITLE:Gnarly (CupcakKe Remix);
#SUBTITLE:;
#ARTIST:KATSEYE (remixed by koga_remix added Cupcakke);
#TITLETRANSLIT:;
#SUBTITLETRANSLIT:;
#ARTISTTRANSLIT:;
#GENRE:;
#CREDIT:;
#BANNER:Gnarly (CupcakKe Remix).png;
#BACKGROUND:Gnarly (CupcakKe Remix)-bg.jpg;
#LYRICSPATH:;
#CDTITLE:;
#MUSIC:Gnarly (CupcakKe Remix).ogg;
#OFFSET:-0.119688;
#SAMPLESTART:46.555244;
#SAMPLELENGTH:12.000000;
#SELECTABLE:YES;
#BPMS:0.000000=135.000000
,94.000000=67.500000
,96.500000=135.000000
,227.000000=67.500000
,229.500000=135.000000
;
#STOPS:27.000000=0.230000,
61.500000=0.640000,
111.000000=0.230000,
244.000000=0.230000
;
#BGCHANGES:0.000=Gnarly (CupcakKe Remix).mp4=1.000=0=0=1=====,
99999=-nosongbg-=1.000=0=0=0 // don't automatically add -songbackground-
;
#KEYSOUNDS:;
#ATTACKS:;

//---------------dance-single - ----------------
#NOTES:
     dance-single:
     :
     Challenge:
     15:
     0.627595,0.811404,0.379476,0.218929,0.583809,602.000000,550.000000,52.000000,30.000000,0.000000,0.000000,0.627595,0.811404,0.379476,0.218929,0.583809,602.000000,550.000000,52.000000,30.000000,0.000000,0.000000:
0000
0000
0000
0000
,
0000
0000
0000
0000
,
0000
0000
0000
0000
0000
0000
1000
0001
0000
0000
0000
0000
1000
0000
0000
0000
,
1000
0010
0200
0000
0001
0000
0310
0000
,
0020
1000
0100
0130
,
1020
0000
0000
1030
0000
0000
0000
0000
0110
0000
0000
0000
0110
0000
0000
0000
,
0010
1000
0001
0000
1001
0000
0001
0010
0100
0000
1000
0000
0200
0000
1300
0000
,
0000
1100
0000
0000
0000
0000
0110
0000
0000
0000
0110
0000
0000
0000
0010
0001
,
0000
0010
0001
0000
0100
0000
0002
0000
0003
0000
0000
0000
0002
0000
1003
0001
,
0000
0010
0000
0100
0000
1000
0100
0000
0000
0200
0000
0000
0000
0000
0000
0000
,
0000
0000
0000
0000
0000
0000
0000
0000
0000
0300
0000
0000
0000
0000
1100
0000
,
0000
0000
1000
0100
0010
0001
0100
0010
0000
0100
0010
0000
0110
0000
0110
0000
,
0000
0000
0010
0100
0001
0010
0100
0000
1000
0100
0000
0000
1100
0000
1100
0000
,
0000
0000
0000
1000
0100
0000
1000
0000
0000
0100
0000
0020
0000
0031
0020
0000
,
0000
0031
0000
0010
0001
0000
0100
0000
0010
1000
0000
0100
1000
0000
0100
0000
,
1000
0001
0000
0101
0101
1100
1100
1100
,
1100
0000
0000
0000
0000
0000
0000
0000
1010
0000
0000
0000
0101
0000
0001
0010
,
0000
0001
0100
0000
0001
0000
0001
0000
1000
0000
0010
1000
0000
0100
1000
0000
,
0100
1000
0000
1000
0100
0000
0100
0000
0110
0000
0000
0000
1001
0000
0001
0010
,
0000
0100
1000
0000
1000
0000
1000
0000
0010
0000
0000
0100
0001
0000
1000
0000
,
0001
0000
0000
0000
1001
0000
0000
0000
0200
0000
1300
0100
0000
0100
1000
0000
,
0100
1000
0000
1000
0100
0000
1100
0000
0110
0000
0010
0001
0000
0001
0010
0000
,
0001
0010
0000
0010
0001
0000
0011
0000
0010
0000
0010
0000
0100
0000
0100
0000
,
0001
0000
0000
0000
0001
0000
0000
0000
1000
0000
0001
0000
1000
0000
0001
0000
1000
0000
0000
1000
0100
0000
0010
0000
0001
0000
0000
0000
0011
0000
0000
0000
,
0000
1001
0001
1000
0001
0000
0000
1000
,
0100
0001
0100
1000
0010
0100
0001
2000
,
0000
0010
0000
3100
0000
0010
0100
0002
,
0000
0010
0000
0103
0000
0100
0100
0000
,
1001
1000
0001
1000
0000
0000
0001
0010
,
0100
1000
0001
1000
0100
0010
0002
0000
,
0010
0000
0103
0000
0100
0010
2000
0000
,
0010
0000
0000
0000
3100
0000
0000
0000
1100
0000
0000
0000
0101
0000
0001
0100
,
0000
0010
1000
0000
0001
1000
0000
0001
1000
0000
0100
0000
1100
0000
1000
0100
,
0000
0010
0001
0000
0010
0100
0000
1000
0100
0000
1000
0000
0002
0000
0000
0000
,
0010
0000
0103
0000
0010
0100
2000
0000
,
0100
0000
0000
0000
3010
0000
0000
0000
1010
0000
0010
0000
0010
0000
1000
0010
,
0000
0100
0001
0000
0010
0001
0000
0100
0010
0000
0100
0000
0100
0000
1000
0100
,
0000
0010
0001
0000
0001
0010
0000
0100
1000
0000
0001
0000
0200
0000
0000
0000
,
0010
0000
1300
0000
1000
0020
0100
0000
,
1000
0000
0000
0130
0000
0000
1001
0000
0000
0010
0001
0010
,
0001
0000
0020
0000
0000
0000
0000
0000
0030
0000
0000
0010
0100
0010
0100
0010
,
0100
0000
0000
0100
0000
0000
0000
1100
0000
1000
0100
1000
0010
0100
0001
0010
,
0001
0000
0010
0001
0010
0000
0001
0010
0000
0100
1000
0100
1000
0010
0100
0001
,
1000
0001
0100
0001
0000
0101
0000
1010
0000
0100
0001
0100
0001
1000
0010
0100
,
0001
0010
0100
1000
0100
0000
1000
0100
0000
1000
0100
1000
0010
0000
0010
0000
,
0010
0000
0010
0100
0001
0000
0001
1000
0000
1000
0001
0000
0011
0000
0000
0010
,
0001
0000
1000
0100
1000
0000
0100
1000
0100
1000
1000
0000
1000
0000
0100
1000
,
0010
0000
0010
0100
0001
0010
0000
0001
0000
1000
0001
0000
0001
0000
1000
0001
,
0100
0000
0000
0000
0001
0000
1000
0000
0010
0000
0000
0000
0010
0000
0100
0000
0000
0000
0000
0000
0010
0100
0000
0000
0010
0100
0000
0000
0010
0100
0000
0000
,
0010
0100
0000
0000
0010
0000
0100
0000
0001
0000
0000
0000
0001
0000
1000
0000
0000
0000
0001
0000
1000
0000
0001
0000
1000
0000
0000
0000
0001
0000
0010
0000
,
0001
0000
0010
0000
0100
0000
1000
0100
0000
0100
1000
0100
0010
0001
0010
0100
,
0010
0000
0010
0001
0100
0010
1000
0001
0000
0001
1000
0100
1000
0000
0100
1000
,
0010
0000
0010
0100
0001
0001
0000
0001
0000
0001
1000
0000
0200
0000
0000
0000
,
0000
0000
0000
0000
0300
0000
0000
0000
0100
0000
0000
0000
1100
0000
1000
0100
,
0000
1000
0010
0000
0010
0100
0000
0001
0010
0000
0011
0000
0011
0000
0001
0100
,
0000
0010
1000
0000
0100
1000
0000
0100
0010
0000
0110
0000
0110
0000
0100
0000
,
0100
0000
0000
0000
1000
0000
0000
0000
1000
0000
0000
0000
0010
0000
0000
0000
0010
0000
0000
0000
0100
0000
0000
0000
0100
0000
0000
0100
0010
0000
0100
0000
,
0001
1001
0000
1001
0001
1000
0001
0000
,
0000
1000
0100
0001
0100
1000
0010
0001
,
0010
2000
0000
0010
0000
3100
0000
0010
,
1000
0200
0000
1000
0000
0310
0000
0010
,
0010
0000
1001
1000
0001
1000
0000
0000
,
0001
0010
1000
0010
0001
0100
1000
0100
,
0002
0000
0010
0000
0103
0000
0100
0001
,
0020
0100
1000
0130
,
0110
0000
0010
0100
0000
0010
0100
0000
1000
0001
0000
1000
0001
0000
0100
0000
,
0100
0000
0010
0100
0000
0010
0100
0000
0001
1000
0000
0001
1000
0000
0100
0000
,
0020
0000
0001
0000
0130
0000
0010
0100
,
2000
0000
0100
0000
3010
0000
1000
1100
,
0110
0000
0010
0001
0000
0010
0001
0000
0010
0001
0000
0010
0100
0000
0110
0000
,
0100
0000
1000
0100
0000
0010
0001
0000
0001
0010
0000
0100
1000
0000
0001
0000
,
0020
0000
0100
0000
0031
0000
0001
0100
,
0020
1000
0130
0110
,
0110
0000
0000
0100
0001
0000
0010
0000
2000
0000
0000
0000
0002
0000
0000
0000
,
0000
3003
0000
0000
0000
0000
0000
0000
;

//---------------dance-single - ----------------
#NOTES:
     dance-single:
     :
     Hard:
     13:
     0.550449,0.649123,0.262714,0.248119,0.368530,528.000000,492.000000,36.000000,34.000000,0.000000,0.000000,0.550449,0.649123,0.262714,0.248119,0.368530,528.000000,492.000000,36.000000,34.000000,0.000000,0.000000:
0000
0000
0000
0000
,
0000
0000
0000
0000
,
0000
0000
0000
0000
0000
0000
1000
0100
0000
0000
0000
0000
0100
0000
0000
0000
,
1000
0100
1000
0000
2000
0000
0000
0000
0100
0000
0000
0000
3100
0000
0000
0000
,
1000
0010
1000
0000
0020
0000
0000
0000
0100
0000
0000
0000
0130
0000
0000
0000
,
0001
0010
0001
0000
0002
0000
0000
0000
0010
0000
0000
0000
0013
0000
0000
0000
,
0001
0010
0001
0000
0001
0000
0001
0100
0001
0000
0001
0000
2000
0000
3001
0000
,
0000
1001
0000
0000
0000
0000
0100
0000
0000
0000
0110
0000
0000
0000
0010
1000
,
0000
0010
0100
0000
0001
0000
2000
0000
0000
0000
3001
0000
0000
0000
2000
0000
,
0001
0000
3001
0000
0000
1000
0200
0000
0000
2000
0000
0000
0000
0000
0000
0000
,
0000
0000
0000
0000
3300
0000
0000
1100
,
0000
1000
0001
0010
0100
1000
1001
1001
,
0000
1000
0100
0010
0001
1000
1001
1001
,
0000
0000
0001
0010
0000
0000
0100
0000
0000
1000
0000
0100
0000
0010
0000
0001
,
0000
0000
0010
0000
0001
0000
0010
0000
0001
0010
0000
0001
0010
0000
0001
0000
,
0100
0010
0000
1010
0010
0100
0001
1000
,
0020
0000
0000
0000
0100
0000
0000
0000
1030
0000
0010
0100
0000
0010
0100
0000
,
0001
0100
0000
0001
0100
0000
0001
0000
1000
0000
0001
1000
0000
0001
1000
0000
,
1000
0100
0000
1000
0100
0000
0010
0000
0001
0000
0010
0001
0000
0010
0001
0000
,
0010
0100
0000
0010
0100
0000
1000
0000
0001
0000
0000
0001
1000
0000
0001
0000
,
1000
0000
0000
0000
1001
0000
0000
0000
2000
0000
0000
0010
0000
0000
0100
0000
,
0000
0010
0000
0000
0100
0000
3100
0000
0200
0000
0000
1000
0000
0000
0010
0000
,
0000
1000
0000
0000
0010
0000
0310
0000
0010
0000
0001
0000
0100
0000
0010
0000
,
1000
0000
0000
0000
0100
0000
0000
0000
0010
0000
0001
0000
0010
0000
0100
0000
1000
0000
0000
0010
0100
0000
0001
0000
0010
0000
0000
0000
0011
0000
0000
0000
,
0000
0001
0010
0001
1000
0000
0000
0001
,
0010
0100
1000
1000
0100
0010
0001
0020
,
0000
0100
0100
0031
0000
0001
0100
0020
,
0000
1000
1000
0130
0000
0100
0110
0000
,
0010
0100
0010
0100
0000
0000
0001
0010
,
0100
1000
0001
1000
0100
0010
0002
0000
,
1000
0000
0103
0000
0001
0100
0020
0000
,
1000
0000
0000
0000
0100
0000
0000
0000
1030
0000
0000
0000
1010
0000
1000
0010
,
0000
0100
0001
0000
1000
0100
0000
0010
0001
0000
0001
0000
0011
0000
0001
0010
,
0000
0100
1000
0000
0001
0100
0000
0010
1000
0000
1000
0000
0200
0000
0000
0000
,
1000
0000
0010
0000
1300
0001
0200
0000
,
0010
0000
0000
0000
1000
0000
0000
0000
0310
0000
0100
0000
1100
0000
1000
0100
,
0000
1000
0100
0000
0010
0001
0000
0010
0001
0000
0010
0000
0011
0000
0001
1000
,
0000
0001
1000
0000
0100
1000
0000
0100
1000
0000
0010
0000
2000
0000
0000
0000
,
0010
0000
3100
0000
0001
2000
0100
0000
,
0010
0000
0000
3100
0000
0000
1100
0000
0000
1000
0100
0010
,
0001
0000
0020
0000
0000
0000
0000
0000
0000
0000
0000
0000
,
0000
0000
0000
0000
0000
0000
0000
0000
0030
0000
0000
0000
0000
0000
0000
0000
0000
0000
0000
0000
0000
0000
0000
0000
0001
0000
0000
0000
0000
0000
0100
0000
0000
0000
0000
0000
0001
0000
0000
0010
0000
0000
0001
0000
0000
0000
0000
0000
,
0010
0000
0100
0000
1000
0000
0100
1000
0000
0100
1000
0000
0100
0000
1000
0000
,
0010
0000
0100
0000
0010
0000
0100
0010
0000
0100
0010
0000
0100
0000
0001
0000
,
1000
0000
0001
0000
0010
0000
0001
0010
0000
0001
0010
0000
0100
0000
1000
0000
,
0001
0000
1000
0000
0100
0000
1000
0100
0000
1000
0100
0000
1000
0000
0000
1000
,
0010
0000
0100
0000
0001
0000
1000
0001
1000
0000
1000
0000
0001
0000
0010
0000
,
0100
0000
1000
0000
0100
1000
0000
0100
1000
0000
0100
0000
1000
0000
0010
0000
,
0100
0000
0001
0000
0010
0000
0001
0010
0001
0000
0011
0000
0110
0000
0110
0000
,
0011
0000
0010
0001
0010
0000
0001
0000
0100
0000
0010
0000
2000
0000
0000
0010
,
0000
0000
0100
0000
0000
0000
0100
0000
3100
0000
1000
0000
0002
0000
0000
0010
,
0000
0000
0100
0000
0000
0000
0010
0000
0013
0000
0001
0000
2000
0000
0000
0100
,
0000
0010
0000
0010
3010
1000
0002
0000
,
0000
0000
0000
0000
0000
0000
0003
0000
0101
0000
0000
0000
1001
0000
0000
1010
,
0000
0000
1001
0000
0000
0001
0010
0000
0001
0000
0010
0000
0110
0000
0000
1100
,
0000
0000
0101
0000
0000
0001
0100
0000
0010
0000
1000
0000
1000
0000
0100
0000
,
0010
0000
0000
0000
0001
0000
0000
0000
0010
0000
0000
0000
0100
0000
0000
0000
1000
0000
0100
0000
1000
0000
0100
0000
0010
0000
0000
0010
0001
0000
0010
0000
,
0001
0011
0000
0001
0010
0100
1000
0000
,
0000
0001
1000
0100
0010
0100
1000
0010
,
0100
2000
0000
0010
0000
3100
0000
0100
,
1000
0020
0000
0100
0000
0130
0000
0010
,
0110
0000
0010
0001
0010
0001
0000
0000
,
0010
0001
0100
0010
0100
0001
0010
0100
,
0002
0000
0010
0000
0103
0000
0100
1000
,
0020
0100
0130
0110
,
0110
0000
0010
1000
0000
0010
0100
0000
0001
0010
0000
0001
0010
0000
0001
0000
,
1001
0000
1000
0010
0000
0100
0001
0000
1000
0001
0000
1000
0100
0000
1000
0000
,
0200
0000
1000
0000
0310
0000
0010
0100
,
2000
0000
0010
0000
3100
0000
1000
0001
,
0011
0000
0010
0001
0000
0001
0010
0000
0100
1000
0000
1000
0100
0000
1000
0000
,
1100
0000
1000
0010
0000
0010
0100
0000
0010
0100
0000
0100
0001
0000
0010
0000
,
0002
0000
0010
0000
0103
0000
0001
1000
,
0200
0010
0310
0110
,
0110
0000
0000
0100
1000
0000
0100
0000
2000
0000
0000
0000
0002
0000
0000
0000
,
0000
3003
0000
0000
0000
0000
0000
0000
;

//---------------dance-single - ----------------
#NOTES:
     dance-single:
     :
     Medium:
     11:
     0.453495,0.459796,0.262714,0.328393,0.131357,435.000000,399.000000,36.000000,45.000000,0.000000,0.000000,0.453495,0.459796,0.262714,0.328393,0.131357,435.000000,399.000000,36.000000,45.000000,0.000000,0.000000:
0000
0000
0000
0000
,
0000
0000
0000
0000
,
0000
0000
0000
0000
,
1000
0001
0200
0000
0010
0000
0310
0000
,
0020
1000
0100
0130
,
1020
1030
0110
0110
,
0010
0100
0001
0010
0001
0100
0020
1000
,
0030
1010
0000
0101
0000
0101
0000
0001
,
0010
0001
1000
0001
0000
0001
0000
0001
,
0010
0100
0000
1000
0000
2020
0000
0000
,
0000
0000
0000
0000
0000
3030
0000
1010
,
0000
0010
0100
0001
0010
0001
0100
0100
,
0000
0001
0010
0100
1000
0001
1000
1000
,
0000
1000
0001
1001
0000
0001
1000
0001
,
0000
1001
0000
1000
0100
0010
0000
0010
,
0001
0010
0000
0021
0001
0001
0001
0001
,
0031
0000
0000
0000
0000
0000
0000
0000
2001
0000
0000
0010
0000
0000
0100
0000
,
0000
0000
0010
0000
0010
0000
3010
0000
0120
0000
0000
0100
0000
0000
0100
0000
,
0000
0000
1000
0000
1000
0000
1030
0000
1002
0000
0000
0010
0000
0000
0100
0000
,
0000
0000
0100
0000
0100
0000
0103
0000
0210
0000
0000
0010
0000
0000
0010
0000
,
0000
0000
1000
0000
1000
0000
1300
0000
0100
0000
0000
1000
0000
0000
0100
0000
,
0000
1000
0000
0000
0100
0000
0001
0000
0010
0000
0000
0001
0000
0000
0010
0000
,
0000
0001
0000
0000
0010
0000
0001
0000
1000
0000
1000
0000
0001
0000
0001
0000
,
0100
0100
0010
0010
0200
0000
0300
0000
,
0000
0100
1000
0001
0010
0000
0000
0010
,
0100
1000
0001
0010
0100
1000
0001
2001
,
0000
0010
0000
3100
0000
1000
0001
0102
,
0000
1000
0000
0103
0000
0001
0001
0000
,
0001
0010
0100
1000
0000
0000
1000
0001
,
0010
0100
1000
0010
0100
0001
2001
0000
,
0010
0000
3100
0000
1000
0100
1200
0000
,
0010
0000
0000
0000
1300
0000
0000
0000
1001
0000
0000
0000
0102
0000
0000
0010
,
0000
0000
0100
0000
0000
0010
0000
0000
0100
0000
0103
0000
0120
0000
0000
1000
,
0000
0000
0100
0000
0000
1000
0000
0000
0100
0000
0130
0000
2000
0000
0000
0000
,
0010
0000
3100
0000
0100
1000
0002
0000
,
0010
0000
0000
0000
0103
0000
0000
0000
0001
0000
0100
0000
0210
0000
0000
0010
,
0000
0000
0001
0000
0000
0001
0000
0000
0010
0000
0310
0000
0120
0000
0000
1000
,
0000
0000
0100
0000
0000
1000
0000
0000
0100
0000
0130
0000
0002
0000
0000
0000
,
0010
0000
0103
0000
0100
0010
2000
0000
,
0010
0000
0000
3100
0000
0000
1100
0000
0000
1000
0100
0010
,
0001
0020
0000
0000
0000
0000
0000
0000
,
0000
0030
0000
0000
0000
0000
0100
1000
,
0100
1000
0001
0010
0100
1000
0001
0100
,
0010
1000
0010
0100
0001
1000
0100
0010
,
0001
1000
0001
0010
0100
1000
0001
0100
,
0001
1000
0010
0100
0001
1000
0001
0000
,
0001
0010
0100
1000
0001
0001
1000
0001
,
0010
0100
1000
0001
0100
0100
0010
0010
,
0100
0100
0001
0001
0001
1000
1000
0100
,
0100
0000
1000
0000
0001
0000
0010
0000
0100
0000
1000
0000
0020
0000
0000
1000
,
0000
0000
1000
0000
0000
0100
0000
0000
0100
0000
0130
0000
0002
0000
0000
0010
,
0000
0000
0010
0000
0000
0100
0000
0000
0100
0000
0103
0000
0002
0000
0000
0100
,
0000
0000
0100
0000
0000
1000
0000
0000
1000
0000
1003
0000
1001
0000
0000
0000
,
0000
0000
0000
0000
0000
0000
0000
0000
0000
0000
0000
0000
2100
0000
0000
0010
,
0000
0000
0010
0000
0000
0100
0000
0000
0100
0000
3100
0000
0120
0000
0000
0100
,
0000
0000
0001
0000
0000
0100
0000
0000
0100
0000
0130
0000
0010
0000
0010
0000
,
0001
0001
0010
0100
1000
0001
0020
0000
,
0030
0000
0000
0001
0010
0100
1000
0000
,
0000
1000
1000
0001
0001
0100
0010
1000
,
0001
0020
0000
0100
0000
0031
0000
0001
,
1000
0200
0000
1000
0000
0310
0000
1000
,
1000
0000
1000
0010
0100
0001
0000
0000
,
0001
0010
0100
1000
0001
0001
1000
0010
,
0200
0000
0010
0000
0301
0000
0001
0010
,
0200
1000
0310
1100
,
1002
0000
0000
1000
0000
0000
0100
0000
0000
0100
0000
0000
0010
0000
0013
0000
,
0021
0000
0000
0100
0000
0000
0100
0000
0000
0001
0000
0000
0031
0000
0010
0000
,
0012
0000
0100
0000
1003
0000
0010
0100
,
2000
0000
0100
0000
3010
0000
1000
0010
,
0210
0000
0000
0010
0000
0000
1000
0000
0000
1000
0000
0000
0010
0000
0310
0000
,
0120
0000
0000
0100
0000
0000
1000
0000
0000
1000
0000
0000
0100
0000
0130
0000
,
0002
0000
0010
0000
0103
0000
0001
0010
,
0200
1000
0310
0110
,
0110
0000
0010
0001
0200
0000
0020
0000
,
0000
0330
0000
0000
0000
0000
0000
0000
;

//---------------dance-single - ----------------
#NOTES:
     dance-single:
     :
     Easy:
     7:
     0.282522,0.486842,0.313798,0.291905,0.000000,271.000000,228.000000,43.000000,40.000000,0.000000,0.000000,0.282522,0.486842,0.313798,0.291905,0.000000,271.000000,228.000000,43.000000,40.000000,0.000000,0.000000:
0000
0000
0000
0000
,
0000
0000
0000
0000
,
0000
0000
0000
0000
,
1000
0001
2000
3000
,
0001
1000
0002
0003
,
0010
0100
0020
0030
,
0010
0000
0001
0000
0100
0000
0010
1000
,
0000
0010
0000
0200
0000
0301
0000
0001
,
0000
0010
0000
0200
0000
1300
0000
2000
,
0000
3010
0000
0200
0000
0002
0000
0000
,
0000
0000
0000
0303
0000
0000
0000
2001
,
0000
0001
0000
0010
0000
3100
0000
1002
,
0000
0100
0000
0010
0000
0100
0000
1003
,
0000
1000
0001
1000
0000
1000
0000
0010
,
0000
0010
0000
0100
0001
0100
0000
0010
,
0000
1000
0000
1001
0001
0000
1000
0000
,
0001
0000
2000
0000
,
0000
0000
3000
0000
,
0000
0000
0020
0000
,
0000
0000
0030
0000
,
0100
0100
0002
0000
,
0000
0003
2000
0000
,
0000
3000
0001
1000
,
0001
1000
0002
0003
,
0000
0000
0000
0000
0000
0000
0000
1000
,
0000
0001
0000
1000
0000
0001
0000
0020
,
0000
0000
0000
0030
0000
0100
0000
2000
,
0000
0000
0000
3000
0000
0001
0000
0000
,
0001
1000
0000
1000
,
0001
0100
0010
2000
,
0000
3000
1001
0002
,
0000
0003
1001
2000
,
0010
0100
0010
0001
,
0100
0001
3100
2000
,
0000
3000
1001
0002
,
0000
0003
1001
0200
,
0001
0010
0301
0200
,
1000
0010
1300
2000
,
0000
3000
1001
0002
,
0000
0003
1001
0020
,
0000
0000
0000
0030
,
0000
0000
0000
0000
0000
0000
1000
0001
,
1000
0000
0001
0000
0100
0000
0010
1000
,
0010
0000
0100
0000
0001
0000
0010
0001
,
0010
0000
0001
0000
1000
0000
0100
1000
,
0100
1000
0000
1000
,
1000
1000
1000
0010
,
0010
0010
0010
0100
,
0100
0100
0100
0101
,
0101
0101
0101
0001
,
0010
0100
1000
0001
,
0100
0010
1000
0001
,
0010
0100
1000
0001
,
0000
1001
0000
1010
,
1010
0110
0110
1010
,
1010
0110
0110
0101
,
0101
0110
0110
0200
,
0300
0000
0000
0000
,
0000
0010
1000
0010
0000
0001
0100
0001
,
0000
0020
0000
0001
0000
0031
0000
1001
,
0000
2000
0000
0100
0000
3100
0000
1100
,
0000
0000
1000
0100
1000
0000
1010
0000
,
0010
0100
0001
0010
,
0200
1000
1300
1100
,
2000
0010
3010
1010
,
0020
0100
1000
0130
,
0002
0010
0100
0013
,
0020
0100
0031
0011
,
2000
0100
0010
3100
,
1100
1100
0110
0110
,
0011
0011
1001
1001
,
0002
0010
0013
1001
,
2000
0010
3010
1001
,
0220
0000
0000
0000
,
0000
0330
0000
0000
0000
0000
0000
0000
;

//---------------dance-single - ----------------
#NOTES:
     dance-single:
     :
     Beginner:
     4:
     0.114677,0.189328,0.036488,0.204333,0.000000,110.000000,105.000000,5.000000,28.000000,0.000000,0.000000,0.114677,0.189328,0.036488,0.204333,0.000000,110.000000,105.000000,5.000000,28.000000,0.000000,0.000000:
0000
0000
0000
0000
,
0000
0000
0000
0000
,
0000
0000
0000
0000
,
1000
0000
0001
0000
,
1000
0000
0001
0000
,
0100
0000
0010
0000
,
0100
0000
0010
0000
,
0000
0000
0000
0010
0000
0000
0000
0100
,
0000
0000
0000
0010
0000
0000
0000
2000
,
0000
0000
0000
0002
0000
0000
0000
0000
,
0000
0000
0000
3003
0000
0000
0000
1000
,
0000
0000
0000
0001
0000
0000
0000
1000
,
0000
0000
0000
0010
0000
0000
0000
0100
,
0000
0000
0000
0001
0000
0000
0000
1000
,
0000
0000
0000
0010
0000
0000
0000
0100
,
0000
0000
0000
0002
0000
0000
0010
0000
,
0013
0000
0020
0000
,
0000
0000
0030
0000
,
0000
0000
2000
0000
,
0000
0000
3000
0000
,
1000
0000
0001
0000
,
1000
0000
1000
0000
,
0001
0000
0010
0000
,
0100
0000
0010
0000
,
0000
0000
0000
0000
0000
0000
0000
0010
,
0000
0000
0000
0100
0000
0000
0000
2000
,
0000
0000
0000
3000
0000
0000
0000
0002
,
0000
0000
0000
0003
0000
0000
0000
0000
,
0000
0000
0000
0001
,
0000
1000
0000
0020
,
0000
0030
0000
0200
,
0000
0300
0000
0001
,
0000
1000
0000
0010
,
0000
1000
0000
0200
,
0000
0300
0000
2000
,
0000
3000
0000
1000
,
0000
0001
0000
0100
,
0000
0001
0000
0020
,
0000
0030
0000
0002
,
0000
0003
0000
2002
,
0000
0000
0000
3003
,
0000
0000
0000
1000
,
0000
0100
0000
0010
,
0000
0001
0000
0010
,
0000
0100
0000
1000
,
0000
0010
0000
0100
,
0000
0001
0000
0010
,
0000
0100
0000
1000
,
0000
0001
0000
1001
,
0000
1001
0000
2000
,
0000
0000
3000
0020
,
0000
0000
0030
0200
,
0000
0000
0300
0001
,
0000
1001
0000
1000
,
0000
0001
0000
1000
,
0000
0001
0000
0100
,
0000
0010
0000
0100
,
0000
0000
0000
0000
,
0000
1000
0000
0000
0000
0001
0000
0000
,
0000
0200
0000
0000
0000
0300
0000
0000
,
0000
0020
0000
0000
0000
0030
0000
0000
,
0000
0000
0000
0000
,
0010
0000
0100
0000
,
2000
0000
3000
0000
,
0002
0000
0003
0000
,
0100
0000
0010
0000
,
1000
0000
0001
0000
,
0020
0000
0030
0000
,
2000
0000
3000
0000
,
1000
0000
0001
0000
,
0010
0000
0100
0000
,
2000
0000
3000
0000
,
0002
0000
0003
0000
,
2002
0000
0000
0000
,
0000
3003
0000
0000
0000
0000
0000
0000
;

//---------------dance-double - ----------------
#NOTES:
     dance-double:
     :
     Easy:
     9:
     0.399284,0.430559,0.342988,0.255417,0.007298,383.000000,336.000000,47.000000,35.000000,0.000000,0.000000,0.399284,0.430559,0.342988,0.255417,0.007298,383.000000,336.000000,47.000000,35.000000,0.000000,0.000000:
00000000
00000000
00000000
00000000
,
00000000
00000000
00000000
00000000
,
00000000
00000000
00020000
00030000
,
00001000
01000000
00100000
00000000
10100000
00000000
01010000
00000000
,
00010000
00100000
00001000
00000000
00011000
00000000
00001100
00000000
,
00002000
00000000
00003000
00000000
00000010
00000100
00000010
00000000
,
00000010
00000100
00000001
00001000
00000200
00000000
00000300
00001000
,
00000000
00000100
00000000
00010000
00001000
00100000
00000000
10100000
,
00000000
01010000
00000000
00010000
10000000
01000000
00000000
20000000
,
00000000
30000000
00000000
00010000
00100000
02000000
00000000
00000000
,
00000000
00000000
00000000
00000000
00000000
03000000
00000000
11000000
,
00000000
10000000
00000000
01000000
00100000
00020000
00000000
01030000
,
00000000
00001000
00010000
00100000
00000000
00200000
00000000
01300000
,
00000000
00100000
00000000
10000000
00000000
00010000
00000000
01000000
,
00000000
00100000
00000000
00100000
01000000
00010000
00000000
00100000
,
00001000
00010000
00000000
00021000
01000000
00000000
00001000
00000000
,
00130000
01010000
10200000
10000000
,
10300000
10100000
12000000
10000000
,
13000000
11000000
10020000
10000000
,
10030000
00000000
10010000
00000000
01010000
00000000
00010000
00100000
,
00001000
00011000
00002010
00000010
,
00000010
00003010
00000210
00000010
,
00000010
00000000
00000310
00000000
00000010
00000100
00000001
00000000
,
00001000
00000010
00000100
00000000
00000002
00000000
00000003
00000000
,
00000000
00000001
00001000
00000001
00001000
00000000
00000000
00000010
,
00010000
00001000
00000000
00001000
00100000
00010000
10000000
00200000
,
00000000
01000000
00000000
01300000
00000000
00100000
10000000
00020000
,
00000000
00100000
00000000
00100000
00000000
00100000
00030000
00000000
,
10000000
00010000
01000000
00010000
00000000
00000000
00100000
00001000
,
00010000
00000000
00001000
00010000
00000100
00000000
00000200
00000000
,
00001000
00000000
00010300
00000000
00001000
01000000
00200000
00000000
,
10000000
10300000
10010000
00000000
,
10010000
00000000
10000000
01000000
00100000
00000000
00100000
00001000
,
00010000
00000100
00001000
00000001
00000100
00000010
00002000
00000000
,
00000100
00000000
00003100
00000000
00010000
00001000
00020000
00000000
,
00000100
00000000
00031000
00000000
00002000
00003000
00010000
00001000
,
00100000
00000000
00100000
00010000
10000000
00000000
10000000
00100000
,
01000000
00000000
00100000
01000000
00010000
10000000
00020000
00000000
,
10000000
00000000
10030000
00000000
10000000
00010000
00200000
00000000
,
00010000
00301000
00011000
00000000
,
00000000
00000000
00000000
00000000
,
00000000
00000000
00000000
00000000
00010000
00001000
00010000
00000000
,
00010100
00000000
00001100
00000000
00000110
00000000
00000010
00000100
,
00001000
00000000
00011000
00000000
00101000
00000000
01000000
00100000
,
10000000
00000000
10100000
00000000
01010000
00000000
10000000
00010000
,
00100000
00000000
00110000
00000000
00011000
00000000
00001000
00100000
,
00010000
00000000
00110000
00000000
01100000
00000000
01000000
10000000
,
00010000
00000000
01010000
00000000
00110000
00000000
00010000
00100000
,
00001000
00000000
00011000
00000000
00001000
00000100
00010000
00001000
,
00100000
01100000
10010000
10020000
,
01000000
10000000
01030000
20010000
,
00100000
00000000
00010000
00000000
30100000
00000000
00100000
01000000
,
00020000
00100000
00031000
00010100
,
00000000
00000000
00000000
00000000
00000000
00000000
00000000
00000000
00011000
00000000
00000000
00000000
00010000
00000000
00000000
00001000
,
00000000
00000000
00010000
00000000
00000000
00000000
00001000
00000000
00010000
00000000
00000000
00000000
00001000
00000000
00000000
00010000
,
00000000
00001000
00000000
00010000
00001000
00000000
00100000
00010000
,
01000000
00000000
00100000
10000000
01000000
00000000
02000000
00000000
,
03000000
00000000
00000000
10000000
01000000
10000000
01000000
00000000
,
00000000
00100000
00010000
01000000
00000000
00001000
00010000
00000100
,
00001000
00000020
00000000
00000100
00000000
00000130
00000000
00000010
,
00001000
00000200
00000000
00001000
00000000
00010000
00000000
00010000
,
00000300
00000000
00010000
00001000
00010000
00001000
00000000
00000000
,
00100000
00010000
01000000
00000000
00010000
10000000
01000000
10000000
,
00200000
00000000
01000000
00000000
01300000
00000000
00100000
01000000
,
00020000
00100000
01000000
10030000
,
00000000
00000000
10010000
00000000
00010000
10000000
01000000
00000000
,
01000000
10000000
00010000
00000000
00010000
01000000
00100000
10000000
,
00020000
00000000
00100000
00000000
00031000
00000000
00001000
00010000
,
00000200
00001000
00010300
00011000
,
00001000
00100000
00010000
00000000
00010000
10000000
00100000
00000000
,
00100000
01000000
00010000
00000000
00010000
10000000
01000000
10000000
,
02000000
00000000
10000000
00000000
03100000
00000000
00100000
01000000
,
20000000
01000000
30010000
10010000
,
01010000
00000000
00010000
00100000
00001000
00000000
00011000
00000000
;

//---------------dance-double - ----------------
#NOTES:
     dance-double:
     :
     Medium:
     12:
     0.497281,0.648028,0.255417,0.204333,0.215280,477.000000,442.000000,35.000000,28.000000,0.000000,0.000000,0.497281,0.648028,0.255417,0.204333,0.215280,477.000000,442.000000,35.000000,28.000000,0.000000,0.000000:
00000000
00000000
00000000
00000000
,
00000000
00000000
00000000
00000000
,
00000000
00000000
00000000
00001000
00010000
00000000
00110000
00000000
,
10000000
00100000
02000000
00000000
00010000
00000000
13000000
00000000
,
10010000
00102000
00010000
00003100
,
00001000
00000000
00000000
00000100
00000000
00000000
00000000
00000000
00020000
00000000
00000000
00000000
00031000
00000000
00000000
00000000
,
00100000
00010000
00100000
00000000
00010000
00000000
10000000
00000000
00010000
00000000
01000000
00000000
00001000
00000000
00010000
00000000
,
00000000
00000000
00011000
00000000
00000000
00000000
00001000
00000000
00000000
00000000
00001100
00000000
00000000
00000000
00000100
00001000
,
00000100
00001000
00000001
00000100
00000010
00000100
00000010
00000100
,
00000000
00000010
00000000
00001000
00000000
00002200
00000000
00000000
,
00000000
00000000
00000000
00003300
00000000
00000000
00000000
00021000
,
00000000
00000000
00031000
00010000
00001000
00010000
00001000
00000000
00100000
00000000
00010000
00000000
10010000
00000000
10010000
00000000
,
00000000
00000000
10000000
00100000
10000000
00100000
10000000
00000000
00100000
00000000
01000000
00000000
01010000
00000000
01010000
00000000
,
00000000
00000000
00000000
00001000
00010000
00000000
00001000
00000000
00000000
00010000
00000000
00001000
00010000
00000000
00001000
00000000
,
01000000
00000000
01000000
00000000
00100000
00000000
10000000
00000000
00010000
10000000
00000000
00010000
10000000
00000000
00010000
00000000
,
10000000
01000000
00000000
01100000
00100000
00001000
00010000
00000100
,
00000100
00000000
00000000
00000000
00001100
00000000
00000000
00000000
00000200
00000000
00000000
00001000
00000000
00000000
00001000
00000000
,
00000000
00000000
00010000
00000000
00010000
00000000
00010300
00000000
00002000
00000000
00000000
00100000
00000000
00000000
00100000
00000000
,
00000000
00000000
01000000
00000000
01000000
00000000
01003000
00000000
00020000
00000000
00000000
10000000
00000000
00000000
10000000
00000000
,
00000000
00000000
00100000
00000000
00100000
00000000
00130000
00000000
00010000
00000000
00000000
00100000
00010000
00000000
01000000
00000000
,
00010000
00000000
00000000
00000000
10010000
00000000
00000000
00000000
10000000
00000000
00000000
01000000
00000000
00000000
00100000
00000000
,
00000000
00000000
00001000
00000000
00010000
00000000
00000100
00000000
00000001
00000000
00000000
00001000
00000000
00000000
00000100
00000000
,
00000000
00000000
00010000
00000000
00001000
00000000
00100000
00000000
00010000
00100000
00010000
00000000
00100000
01000000
00100000
00000000
,
01000000
10000000
01000000
00000000
10000000
00010000
10000000
00000000
00010000
00000000
10000000
00000000
00100000
00000000
02000000
00000000
,
03010000
00010000
10000000
01000000
00100000
00000000
00000000
01000000
,
10000000
00010000
01000000
00100000
01000000
00010000
10000000
00020000
,
00000000
00100000
00000000
00031000
00000000
00001000
00010000
00000200
,
00000000
00000000
00001000
00000000
00000000
00000000
00000310
00000000
00000000
00000000
00000010
00000100
00000010
00000000
00000000
00000000
,
00000100
00000000
00001000
00000000
00000001
00000000
00000100
00000000
00000000
00000000
00000000
00000000
00000100
00001000
00000100
00000000
,
00010000
00001000
00100000
00010000
00100000
01000000
20000000
00000000
,
00010000
00000000
30100000
00000000
00100000
10000000
02000000
00000000
,
00010000
00000000
00000000
00000000
10000000
00000000
00000000
00000000
03100000
00000000
00000000
00000000
01100000
00000000
00000000
01000000
,
10000000
00000000
00010000
00000000
01000000
00000000
00100000
00000000
01000000
00000000
00100000
00000000
01000000
00000000
00000000
01000000
,
00010000
00100000
00001000
00010000
00001000
00100000
00020000
00000000
,
00100000
00000000
01030000
00000000
00100000
10000000
00020000
00000000
,
01000000
00000000
00000000
00000000
00031000
00000000
00000000
00000000
00011000
00000000
00011000
00000000
00001000
00000000
00000000
00010000
,
00001000
00000000
00000100
00000000
00000010
00000000
00000100
00000000
00001000
00000000
00010000
00000000
00001000
00000000
00000000
00001000
,
00010000
00001000
00100000
00010000
01000000
00100000
20000000
00000000
,
00010000
00000000
30100000
00000000
10000000
00100000
02000000
00000000
,
10000000
00000000
00000000
00100000
00000000
00000000
13000000
00000000
00000000
10000000
01000000
10000000
,
01000000
02200000
00000000
00000000
,
00000000
00000000
03300000
00000000
00000000
00000000
00100000
01000000
,
10000000
00000000
01000000
00000000
00100000
00000000
00000000
10000000
00000000
00000000
00010000
00000000
00100000
00000000
00001000
00000000
,
00010000
00000000
00000100
00000000
00000010
00000000
00000000
00000001
00000000
00000000
00001000
00000000
00000001
00000000
00000100
00000000
,
00000010
00000000
00001000
00000000
00000100
00000000
00000000
00010000
00000000
00000000
00001000
00000000
00100000
00000000
00010000
00000000
,
10000000
00000000
01000000
00000000
00100000
00000000
00000000
01000000
00000000
00000000
10000000
00000000
00010000
00000000
10000000
00000000
,
00010000
01000000
00001000
00000000
00011000
00000000
00010000
00000100
,
00001000
00000000
00000010
00000000
00000100
00000000
00000000
00000001
00000000
00000000
00001000
00000000
00000100
00000000
00010000
00000000
,
00001000
00000000
00100000
00000000
00010000
00000000
00000000
00100000
00000000
00000000
01000000
00000000
01000000
00000000
01000000
00000000
,
01000000
00000000
10000000
00000000
00010000
00000000
01000000
00000000
00100000
00000000
01000000
00000000
00010000
00000000
00000000
10000000
,
00000000
00000000
00010000
00000000
00000000
10000000
00000000
00000000
01000000
00000000
00100000
00000000
00001000
00000000
00000000
00010000
,
00000000
00000000
00001000
00000000
00000000
00010000
00000000
00000000
00001000
00000000
00010000
00000000
00000100
00000000
00000000
00001000
,
00000000
00000000
00000010
00000000
00000000
00000100
00000000
00000000
00000001
00000000
00000010
00000000
00000200
00000000
00000000
00000000
,
00000000
00000000
00000000
00000000
00000300
00000000
00000000
00000000
00000000
00000000
00000000
00000000
01000000
00000000
00000000
00010000
,
00000000
00000000
10000000
00000000
00000000
00010000
00000000
00000000
00100000
00000000
00010000
00000000
10000000
00000000
00000000
01000000
,
00000000
00000000
00100000
00000000
00000000
00010000
00000000
00000000
00100000
00000000
00010000
00000000
10000000
00000000
00010000
00000000
,
01000000
00000000
00001000
00000000
00010000
00000000
00010000
00000000
00000100
00000000
00001000
00000000
00000010
00000100
00000010
00001000
,
00000200
00001300
00011000
00010000
00001000
00100000
00001000
01000000
,
00000000
00100000
10000000
01000000
00100000
00010000
00100000
01000000
,
10000000
10010000
00000000
00011000
00000000
00001001
00000000
00000001
,
00000100
00000010
00000000
00000110
00000000
00011000
00000000
01100000
,
01000000
00000000
00000000
00000000
01000000
10000000
01000000
00000000
10000000
01000000
10000000
00000000
10010000
00000000
00000000
00000000
,
00010000
10000000
01000000
00100000
00001000
00010000
00001000
00001000
,
00000100
00000000
00000110
00000000
00001100
00000000
00001000
00100000
,
00010000
00000000
10010000
00000000
01100000
00000000
00100000
01000000
,
00010000
00000000
00000000
00100000
00000000
00000000
00010000
00000000
00000000
10000000
00010000
00000000
10000000
00000000
00010000
00000000
,
01000000
00000000
00000000
00010000
00000000
00000000
10000000
00000000
00000000
00010000
10000000
00000000
01000000
00000000
10000000
00000000
,
00020000
00000000
00100000
00000000
01030000
00000000
00010000
00100000
,
00002000
00000000
00010000
00000000
00003100
00000000
00011000
00011000
,
00010000
00000000
00000000
00000100
00000000
00000000
00001000
00000000
00000000
00001000
00000100
00000000
00010000
00000000
00001000
00000000
,
00100000
00000000
00000000
00010000
00000000
00000000
10000000
00000000
00000000
00010000
00100000
00000000
00001000
00000000
00000010
00000000
,
00000200
00000000
00000001
00000000
00001300
00000000
00000001
00001000
,
00000020
00000100
00000031
00001010
,
00001100
00000000
00000000
00000100
00010000
00000000
00001000
00000000
00020000
00000000
00000000
00000000
00002000
00000000
00000000
00000000
,
00033000
00000000
00000000
00000000
;

//---------------dance-double - ----------------
#NOTES:
     dance-double:
     :
     Hard:
     16:
     0.743315,0.838451,0.350286,0.218929,0.923149,713.000000,665.000000,48.000000,30.000000,0.000000,0.000000,0.743315,0.838451,0.350286,0.218929,0.923149,713.000000,665.000000,48.000000,30.000000,0.000000,0.000000:
// measure 0
00000000
00000000
00000000
00000000
,  // measure 1
00000000
00000000
00000000
00000000
,  // measure 2
00000000
00000000
00000000
00000000
00000000
00000000
00001000
00010000
00000000
00000000
00000000
00000000
00011000
00000000
00000000
00000000
,  // measure 3
00001000
00010000
00001000
00100000
00020000
00000000
00000000
00000000
10000000
00000000
00000000
00000000
10030000
00000000
00000000
00000000
,  // measure 4
10000000
00010000
01000000
00010000
00200000
00000000
00000000
00000000
00010000
00000000
00000000
00000000
00310000
00000000
00000000
00000000
,  // measure 5
00011000
00000000
00000000
00011000
00000000
00000000
00000000
00000000
00000200
00000000
00000000
00000000
00001300
00000000
00000000
00000000
,  // measure 6
00000100
00000000
00001000
00000000
00000100
00000000
00010000
00000000
00001000
00000000
00010000
00000000
00001000
00000000
00100000
00000000
00010000
00000000
00000000
00000000
10000000
00000000
00000000
00000000
20020000
30030000
00000000
00000000
10010000
00000000
00000000
00000000
,  // measure 7
00000000
01010000
00000000
00000000
00000000
00000000
01000000
10000000
00010000
00000000
10010000
00000000
00000000
00000000
00010000
10000000
,  // measure 8
00000000
00010000
10000000
00000000
00010000
00000000
02000000
03000000
00010000
00000000
00100000
00002000
00003000
00000000
00010000
00000000
,  // measure 9
00001000
00020000
00030000
00000000
00001000
00010000
00000100
00000000
00000000
00000200
00000000
00000000
00000000
00000000
00000000
00000000
,  // measure 10
00000000
00000000
00000000
00000000
00000300
00000000
00000000
00000200
,  // measure 11
00000300
00000000
00000100
00010000
00001000
00100000
00010000
10000000
01000000
10000000
00000000
00000000
10010000
00000000
10010000
00000000
,  // measure 12
00000000
00000000
10000000
01000000
00100000
00001000
00010000
00000000
00000100
00000100
00000000
00000000
00001000
00000001
00000100
00000000
,  // measure 13
00000110
00000000
00000010
00000100
00000000
00000000
00000110
00000000
00010000
00001000
00000000
00010000
00000000
00001000
00010000
00001000
,  // measure 14
01000000
00100000
01000000
00000000
00100000
10000000
00010000
00000000
00010000
10000000
00000000
00010000
10000000
00000000
00010000
10000000
,  // measure 15
01000000
00100000
00010000
00000000
10000000
00000000
10010000
00000000
10010000
00000000
00011000
00000000
00011000
00000000
00001001
00000000
,  // measure 16
00001001
00000000
00000000
00000000
00000110
00000000
00000000
00000000
00000100
00000000
00001000
00000100
00000000
00010000
00001000
00000000
,  // measure 17
00000000
00000000
00010000
00001000
01000000
00001000
00010000
00000000
00010000
00000000
00000000
00000010
00000000
00000000
00000100
00000000
,  // measure 18
00000000
00000000
00000100
00001000
00010000
00001000
00000100
00000000
00000100
00000000
00000000
00001000
00000000
00000000
00010000
00000000
,  // measure 19
00000000
00000000
00100000
00010000
10000000
00010000
01000000
00000000
10010000
00000000
00000000
10000000
01000000
00000000
00100000
00000000
,  // measure 20
00010000
00000000
00000000
00000000
10010000
00000000
00000000
00000000
00010000
00100000
01000000
10000000
00010000
00000000
10000000
00010000
,  // measure 21
00000000
10000000
00010000
00000000
10000000
01000000
00100000
00010000
00100000
00001000
00010000
00000100
00001000
00000000
00000010
00000100
,  // measure 22
00000000
00000010
00000100
00000000
00000001
00000010
00000100
00001000
00000010
00000000
00000010
00000000
00000100
00000000
00000100
00000000
,  // measure 23
00010000
00000000
00000000
00000000
00010000
00000000
00000000
00000000
00001000
00000000
00100000
00000000
00010000
00000000
01000000
00000000
00001000
00000000
00000000
01000000
00010000
00000000
10000000
00000000
02000000
00000000
00000000
00000000
03100000
00000000
00000000
00000000
,  // measure 24
01100000
00000000
01000000
10000000
01000000
10000000
00010000
00000000
02020000
00000000
00000000
00000000
03030000
00000000
00010000
10000000
,  // measure 25
00010000
00100000
00010000
01000000
00100000
10000000
00100000
10000000
00010000
00100000
00010000
00100000
00010000
00100000
02000000
00000000
,  // measure 26
00000000
00000000
00010000
00000000
00000000
00000000
13000000
00000000
00000000
00000000
10000000
01000000
10000000
00000000
02000000
00000000
,  // measure 27
00000000
00000000
00010000
00000000
00000000
00000000
10000000
00000000
00000000
00000000
03100000
01000000
00100000
00000000
00000000
00000000
,  // measure 28
01000000
10000000
01000000
10000000
00010000
01000000
00010000
01000000
00010000
00000000
00000000
00000000
00001000
00010000
00001000
00100000
,  // measure 29
00010000
01000000
00100000
10000000
00010000
10000000
01000000
00100000
00010000
01000000
00001000
00010000
00002000
00000000
00000000
00000000
,  // measure 30
00010000
00000000
00000000
00000000
00013000
00000000
00000000
00000000
00010000
00000100
00001000
00000100
00020000
00000000
00000000
00000000
,  // measure 31
00000100
00000000
00000000
00000000
00031000
00000000
00000000
00000000
00011000
00000000
00000000
00000000
00100000
00000000
00001000
00010000
,  // measure 32
00000000
00001000
00010000
00000000
00000100
00010000
00001000
00010000
00000100
00010000
00001000
00000000
00100000
00000000
00010000
10000000
,  // measure 33
00000000
00010000
10000000
00000000
01000000
10000000
00010000
01000000
00100000
01000000
00010000
10000000
02000000
00000000
00000000
00000000
,  // measure 34
10000000
00000000
00000000
00000000
03010000
00000000
00000000
00000000
01000000
10000000
01000000
10000000
00020000
00000000
00000000
00000000
,  // measure 35
00100000
00000000
00000000
00000000
00130000
00000000
00000000
00000000
00110000
00000000
00110000
00000000
00001000
00000000
00010000
00001000
,  // measure 36
00000000
00010000
00001000
00000000
00000100
00001000
00010000
00001000
00000100
00010000
00001000
00000000
00010000
00000000
00001000
01000000
,  // measure 37
00000000
00100000
01000000
00000000
00100000
10000000
00100000
10000000
00010000
00100000
00010000
00100000
02000000
00000000
00000000
00000000
,  // measure 38
10000000
00000000
00000000
00000000
13000000
00000000
00000000
00000000
00010000
10000000
01000000
00000000
00200000
00000000
00000000
00000000
,  // measure 39
00010000
00000000
00000000
00310000
00000000
00000000
00110000
00000000
00000000
00001000
00010000
00100000
,  // measure 40
01000000
00000000
02000000
00000000
00000000
00000000
00000000
00000000
00000000
00000000
00000000
00000000
,  // measure 41
00000000
00000000
00000000
00000000
03000000
00000000
00000000
01000000
10000000
01000000
10000000
00010000
00100000
00010000
10000000
01000000
,  // measure 42
00100000
00010000
00100000
00000000
00011000
00000000
00100000
00001000
00000000
00010000
00000100
00000000
00001000
00010000
00001000
00010000
,  // measure 43
00000100
00001000
00000010
00000100
00000001
00000000
00000010
00000100
00000000
00000001
00001000
00000010
00010000
00001000
00100000
00001000
,  // measure 44
00010000
00000100
00010000
00001000
00010000
00001000
00010000
00001000
00100000
00010000
01000000
00010000
10000000
01000000
00100000
00000000
,  // measure 45
01000000
00000000
10000000
00000000
00010000
00000000
01000000
00100000
00000000
10000000
00010000
00000000
10000000
00000000
00000000
00010000
,  // measure 46
01000000
00000000
00001000
00010000
00001000
00000000
00010000
00100000
00000000
00010000
01000000
00010000
10000000
01000000
10000000
01000000
,  // measure 47
00100000
00000000
00010000
00000000
00100000
00000000
00001000
00010000
00000000
00001000
00010000
00000000
00001000
00010000
00001000
00010000
,  // measure 48
00000001
00000000
00000100
00000000
00000010
00000000
00000100
00000000
00000001
00000000
00000000
00000000
00001000
00000000
00000100
00000000
00000000
00000000
00001000
00000000
00000100
00001000
00000000
00000000
00000100
00001000
00000000
00000000
00000100
00001000
00000000
00000000
,  // measure 49
00000100
00000000
00000000
00000000
00000000
00000000
00001000
00000000
00000000
00000000
00000000
00000000
00000000
00000000
00000000
00000000
00000000
00000000
00000000
00000000
00000000
00000000
00000000
00000000
00000100
00000000
00000000
00000000
00000000
00000000
00000000
00000000
00001000
00000000
00000000
00000000
00000000
00000000
00000000
00000000
00000000
00000000
00000000
00000000
00000000
00000000
00000000
00000000
00000100
00000000
00000000
00000000
00000000
00000000
00000000
00000000
00000000
00000000
00000000
00000000
00010000
00000000
00000000
00000000
00000000
00000000
00000000
00000000
00000000
00000000
00000000
00000000
00001000
00000000
00000000
00000000
00000000
00000000
00000000
00000000
00000000
00000000
00000000
00000000
00010000
00000000
00000000
00000000
00000000
00000000
00000000
00000000
00000000
00000000
00000000
00000000
00001000
00000000
00000000
00000000
00000000
00000000
00000000
00000000
00000000
00000000
00000000
00000000
00100000
00000000
00000000
00000000
00000000
00000000
00000000
00000000
00000000
00000000
00000000
00000000
00010000
00000000
00000000
00000000
00000000
00000000
00000000
00000000
00000000
00000000
00000000
00000000
00100000
00000000
00000000
00000000
00000000
00000000
00000000
00000000
00000000
00000000
00000000
00000000
00020000
00000000
00000000
00000000
00000000
00000000
00000000
00000000
00000000
00000000
00000000
00000000
00000000
00000000
00000000
00000000
00000000
00000000
00000000
00000000
00000000
00000000
00000000
00000000
00100000
00000000
00000000
00000000
00000000
00000000
00000000
00000000
00000000
00000000
00000000
00000000
00100000
00000000
00000000
00000000
00000000
00000000
00000000
00000000
00000000
00000000
00000000
00000000
,  // measure 50
00000000
01000000
01030000
00010000
10000000
00000000
00010000
10000000
00000000
00010000
10000000
00010000
10000000
01000000
01000000
10000000
,  // measure 51
10000000
00010000
01000000
00010000
00100000
00000000
00010000
00100000
00000000
00001000
00010000
00000100
00001000
00000100
00010000
00001000
,  // measure 52
00100000
00001000
00010000
00001000
00010000
00001000
00010000
00000000
00001000
00000000
00010000
00000000
00001000
00000000
00000000
00000000
,  // measure 53
00000000
00000000
00000000
00000000
00000000
00000000
00000000
00000000
00022000
00000000
00033000
00000000
10010000
00000000
01000000
01000000
,  // measure 54
00000000
01000000
01000000
00000000
01000000
00100000
10000000
00010000
00100000
00001000
00010000
00001000
00010000
00000000
00000100
00000100
,  // measure 55
00000000
00000100
00000100
00000000
00001000
00000100
00010000
00001000
00100000
00010000
01000000
00000000
00010000
10000000
00001000
00010000
,  // measure 56
00000100
00000000
00001000
00000000
00000010
00000000
00000100
00000000
00000001
00000000
00000010
00000000
00000001
00000000
00000100
00000000
00000010
00000000
00001000
00000000
00000100
00000000
00010000
00000000
00001000
00000000
00000000
00010000
00001000
00000000
00100000
00000000
,  // measure 57
00020000
00000000
10030000
00000000
10010000
00000000
10000000
01000000
00100000
01000000
10000000
00000000
20200000
00000000
00000000
00000000
,  // measure 58
30300000
00000000
00100000
10000000
00100000
10000000
00010000
00100000
00010000
00100000
00001000
00010000
00001000
00010000
00000100
00001000
,  // measure 59
00000010
00001000
00000010
00000000
00000000
00001000
00000100
00000000
00000000
00010000
00001000
00000000
00000000
00010000
00001000
00100000
,  // measure 60
00010000
10000000
00100000
00000000
00000000
01000000
00010000
00000000
00000000
00010000
00001000
00000000
00000000
00001000
00000100
00000000
,  // measure 61
00000100
00000000
00000000
00000000
00000100
00001000
00000100
00001000
00000100
00000000
00000100
00000000
00000000
00000000
00000000
00000000
,  // measure 62
00001000
00010000
00100000
00010000
00001000
01000000
00100000
01000000
00010000
10000000
00010000
10000000
00001000
00010000
00001000
00000000
,  // measure 63
00010000
00000000
00000000
00000000
00011000
00000000
00000000
00000000
00001001
00000000
00000000
00000000
00000001
00000100
00000010
00001000
,  // measure 64
00000100
00001100
00011000
00011000
,  // measure 65
00100000
00000000
01000000
00010000
00000000
00010000
10000000
00010000
00000000
00010000
01000000
00000000
00010000
00000000
10000000
00000000
,  // measure 66
01000000
00000000
10000000
01000000
00000000
01000000
00100000
01000000
00000000
01000000
10000000
00000000
01000000
00000000
10000000
00000000
,  // measure 67
10010000
00000000
00011000
00000000
00001001
00000000
00000100
00000010
,  // measure 68
00000100
00000000
00010100
00000000
00101000
00000000
00100000
00010000
,  // measure 69
10000000
00000000
00010000
00100000
00000000
00100000
00010000
00100000
00000000
00100000
00001000
00000000
00010000
00000000
00000100
00000000
,  // measure 70
00001000
00000000
00000100
00010000
00000000
00010000
00001000
00010000
00000000
00001000
00100000
00000000
00010000
00000000
10000000
00000000
,  // measure 71
10010000
00000000
00011000
00000000
00001010
00000000
00001000
00010000
,  // measure 72
01000000
01100000
10010000
01100000
,  // measure 73
01010000
00000000
00000000
00010000
00001000
00000000
00010000
00000000
00002000
00000000
00000000
00000000
00020000
00000000
00000000
00000000
,  // measure 74
00000000
00033000
00000000
00000000
00000000
00000000
00000000
00000000
;
