#VERSION:0.83;
#TITLE:Ghetto Blasta Deluxe;
#SUBTITLE:;
#ARTIST:Audio Magnetics;
#TITLETRANSLIT:;
#SUBTITLETRANSLIT:;
#ARTISTTRANSLIT:;
#GENRE:;
#ORIGIN:;
#CREDIT:;
#BANNER:Ghetto Blasta Deluxe.png;
#BACKGROUND:Ghetto Blasta Deluxe-bg.png;
#PREVIEWVID:;
#JACKET:Ghetto Blasta Deluxe-jacket.png;
#CDIMAGE:;
#DISCIMAGE:;
#LYRICSPATH:;
#CDTITLE:;
#MUSIC:Ghetto Blasta Deluxe.ogg;
#OFFSET:0.000000;
#SAMPLESTART:75.120003;
#SAMPLELENGTH:15.000000;
#SELECTABLE:YES;
#DISPLAYBPM:131.000000;
#BPMS:0.000=131.387,
4.000=130.997;
#STOPS:;
#DELAYS:;
#WARPS:;
#TIMESIGNATURES:0.000=4=4;
#TICKCOUNTS:0.000=4;
#COMBOS:0.000=1;
#SPEEDS:0.000=1.000=0.000=0;
#SCROLLS:0.000=1.000;
#FAKES:;
#LABELS:0.000=Song Start;
#BGCHANGES:;
#KEYSOUNDS:;
#ATTACKS:
;

//---------------dance-single - ----------------
#NOTEDATA:;
#CHARTNAME:;
#STEPSTYPE:dance-single;
#DESCRIPTION:;
#CHARTSTYLE:;
#DIFFICULTY:Beginner;
#METER:2;
#RADARVALUES:0.084581,0.158804,0.000000,0.070245,0.000000,59.000000,59.000000,0.000000,7.000000,0.000000,0.000000,0.000000,0.000000,0.000000,0.084581,0.158804,0.000000,0.070245,0.000000,59.000000,59.000000,0.000000,7.000000,0.000000,0.000000,0.000000,0.000000,0.000000;
#CREDIT:;
#DISPLAYBPM:131.000000;
#NOTES:
0000
0000
0000
0000
,
0000
0000
0000
0000
,
0000
0000
0000
0000
,
0001
0000
0000
0000
,
1000
0000
0000
0000
,
0001
0000
0000
0000
,
0000
0000
0000
0000
,
1000
0000
0000
0000
,
0000
0000
0000
0000
,
0010
0000
0000
0000
,
0000
0000
0000
0000
,
0100
0000
0000
0000
,
0000
0000
0000
0000
,
1000
0000
1000
0000
,
0000
0000
0000
0000
,
0001
0000
0001
0000
,
0000
0000
0000
0000
,
0001
0000
0000
0000
,
0100
0000
0000
0000
,
1000
0000
0000
0000
,
0010
0000
0000
0000
,
2000
0000
3000
0000
,
0020
0000
0030
0000
,
0002
0000
0003
0000
,
0200
0000
0300
0000
,
2000
0000
3000
0000
,
0200
0000
0300
0000
,
0002
0000
0003
0000
,
0000
0000
0000
0000
,
1000
0000
1000
0000
,
0001
0000
0000
0000
,
0001
0000
0001
0000
,
1000
0000
0000
0000
,
0001
0000
0001
0000
,
0100
0000
0000
0000
,
0010
0000
0010
0000
,
0100
0000
0000
0000
,
1000
0000
1000
0000
,
0100
0000
0000
0000
,
0100
0000
0100
0000
,
0010
0000
0000
0000
,
0001
0000
0000
0000
,
0100
0000
0001
0000
,
1000
0000
0000
0000
,
0010
0000
0000
0000
,
0001
0000
0000
0000
,
0010
0000
0100
0000
,
0001
0000
0000
0000
,
0100
0000
0000
0000
,
0010
0010
0000
0000
,
0001
0001
0000
0000
,
1000
1000
0000
0000
,
0010
0010
0010
0010
,
0000
0000
0000
0000
;

//---------------dance-single - ----------------
#NOTEDATA:;
#CHARTNAME:;
#STEPSTYPE:dance-single;
#DESCRIPTION:;
#CHARTSTYLE:;
#DIFFICULTY:Easy;
#METER:5;
#RADARVALUES:0.233673,0.264674,0.060210,0.080280,0.000000,163.000000,157.000000,6.000000,8.000000,0.000000,0.000000,0.000000,0.000000,0.000000,0.233673,0.264674,0.060210,0.080280,0.000000,163.000000,157.000000,6.000000,8.000000,0.000000,0.000000,0.000000,0.000000,0.000000;
#CREDIT:;
#DISPLAYBPM:131.000000;
#NOTES:
0000
0000
0000
0000
,
0000
0000
0000
0000
,
0000
0000
0000
0000
,
2000
0000
3010
0000
,
0002
0000
0103
0000
,
0100
1000
0010
0000
,
0100
1000
0100
0000
,
0010
0001
0010
0000
,
0100
1000
0010
0000
,
0010
0100
1000
0001
,
0100
0000
1000
0000
,
1000
0010
0100
0001
,
0010
1000
0100
0000
,
0010
0001
0010
0000
,
0100
0010
0001
0100
,
1000
0001
1000
0001
,
1001
0000
1000
0100
,
0001
0100
1000
0000
,
0010
0001
0100
0010
,
0001
1000
0001
0000
,
0001
0100
1000
1001
,
0001
0100
1000
0000
,
0001
0001
1000
1000
,
0001
0100
1000
0000
,
0001
1000
0100
0010
,
1000
0100
0001
0000
,
1000
1000
0001
0001
,
1000
0100
0001
0000
,
2002
0000
0000
3003
,
0002
0000
0103
0000
,
2000
0000
3010
0000
,
0200
0000
1300
0000
,
0020
0000
0031
0000
,
0010
0001
0100
0000
,
0010
0001
0010
0000
,
0100
1000
0100
0000
,
0010
0001
0100
0000
,
0100
0010
0001
1000
,
0010
0000
0001
0000
,
0001
0100
0010
1000
,
0100
0001
0010
0000
,
0100
1000
0100
0000
,
0010
0100
1000
0010
,
0001
1000
0001
1000
,
1001
0000
0001
0010
,
1000
0010
0001
0000
,
0100
1000
0010
0100
,
1000
0001
1000
0000
,
1000
0010
0001
1001
,
1000
0100
0001
0000
,
1000
1000
0001
0001
,
1000
0100
0001
0000
,
0010
0001
0100
1001
,
0000
0000
0000
0000
;

//---------------dance-single - ----------------
#NOTEDATA:;
#CHARTNAME:;
#STEPSTYPE:dance-single;
#DESCRIPTION:;
#CHARTSTYLE:;
#DIFFICULTY:Medium;
#METER:7;
#RADARVALUES:0.346925,0.344076,0.120420,0.040140,0.020070,242.000000,230.000000,12.000000,4.000000,0.000000,0.000000,0.000000,0.000000,0.000000,0.346925,0.344076,0.120420,0.040140,0.020070,242.000000,230.000000,12.000000,4.000000,0.000000,0.000000,0.000000,0.000000,0.000000;
#CREDIT:;
#DISPLAYBPM:131.000000;
#NOTES:
0000
0000
0000
0000
,
0000
0000
0000
0000
,
0000
0000
0000
0000
,
0001
0010
0001
0000
,
1000
0010
1000
0000
,
0100
0001
0100
0000
0010
0000
1000
0000
,
0100
0011
1000
0101
,
0010
0001
1000
0000
0010
0000
0001
0010
,
0100
0001
0010
1001
,
0010
0001
0100
0000
0001
0000
1000
0000
,
0100
1010
0001
0110
,
0001
1000
0010
0000
0100
0000
1000
0100
,
0010
0001
0100
1001
,
0010
0000
0001
0000
2000
0000
0000
0000
3010
0000
0000
0000
0100
0000
0000
0100
,
0000
0010
1000
0100
,
0001
1000
0001
0100
,
0010
0000
0010
0000
0001
0010
0100
0000
,
1000
0000
0001
0000
0200
0000
0000
0000
0301
0000
0000
0000
0010
0000
0000
0010
,
0000
1000
0100
0010
,
1000
0001
1000
0010
,
1000
0000
0100
0000
0001
0010
0100
0000
,
1000
0100
0001
0000
0100
0000
0100
0000
,
1000
0100
0001
0000
0001
0100
1000
0000
,
1000
0100
0001
0000
0100
0000
0100
0000
,
1000
0100
0001
0000
0100
0000
0010
0000
,
0001
0100
1000
0000
0100
0000
0100
0000
,
0001
0100
1000
0000
1000
0100
0001
0000
,
0001
0100
1000
0000
0100
0000
0100
0000
,
0010
0100
0010
0100
,
0001
0010
0001
0000
,
1000
0010
1000
0000
,
0001
0010
0001
0000
,
1000
0010
1000
0000
,
0100
1000
0100
0000
0010
0000
0001
0000
,
0100
1010
0001
1100
,
0010
1000
0001
0000
0010
0000
1000
0010
,
0100
1000
0010
1001
,
0010
1000
0100
0000
1000
0000
0001
0000
,
0100
0011
1000
0110
,
1000
0001
0010
0000
0100
0000
0001
0100
,
0010
1000
0100
1001
,
0010
0000
1000
0000
0002
0000
0000
0000
0013
0000
0000
0000
0100
0000
0000
0100
,
0000
0010
0001
0100
,
1000
0001
1000
0100
,
0010
0000
0010
0000
1000
0010
0100
0000
,
0001
0000
1000
0000
0200
0000
0000
0000
1300
0000
0000
0000
0010
0000
0000
0010
,
0000
0001
0100
0010
,
0001
1000
0001
0010
,
0001
0000
0100
0000
1000
0010
0100
0000
,
0001
0100
1000
0000
0100
0000
0100
0000
,
0001
0100
1000
0000
1000
0100
0001
0000
,
0001
0100
1000
0000
0100
0000
0100
0000
,
0001
0001
1000
1000
0010
1000
0001
0000
,
0000
0000
0000
0000
;

//---------------dance-single - ----------------
#NOTEDATA:;
#CHARTNAME:;
#STEPSTYPE:dance-single;
#DESCRIPTION:;
#CHARTSTYLE:;
#DIFFICULTY:Hard;
#METER:10;
#RADARVALUES:0.491716,0.529347,0.240841,0.040140,0.040140,343.000000,319.000000,24.000000,4.000000,0.000000,0.000000,0.000000,0.000000,0.000000,0.491716,0.529347,0.240841,0.040140,0.040140,343.000000,319.000000,24.000000,4.000000,0.000000,0.000000,0.000000,0.000000,0.000000;
#CREDIT:;
#DISPLAYBPM:131.000000;
#NOTES:
0000
0000
0000
0000
,
0000
0000
0000
0000
,
0000
0000
0000
0000
,
1000
1000
0100
0000
,
0001
0001
0100
0000
,
0010
1000
0010
1000
0100
1000
0001
0100
,
0010
0100
1000
0100
0001
0010
1000
0000
,
0010
0001
1000
0010
0100
0001
1000
0100
,
0010
0100
1000
0001
0100
0000
1001
0000
,
0100
1000
0010
1000
0001
0100
0001
0100
,
0010
0100
0001
0010
1000
0001
0100
0000
,
1000
0001
0100
1000
0100
0001
1000
0010
,
0100
0000
0001
0001
0010
0100
1001
0000
,
0100
0000
1000
0000
0002
0000
0000
0000
0103
0000
0000
0000
1100
0000
0000
0101
,
0000
0010
0100
0001
0010
0000
0100
0000
,
1000
0000
0100
0000
0001
0000
0100
0000
1000
0000
0000
0000
1010
0000
0000
0101
,
0000
0010
0100
0001
1000
0100
0010
0000
,
0001
0000
1000
0000
0020
0000
0000
0000
1030
0000
0000
0000
0110
0000
0000
1001
,
0000
0010
0001
1000
0010
0000
0100
0000
,
0001
0000
0010
0000
1000
0000
0010
0000
0001
0000
0000
0000
1100
0000
0000
0101
,
0000
1000
0010
0100
0010
1000
0100
0000
,
0001
0100
1000
0100
0010
0100
0010
0100
,
0001
0100
1000
0100
0010
0100
0010
0100
,
0001
0100
1000
0100
0010
0100
0010
0100
,
0001
0100
1000
0100
0010
0100
0010
0100
,
0010
1000
0100
0010
0001
0100
0001
0100
,
0010
1000
0100
0010
0001
0100
0001
0100
,
0010
1000
0100
0010
0001
0100
0001
0100
,
0010
0100
0010
0100
,
1000
1000
0100
0000
,
0001
0001
0100
0000
,
1000
1000
0100
0000
,
0001
0001
0100
0000
,
0010
0001
0010
0001
0100
0001
1000
0100
,
0010
0100
0001
0100
1000
0010
0001
0000
,
0010
1000
0001
0010
0100
1000
0001
0100
,
0010
0000
0001
0000
0100
0001
1001
0000
,
0100
0001
0010
0001
1000
0100
1000
0100
,
0010
0100
1000
0010
0001
1000
0100
0000
,
0001
1000
0100
0001
0100
1000
0001
0010
,
0100
0000
1000
0000
0010
0100
1001
0000
,
0100
0000
0001
0000
2000
0000
0000
0000
3100
0000
0000
0000
0101
0000
0000
1100
,
0000
0010
0100
1000
0010
0000
0100
0000
,
0001
0000
0100
0000
1000
0000
0100
0000
0001
0000
0000
0000
0011
0000
0000
1100
,
0000
0010
0100
1000
0001
0100
0110
0000
,
1000
0000
0001
0000
0200
0000
0000
0000
0301
0000
0000
0000
0110
0000
0000
1001
,
0000
0010
1000
0001
0010
0000
0100
0000
,
1000
0000
0010
0000
0001
0000
0010
0000
1000
0000
0000
0000
0101
0000
0000
1100
,
0000
0001
0010
0100
0010
0001
0100
0000
,
1000
0100
0001
0100
0010
0100
0010
0100
,
1000
0100
0001
0100
0010
0100
0010
0100
,
1000
0100
0001
0100
0010
0100
0010
0100
,
1000
1000
0100
0001
0101
1100
1001
0000
,
0000
0000
0000
0000
;

//---------------dance-double - ----------------
#NOTEDATA:;
#CHARTNAME:;
#STEPSTYPE:dance-double;
#DESCRIPTION:;
#CHARTSTYLE:;
#DIFFICULTY:Easy;
#METER:5;
#RADARVALUES:0.256610,0.264674,0.090315,0.020070,0.000000,179.000000,170.000000,9.000000,2.000000,0.000000,0.000000,0.000000,0.000000,0.000000,0.256610,0.264674,0.090315,0.020070,0.000000,179.000000,170.000000,9.000000,2.000000,0.000000,0.000000,0.000000,0.000000,0.000000;
#CREDIT:;
#DISPLAYBPM:131.000000;
#NOTES:
00000000
00000000
00000000
00000000
,
00000000
00000000
00000000
00000000
,
00000000
00000000
00000000
00000000
,
00000001
00000000
00000100
00000000
,
00001000
00000000
00000100
00000000
,
00001000
00010000
00100000
00000000
,
10000000
01000000
10000000
00100000
,
00010000
00001000
00000010
00000001
,
00001000
00000000
00000001
00000000
,
00000100
00010000
00001000
00000000
,
01000000
00100000
00010000
01000000
,
00010000
00001000
00000010
00000000
,
00000001
00001000
00000010
00000101
,
00001000
00010000
01000000
00000000
,
00100000
00010000
01000000
00001000
,
00010000
00000010
00001000
00000100
,
00001000
00000000
00000001
00000000
,
00000010
00001000
00010000
00000000
,
01000000
00001000
00010000
00001000
,
00100000
00010000
10000000
00000000
,
00100000
00010000
00001000
00011000
,
00000010
00000010
00000001
00000001
,
00000100
00001000
00010000
01000000
,
10000000
10000000
00100000
00100000
,
00010000
00001000
00000010
00001001
,
00000100
00000100
00000001
00000001
,
00000010
00001000
00010000
00100000
,
10000000
10000000
01000000
01000000
,
00010000
00001000
00010000
00001000
,
00000100
00000100
00000001
00000000
,
00001000
00001000
00000100
00000000
,
00010000
00010000
00001000
00000000
,
00220000
00000000
00000000
00330000
,
00010000
00001000
00000100
00000000
,
00000001
00000010
00000001
00000100
,
00001000
00010000
01000000
10000000
,
10010000
00000000
01000000
00000000
,
00100000
00001000
00010000
00000000
,
00000010
00000100
00001000
00000010
,
00001000
00010000
01000000
00000000
,
10000000
00010000
01000000
10100000
,
00010000
00001000
00000010
00000000
,
00000001
00001000
00000010
00010000
,
00001000
01000000
00010000
00100000
,
01100000
00000000
10000000
00000000
,
01000000
00010000
00001000
00000000
,
00000010
00010000
00001000
00010000
,
00000100
00001000
00000001
00000000
,
00000100
00001000
00010000
00011000
,
01000000
01000000
10000000
10000000
,
00100000
00010000
00001000
00000010
,
00000001
00000001
00000100
00000100
,
00001000
00010000
01000000
10010000
,
00000000
00000000
00000000
00000000
;

//---------------dance-double - ----------------
#NOTEDATA:;
#CHARTNAME:;
#STEPSTYPE:dance-double;
#DESCRIPTION:;
#CHARTSTYLE:;
#DIFFICULTY:Medium;
#METER:8;
#RADARVALUES:0.371296,0.370543,0.130455,0.010035,0.040140,259.000000,246.000000,13.000000,1.000000,0.000000,0.000000,0.000000,0.000000,0.000000,0.371296,0.370543,0.130455,0.010035,0.040140,259.000000,246.000000,13.000000,1.000000,0.000000,0.000000,0.000000,0.000000,0.000000;
#CREDIT:;
#DISPLAYBPM:131.000000;
#NOTES:
00000000
00000000
00000000
00000000
,
00000000
00000000
00000000
00000000
,
00000000
00000000
00000000
00000000
,
00100000
10000000
01000000
00000000
,
00010000
00000000
00001000
00000000
,
00000010
00000001
00001000
00000000
00000010
00000000
00000100
00000000
,
00001000
00010000
00100000
00000000
00010000
00001000
00100000
00000000
,
01000000
10000000
00010000
00000000
01000000
00000000
00100000
00000000
,
00010000
00000000
00001100
00000000
00000010
00000001
00000100
00000000
,
00000010
00001000
00010000
00000000
01000000
00000000
10000000
00000000
,
00010000
00001000
00010000
00000000
00100000
00010000
01000000
00000000
,
00001000
00010000
00000010
00000000
00000100
00000000
00000001
00000000
,
00000010
00000000
00001000
00000000
00010000
00001000
00011000
00000000
,
01000000
00000000
00001000
00000000
00100000
00000000
00000000
00000000
00110000
00000000
00000000
00000000
01000000
00000000
00000000
10000000
,
00000000
01000000
00100000
00000000
00001000
00000000
00000010
00000000
,
00000001
00000000
00001000
00000000
00000010
00000000
00000000
00000000
00000101
00000000
00000000
00000000
00001000
00000000
00000000
00010000
,
00000000
01000000
00100000
00001000
01000000
00000000
00100000
00000000
,
00010000
00000000
10000000
00000000
01000000
00000000
00000000
00000000
00010000
00000000
00000000
00000000
00001000
00000000
00000000
00000010
,
00000000
00000100
00001000
00000000
00000001
00000000
00000100
00000000
,
00000010
00000000
00010000
00000000
00001000
00000000
00000000
00000000
01000000
00000000
00000000
00000000
00100000
00000000
00000000
00010000
,
00000000
00001000
00010000
00100000
01000000
00000000
10010000
00000000
,
10000000
01000000
00010000
00000000
00001000
00000000
00000100
00000000
,
00000010
00000001
00000100
00000000
00000010
00001000
00000100
00000000
,
00000001
00000100
00001000
00000000
00010000
00000000
01000000
00000000
,
00100000
01010000
00100000
11000000
,
10000000
00100000
00010000
00000000
00001000
00000000
00000010
00000000
,
00000001
00001000
00000100
00000000
00001000
00000001
00000100
00000000
,
00000001
00000010
00001000
00000000
00010000
00000000
00100000
00000000
,
10000000
02000000
00010000
13000000
,
00010000
00001000
00000010
00000000
,
00001000
00010000
00100000
00000000
,
00010000
00001000
00000100
00000000
,
00001000
00010000
01000000
00000000
,
01000000
10000000
00010000
00000000
01000000
00000000
00100000
00000000
,
00010000
00001000
00000100
00000000
00001000
00010000
00000100
00000000
,
00000010
00000001
00001000
00000000
00000010
00000000
00000100
00000000
,
00001000
00000000
00110000
00000000
01000000
10000000
00100000
00000000
,
01000000
00010000
00001000
00000000
00000010
00000000
00000001
00000000
,
00001000
00010000
00001000
00000000
00000100
00001000
00000010
00000000
,
00010000
00001000
01000000
00000000
00100000
00000000
10000000
00000000
,
01000000
00000000
00010000
00000000
00001000
00010000
00011000
00000000
,
00000010
00000000
00010000
00000000
00000100
00000000
00000000
00000000
00001100
00000000
00000000
00000000
00000010
00000000
00000000
00000001
,
00000000
00000010
00000100
00000000
00010000
00000000
01000000
00000000
,
10000000
00000000
00010000
00000000
01000000
00000000
00000000
00000000
10100000
00000000
00000000
00000000
00010000
00000000
00000000
00001000
,
00000000
00000010
00000100
00010000
00000010
00000000
00000100
00000000
,
00001000
00000000
00000001
00000000
00000010
00000000
00000000
00000000
00001000
00000000
00000000
00000000
00010000
00000000
00000000
01000000
,
00000000
00100000
00010000
00000000
10000000
00000000
00100000
00000000
,
01000000
00000000
00001000
00000000
00010000
00000000
00000000
00000000
00000010
00000000
00000000
00000000
00000100
00000000
00000000
00001000
,
00000000
00010000
00001000
00000100
00000010
00000000
00001001
00000000
,
00000001
00000010
00001000
00000000
00010000
00000000
00100000
00000000
,
01000000
10000000
00100000
00000000
01000000
00010000
00100000
00000000
,
10000000
00100000
00010000
00000000
00001000
00000000
00000010
00000000
,
00000100
00000000
00001001
00000000
00000010
00001000
00000001
00000000
,
00000000
00000000
00000000
00000000
;

//---------------dance-double - ----------------
#NOTEDATA:;
#CHARTNAME:;
#STEPSTYPE:dance-double;
#DESCRIPTION:;
#CHARTSTYLE:;
#DIFFICULTY:Hard;
#METER:10;
#RADARVALUES:0.511786,0.529347,0.230806,0.000000,0.040140,357.000000,334.000000,23.000000,0.000000,0.000000,0.000000,0.000000,0.000000,0.000000,0.511786,0.529347,0.230806,0.000000,0.040140,357.000000,334.000000,23.000000,0.000000,0.000000,0.000000,0.000000,0.000000,0.000000;
#CREDIT:;
#DISPLAYBPM:131.000000;
#NOTES:
00000000
00000000
00000000
00000000
,
00000000
00000000
00000000
00000000
,
00000000
00000000
00000000
00000000
,
00000001
00000100
00001000
00000000
,
00010000
00000000
00001000
00000000
,
00100000
10000000
01000000
10000000
00100000
00010000
00001000
00000010
,
00000001
00000100
00000001
00001000
00000010
00010000
00000100
00001000
,
00000010
00001000
00000001
00000010
00001000
00010000
00100000
01000000
,
00001000
00010000
01000000
10000000
00100000
01000000
10010000
00000000
,
01000000
00010000
00001000
00000010
00000001
00000100
00000001
00000010
,
00001000
00010000
00001000
00000100
00000001
00001000
00000100
00010000
,
00001000
00100000
01000000
10000000
00010000
01000000
00100000
00010000
,
00000100
00001000
00001000
00000001
00000010
00000100
00001001
00000000
,
00000010
00000000
00010000
00000000
00001000
00000000
00100000
00000000
00010000
00000000
00000000
00000000
11000000
00000000
00000000
01010000
,
00000000
00100000
00010000
00001000
00010000
01000000
10000000
00000000
,
01000000
00000000
00100000
00000000
00010000
00000000
00001000
00000000
00000100
00000000
00000000
00000000
00000011
00000000
00000000
00001100
,
00000000
00000010
00000100
00010000
00000010
00001000
00000100
00000000
,
00001000
00000000
00000001
00000000
00000010
00000000
00001000
00000000
00010000
00000000
00000000
00000000
00010010
00000000
00000000
01001000
,
00000000
00100000
00010000
10000000
00100000
00000000
01000000
00000000
,
10000000
00000000
01000000
00000000
00010000
00000000
00001000
00000000
00000010
00000000
00000000
00000000
00000101
00000000
00000000
00001100
,
00000000
00010000
00001000
00000100
00000010
00001000
00000100
00000000
,
00000001
00000100
00001000
00010000
01000000
10000000
01000000
10000000
,
00100000
00010000
00001000
00000010
00000001
00000100
00000001
00000100
,
00001000
00010000
00100000
10000000
00010000
10000000
00010000
10000000
,
01000000
00010000
00001000
00000010
00000001
00000100
00000001
00000100
,
00000010
00000100
00001000
00010000
00100000
01000000
00100000
01000000
,
00100000
00010000
00001000
00000100
00000010
00000100
00000010
00000100
,
00000001
00000100
00001000
00010000
00100000
01000000
00100000
01000000
,
10000000
01000000
00010000
01000000
,
00100000
00001000
01000000
00000000
,
00000010
00010000
00000100
00000000
,
01000000
00001000
00100000
00000000
,
00000100
00010000
00000010
00000000
,
00000100
00000001
00000010
00000001
00000100
00001000
00010000
01000000
,
10000000
00100000
10000000
00010000
01000000
00001000
00100000
00010000
,
01000000
00010000
10000000
01000000
00010000
00001000
00000100
00000010
,
00010000
00001000
00000010
00000001
00000100
00000010
00001001
00000000
,
00000010
00001000
00010000
01000000
10000000
00100000
10000000
01000000
,
00010000
00001000
00010000
00100000
10000000
00010000
00100000
00001000
,
00010000
00000100
00000010
00000001
00001000
00000010
00000100
00001000
,
00100000
00010000
00010000
10000000
00100000
01000000
10010000
00000000
,
01000000
00000000
00001000
00000000
00010000
00000000
00000100
00000000
00001000
00000000
00000000
00000000
00000011
00000000
00000000
00001010
,
00000000
00000100
00001000
00010000
00001000
00000010
00000001
00000000
,
00000010
00000000
00000100
00000000
00001000
00000000
00010000
00000000
00100000
00000000
00000000
00000000
11000000
00000000
00000000
00110000
,
00000000
01000000
00100000
00001000
01000000
00010000
00100000
00000000
,
00010000
00000000
10000000
00000000
01000000
00000000
00010000
00000000
00001000
00000000
00000000
00000000
01001000
00000000
00000000
00010010
,
00000000
00000100
00001000
00000001
00000100
00000000
00000010
00000000
,
00000001
00000000
00000010
00000000
00001000
00000000
00010000
00000000
01000000
00000000
00000000
00000000
10100000
00000000
00000000
00110000
,
00000000
00001000
00010000
00100000
01000000
00010000
00100000
00000000
,
10000000
00100000
00010000
00001000
00000010
00000001
00000010
00000001
,
00000100
00001000
00010000
01000000
10000000
00100000
10000000
00100000
,
00010000
00001000
00000100
00000001
00001000
00000001
00001000
00000001
,
00000010
00001000
00010000
00100000
11000000
01010000
10010000
00000000
,
00000000
00000000
00000000
00000000
;

//---------------dance-single - ----------------
#NOTEDATA:;
#CHARTNAME:;
#STEPSTYPE:dance-single;
#DESCRIPTION:;
#CHARTSTYLE:;
#DIFFICULTY:Challenge;
#METER:16;
#RADARVALUES:0.832907,0.820489,0.000000,0.040140,1.359746,581.000000,581.000000,0.000000,4.000000,184.000000,0.000000,0.000000,0.000000,0.000000,0.832907,0.820489,0.000000,0.040140,1.359746,581.000000,581.000000,0.000000,4.000000,184.000000,0.000000,0.000000,0.000000,0.000000;
#CREDIT:;
#DISPLAYBPM:131.000000;
#NOTES:
// measure 0
0000
0000
0000
0000
,  // measure 1
0000
0000
0000
0000
,  // measure 2
0000
0000
0000
0000
,  // measure 3
1000
MMMM
0001
MMMM
,  // measure 4
0010
0000
0000
MMMM
0000
0000
0100
0001
1000
0100
0010
0000
0001
0000
MMMM
0000
,  // measure 5
1000
0100
0010
0001
0100
0010
1000
0001
0100
0010
0100
0010
0100
0000
MMMM
0000
,  // measure 6
0010
0001
0100
0010
1000
0100
0010
0100
0001
0100
0010
0100
0010
0000
MMMM
0000
,  // measure 7
1000
0100
0010
0001
1000
0010
0100
0001
1000
0100
0010
0001
0100
0000
MMMM
0000
,  // measure 8
0100
0000
0000
0100
0001
0000
0000
0001
0100
0000
0000
0100
1000
0000
MMMM
0000
,  // measure 9
1000
0010
1000
0010
0100
0001
0100
0001
1000
0010
0100
0001
1000
0000
MMMM
0000
,  // measure 10
0001
0010
0100
1000
0001
0010
0100
1000
0001
0100
0010
1000
0100
0000
MMMM
0000
,  // measure 11
0100
1000
0010
0100
0001
0010
0100
1000
0100
0010
0001
1000
0010
0000
MMMM
0000
,  // measure 12
0010
0000
0000
0010
1000
0000
0000
1000
0010
0000
0000
0010
0001
0000
MMMM
0000
,  // measure 13
0010
0001
0010
0100
0001
1000
0100
0010
0001
1000
0010
0100
0001
0000
MMMM
0000
,  // measure 14
1000
0100
0010
0001
1000
0010
0100
0001
1000
0100
0010
0001
0100
0000
MMMM
0000
,  // measure 15
0010
0001
1000
0100
0010
0001
0100
0010
1000
0001
0100
0010
1000
0000
MMMM
0000
,  // measure 16
0100
1000
0010
0100
0001
0010
0100
1000
0001
0010
1000
0100
0010
0000
MMMM
0000
,  // measure 17
0010
0001
0100
0010
1000
0100
0001
0100
0010
1000
0100
0010
0001
0000
MMMM
0000
,  // measure 18
0100
0010
1000
0001
0100
0010
1000
0100
0010
0001
0100
0010
1000
0000
MMMM
0000
,  // measure 19
0010
0001
0100
0010
1000
0100
0010
0001
0100
0010
1000
0100
0010
0000
MMMM
0000
,  // measure 20
0001
0010
1000
0100
0010
0001
0100
0010
1000
0100
0010
0001
0100
0000
MMMM
0100
,  // measure 21
0001
0100
0010
1000
0100
0000
0010
0001
1000
0010
0100
0000
0010
0000
MMMM
0100
,  // measure 22
0010
1000
0100
0010
0001
0000
0010
1000
0100
0010
0001
0000
0010
0000
MMMM
0010
,  // measure 23
0001
0100
0010
1000
0100
0000
0010
1000
0100
0010
0001
0000
0010
0000
MMMM
0010
,  // measure 24
0001
0100
0010
1000
0100
0000
0010
1000
0001
0100
0010
0000
1000
0000
MMMM
1000
,  // measure 25
0100
0010
0001
0100
0010
0000
0001
0010
0100
1000
0010
0000
0100
0000
MMMM
0100
,  // measure 26
0010
1000
0001
0100
0010
0000
0001
0100
0010
1000
0100
0000
0010
0000
MMMM
0010
,  // measure 27
0100
0001
1000
0100
0010
0000
0001
0100
0010
1000
0100
0000
0010
0000
MMMM
0000
,  // measure 28
0010
0000
0000
0010
0000
0000
0100
0000
0000
0100
0000
0000
0001
0000
1000
0000
0100
0000
0010
0000
0001
0000
0100
0000
,  // measure 29
0020
0000
0000
0000
0001
0000
0000
0000
0001
0001
0000
0001
0000
0001
0000
0001
,  // measure 30
0032
0000
0000
0000
0100
0000
0000
0000
0100
0100
0000
0100
0000
0100
0000
0100
,  // measure 31
0203
0000
0000
0000
0001
0000
0000
0000
0001
0001
0000
0001
0000
0001
0000
0001
,  // measure 32
2300
0000
0000
0000
3100
0000
MMMM
0000
0100
1000
0100
1000
0100
1000
0100
1000
,  // measure 33
0100
0010
0100
0001
1000
0100
0010
0001
0100
0010
1000
0001
0100
0000
MMMM
0100
,  // measure 34
0010
0001
0100
0010
1000
0100
0010
0001
0100
0010
1000
0001
0010
0000
MMMM
0010
,  // measure 35
0001
0010
0100
1000
0010
0100
0001
1000
0100
0010
0001
0100
0010
0000
MMMM
0000
,  // measure 36
0010
0000
0000
0010
0001
0000
0000
0001
0100
0000
0000
0100
1000
0000
MMMM
1000
,  // measure 37
0010
0001
0100
0010
1000
0001
0100
0010
1000
0100
0010
0001
0100
0000
MMMM
0100
,  // measure 38
0010
0001
0010
0100
1000
0010
0100
0001
1000
0100
0010
0001
0100
0000
MMMM
0001
,  // measure 39
0100
0010
1000
0001
0100
0010
1000
0100
0010
0001
0100
0010
1000
0000
MMMM
0000
,  // measure 40
0100
0000
0000
0100
1000
0000
0000
1000
0010
0000
0000
0010
0001
0000
MMMM
0001
,  // measure 41
0010
0001
0100
0001
0010
0001
0100
0001
0010
0001
0100
0001
0010
0000
MMMM
1000
,  // measure 42
0010
1000
0100
1000
0010
1000
0100
1000
0010
1000
0100
1000
0010
0000
MMMM
0001
,  // measure 43
0010
1000
0010
0001
0010
1000
0010
0001
0010
1000
0010
0001
0010
0000
MMMM
0000
,  // measure 44
0100
0000
0000
0100
0001
0000
0000
0001
1000
0000
0000
1000
0010
0000
MMMM
1000
,  // measure 45
0100
0001
0100
1000
0100
0001
0100
1000
0100
0001
0100
1000
0100
0000
MMMM
0010
,  // measure 46
0100
0010
0001
0010
0100
0010
0001
0010
0100
0010
0001
0010
0100
0000
MMMM
1000
,  // measure 47
0100
1000
0010
1000
0100
1000
0010
1000
0100
1000
0010
1000
0100
0000
MMMM
0000
,  // measure 48
0010
0000
0000
0010
0100
0000
0000
0100
0001
0000
0000
0001
1000
0000
MMMM
0001
,  // measure 49
1000
0100
0010
0001
0100
0010
1000
0001
0010
0100
1000
0010
0100
0000
MMMM
0100
,  // measure 50
1000
0000
0000
0010
0000
0000
0001
0000
0000
0100
0000
0000
0001
0000
0000
0010
0000
0000
1000
0000
0000
0100
0000
0000
0010
0000
0000
0001
0000
0000
1000
0000
0000
0010
0000
0000
0100
0000
0000
0000
0010
0000
0000
0000
0001
0000
0000
0000
,  // measure 51
0010
0001
0100
0010
1000
0100
0001
0100
1000
0010
0100
0001
1000
0000
MMMM
0000
,  // measure 52
0010
0100
0010
0100
0001
1000
0001
1000
0100
0010
0100
0010
1000
0000
0000
0000
;
