#TITLE:경고;
#SUBTITLE:;
#ARTIST:타샤니;
#TITLETRANSLIT:GYOUNG GO;
#SUBTITLETRANSLIT:;
#ARTISTTRANSLIT:TASHANNIE;
#GENRE:;
#CREDIT:;
#BANNER:GYOUNG GO.png;
#BACKGROUND:GYOUNG GO-bg.png;
#LYRICSPATH:;
#CDTITLE:;
#MUSIC:GYOUNG GO.mp3;
#OFFSET:1.046000;
#SAMPLESTART:17.701000;
#SAMPLELENGTH:15.000000;
#LASTBEATHINT:0.084341;
#SELECTABLE:YES;
#BPMS:0.000000=110.010002
;
#STOPS:
;
#BGCHANGES:;
#KEYSOUNDS:;
#ATTACKS:;

//---------------dance-single - ----------------
#NOTES:
     dance-single:
     :
     Easy:
     4:
     0.285410,0.323240,0.301565,0.000000,0.000000,212.000000,180.000000,32.000000,0.000000,0.000000,0.000000,0.285410,0.323240,0.301565,0.000000,0.000000,212.000000,180.000000,32.000000,0.000000,0.000000,0.000000:
0000
0000
0000
0000
,
0000
0000
0000
0000
,
0000
0000
0000
0000
,
0010
1000
0100
0001
,
0010
1000
0100
0001
,
1000
0000
0001
0100
,
1000
0000
0001
0100
,
0001
0001
1000
1000
,
0001
1000
0010
0100
,
1001
0100
0001
0100
,
1001
0100
1000
0100
,
1000
1000
1000
1100
,
0001
0001
0001
0101
,
1000
1100
0001
0101
,
1000
0110
0001
0110
,
1000
1000
0001
1000
,
0001
1000
0100
0100
,
1000
0100
0010
0001
,
0001
0100
0010
1000
,
1000
0100
0010
0001
,
0001
0100
0010
1000
,
1000
0110
0001
0110
,
0010
1001
0100
0100
,
0001
0011
1000
1010
,
1000
0000
0000
0000
,
1000
0001
1100
1100
,
0010
0100
0101
0101
,
1000
0001
1000
0001
,
0100
0010
0100
0010
,
0100
0001
1000
1001
,
0100
1000
0001
1001
,
1000
0110
0001
0110
,
1000
0001
1000
0101
,
0001
1000
0001
0100
,
1000
0001
1000
0100
,
0001
0001
1000
1000
,
0001
0110
1000
0110
,
0100
0001
0010
1000
,
0100
0001
0010
1000
,
0010
0100
0010
0100
,
1000
1000
0001
1001
,
1000
0110
0001
0110
,
1000
0100
0001
0100
,
1000
0010
0100
0001
,
0001
1001
0100
1001
,
0010
0100
0100
1001
,
0010
1000
0100
1001
,
1000
0100
0001
0100
,
0010
1000
0100
1001
,
0100
0000
0000
0000
;

//---------------dance-single - ----------------
#NOTES:
     dance-single:
     :
     Medium:
     9:
     0.385034,0.415595,0.527739,0.000000,0.009424,286.000000,230.000000,56.000000,0.000000,0.000000,0.000000,0.385034,0.415595,0.527739,0.000000,0.009424,286.000000,230.000000,56.000000,0.000000,0.000000,0.000000:
0000
0000
0000
0000
,
0000
0000
0000
0000
,
0000
0000
0000
0000
,
1001
0100
1001
0100
,
1001
1000
1001
0001
,
0110
0000
1001
1001
,
0110
0000
1001
1001
,
0110
1001
0000
1001
,
0110
0000
0110
1001
,
0001
0000
1000
0000
0001
1000
0001
0000
,
1000
0000
0001
0000
1000
0001
1000
0000
,
0100
1001
0100
1001
,
0010
0100
0001
0000
1000
0010
0100
0000
,
0010
0000
0100
0000
0010
0100
0010
0000
,
0100
0000
0010
0000
0100
0010
0100
0000
,
1001
0100
1001
0100
,
1000
0001
0100
0000
0010
1000
0001
0000
,
0010
0000
0100
0000
1001
0110
1001
0000
,
1000
0000
0001
0000
0110
1001
0110
0000
,
0100
0100
0010
0010
,
1000
0001
1000
0000
1001
1001
1001
0000
,
0010
0010
0010
0000
0100
0100
0100
0000
,
0001
0001
0001
0000
1000
1000
1000
0000
,
0110
0110
1001
1001
,
0100
0000
0000
0000
0000
0000
0000
0000
0000
0100
0000
0100
0100
0000
0000
0000
,
0001
0000
1000
0000
0010
0100
0001
0000
,
0100
0000
0010
0000
0100
0001
1000
0000
,
0100
1100
1000
0000
0010
0011
0001
0000
,
0010
1000
0001
0000
1000
0001
0100
0000
,
0010
0000
0100
0000
0001
0100
1000
0000
,
0010
0000
1000
0000
0001
0100
1000
0000
,
1010
0100
0101
0010
,
1000
0001
1000
0000
0001
1000
0001
0000
,
0110
1001
1001
0110
,
1001
1001
0110
1001
,
0100
0001
1000
0000
0010
0100
0001
0000
,
1000
0001
1000
0001
1000
0001
1000
0001
,
1000
1000
1010
0000
0001
0001
0101
0000
,
0010
0010
1010
0000
0100
0100
0101
0000
,
1000
0010
0110
0000
0001
0100
0110
0000
,
1000
0001
1000
0001
1000
0001
1001
0000
,
0001
0000
1000
0000
0001
1000
0001
0000
,
1000
0000
0001
0000
1000
0001
1000
0000
,
0100
1001
0100
1001
,
0010
0100
0001
0000
1000
0010
0100
0000
,
0010
0000
0100
0000
0010
0100
0010
0000
,
0100
0000
0010
0000
0100
0010
0100
0000
,
1001
0100
1001
0100
,
1000
0001
0100
0000
0010
1000
0001
0000
,
1000
0000
0000
0000
;

//---------------dance-single - ----------------
#NOTES:
     dance-single:
     :
     Hard:
     12:
     0.421384,0.484860,0.659674,0.000000,0.131935,313.000000,243.000000,70.000000,0.000000,0.000000,0.000000,0.421384,0.484860,0.659674,0.000000,0.131935,313.000000,243.000000,70.000000,0.000000,0.000000,0.000000:
0000
0000
0000
0000
,
0000
0000
0000
0000
,
0000
0000
0000
0000
,
1010
1100
0011
0101
,
1000
0110
0100
1001
,
0000
1000
0000
0001
1000
0100
0010
0001
,
0000
1000
0000
1000
0010
0100
0010
1000
,
0000
0001
0100
0010
1000
0001
0100
1010
,
0000
0100
0000
0100
0100
0000
1001
0000
,
0001
0000
0100
0010
0000
1000
0000
1000
0000
0000
0000
0000
0001
0000
0000
0000
,
0100
0000
0001
1000
0000
0010
0000
0100
0000
0000
0000
0000
0001
0000
0000
0000
,
0100
1001
0010
1001
,
1010
1100
1010
1100
,
0001
0000
0001
1000
0000
0100
0000
0100
0000
0000
0000
0000
0010
0000
0000
0000
,
1000
0000
1000
0001
0000
0010
0000
0010
0000
0000
0000
0000
1001
0000
0000
0000
,
0110
0110
1000
0001
,
1010
0011
1010
0011
,
0000
1001
0000
1000
0000
0110
0000
0001
,
0000
0101
0000
1010
0000
0001
1000
0001
,
0000
1000
0000
1100
0000
1000
0000
1010
,
0000
0010
0000
1010
0000
0010
0000
0011
,
0000
1100
0000
1100
0000
0011
0000
0011
,
0000
0100
0100
0100
0000
0010
0010
0010
,
0000
0001
0001
0001
0000
1001
1001
1001
,
0100
0000
0000
0000
0100
0000
1000
0000
0000
0010
0000
0010
0010
0000
0000
0000
,
0000
0001
1000
0001
1000
0000
1001
0000
,
1000
0010
1000
0000
0010
0100
0100
0000
,
0000
0100
0000
1100
0000
0010
0000
0011
,
0000
1010
1000
0000
0000
1010
1100
0000
,
0000
0000
0001
1000
0000
0000
0100
0000
0010
0000
0000
0000
1000
0000
0000
0000
,
0000
0000
1000
0001
0000
0000
0010
0000
0010
0000
0000
0000
1001
0000
0000
0000
,
0000
0110
0000
1000
1001
0001
0001
0000
,
0000
0010
0010
0011
0010
0010
0011
0000
,
0100
0000
0100
0000
0100
0001
1000
0000
,
0010
0000
0010
0000
0010
1000
0001
0000
,
0100
0100
0010
0010
1000
1000
0001
0001
,
0100
0100
0100
0001
1000
0010
0100
0001
,
1000
0010
0100
0000
0001
0100
0010
0000
,
1001
0100
1001
0100
,
0010
1000
0001
0100
0001
1000
0001
1000
,
1001
1001
1001
1001
1001
0000
0100
0000
,
0001
0000
0100
0010
0000
1000
0000
1000
0000
0000
0000
0000
0001
0000
0000
0000
,
0100
0000
0001
1000
0000
0010
0000
0100
0000
0000
0000
0000
0001
0000
0000
0000
,
0100
1001
0010
1001
,
1010
1100
1010
1100
,
0001
0000
0001
1000
0000
0100
0000
0100
0000
0000
0000
0000
0010
0000
0000
0000
,
1000
0000
1000
0001
0000
0010
0000
0010
0000
0000
0000
0000
1001
0000
0000
0000
,
0110
0110
1000
0001
,
1010
0000
0011
0000
1001
1001
1001
1001
,
1001
0000
0000
0000
;

//---------------dance-double - ----------------
#NOTES:
     dance-double:
     :
     Easy:
     5:
     0.246368,0.277063,0.188478,0.000000,0.000000,183.000000,163.000000,20.000000,0.000000,0.000000,0.000000,0.246368,0.277063,0.188478,0.000000,0.000000,183.000000,163.000000,20.000000,0.000000,0.000000,0.000000:
00000000
00000000
00000000
00000000
,
00000000
00000000
00000000
00000000
,
00000000
00000000
00000000
00000000
,
00010000
00000000
10000000
00000000
,
00001000
00000000
00000100
00000000
,
00000001
00000000
00000110
00000110
,
00010000
00000000
01100000
01100000
,
10000000
00010000
10000000
00010000
,
01000000
00100000
10000000
00010000
,
10000000
01000000
10000000
00010000
,
00100000
00100000
00100000
00001000
,
00010000
00000100
00000010
00000001
,
00001000
00000001
00000001
00001001
,
00000010
00000100
00000010
00001000
,
00000100
00000100
00000100
00010000
,
00001000
00100000
00010000
01000000
,
10000000
00000000
10010000
00000000
01000000
00000000
01000000
01000000
,
00100000
00000000
00000000
00001100
,
00000010
00000000
00000000
01010000
,
10000000
10000000
00010000
00010000
,
01000000
01000000
00100000
00100000
,
10000000
00010000
00001000
00000001
,
00000010
00000010
00000100
00000100
,
00010000
00000010
00001000
00000001
,
00001000
00000000
10000000
10010000
,
10000000
01000000
10000000
00010000
,
01000000
00010000
00100000
00001000
,
00010000
00000010
00000100
00000001
,
00001000
00000001
00001000
00001001
,
00000010
00000100
00000010
00001000
,
00000100
00001000
00000100
00010000
,
00001000
00100000
00010000
01000000
,
10000000
10010000
01000000
01000000
,
00100000
00000000
01000000
00001000
,
00010000
00000000
00000010
00000100
,
00000101
00000000
00001010
00000000
,
00001001
00000000
10010000
00000000
,
00000000
00100000
00100000
00100000
,
01000000
00001000
00010000
00000100
,
00001001
00000000
00000000
00001001
,
00010000
00000000
00000000
00010000
,
10000000
01000000
10000000
00010000
,
00100000
00100000
00100000
00001000
,
00010000
00000100
00000010
00000001
,
00001000
00000001
00000001
00001001
,
00000010
00000100
00000010
00001000
,
00000100
00000100
00000100
00010000
,
00001000
00100000
00010000
01000000
,
10000000
10010000
01000000
00000000
,
10010000
00000000
00000000
00000000
;

//---------------dance-double - ----------------
#NOTES:
     dance-double:
     :
     Medium:
     9:
     0.345992,0.392506,0.499468,0.000000,0.000000,257.000000,204.000000,53.000000,0.000000,0.000000,0.000000,0.345992,0.392506,0.499468,0.000000,0.000000,257.000000,204.000000,53.000000,0.000000,0.000000,0.000000:
00000000
00000000
00000000
00000000
,
00000000
00000000
00000000
00000000
,
00000000
00000000
00000000
00000000
,
00010000
10000000
00100000
01000000
,
00001000
00010000
00000010
00000100
,
00000001
00000000
00001010
00001100
,
00010000
00000000
00010010
00001010
,
00010000
00010000
00100000
00100000
10000000
10000000
00010000
00010000
,
01000000
00110000
10010000
11000000
,
10000000
00000000
00010000
00000000
10000000
00010000
00001000
00000000
,
00000010
00000000
00001000
00000000
00000001
00001000
00010000
00000000
,
10000000
11000000
01100000
00110000
,
00011000
00000010
00000110
00001001
,
00000010
00000000
00000100
00000000
00000010
00010000
00001000
00000000
,
00100000
00000000
01000000
00000000
10000000
00010000
00001000
00000000
,
00000010
00001010
00010100
00101000
,
01010000
00000000
10100000
00000000
01000000
00000000
10010000
10000000
,
00100000
00000000
00000000
00001100
,
00000010
00000000
00000000
01010000
,
10000000
10000000
00010000
00010000
,
01000000
10010000
00100000
10010000
,
10000000
00000000
00000000
00001000
00010000
00000000
00000000
00000001
,
00000010
00001001
00000100
00001001
,
00010000
00000000
00000000
00000010
00001000
00000000
00000000
00100000
,
10000000
00000000
00010000
00000000
00000010
00000100
00001000
00000000
,
00000001
00000000
00010000
10000000
,
00100000
01000000
00100000
00001000
,
01000000
00010000
00100000
00001000
,
00010000
00010010
00001001
00010100
,
00101000
01000000
00010000
10000000
,
00010000
10010000
01000000
01100000
,
00001000
00101000
00010000
01010000
,
10000000
00000000
00010000
00000000
10010000
10010000
01100000
00000000
,
10000000
00000000
00000000
00010000
01000000
01000000
01000000
00000000
,
00010000
00000000
00000000
10000000
00100000
00100000
00100000
00000000
,
01000000
00010000
10000000
00000000
00010000
00100000
00001000
00000000
,
00000100
00000100
00000110
00000000
00000001
00000001
00000001
00000000
,
00001000
00000000
00000000
00000001
00000100
00000100
00000100
00000010
,
00001000
00000000
00001000
00000010
00010000
00010000
00010000
00000000
,
00000010
00001010
00010100
00101000
,
01010000
00000000
01000000
00000000
01000000
00010000
10000000
00000000
,
00010000
00000000
10000000
00000000
10000000
00010000
00001000
00000000
,
00000010
00000000
00001000
00000000
00000001
00001000
00010000
00000000
,
10000000
11000000
01100000
00110000
,
00011000
00000010
00000110
00001001
,
00000010
00000000
00000100
00000000
00000010
00010000
00001000
00000000
,
00100000
00000000
01000000
00000000
10000000
00010000
00001000
00000000
,
00000010
00001010
00010100
00101000
,
01010000
10100000
01000000
10010000
,
01000000
00000000
00000000
00000000
;

//---------------dance-double - ----------------
#NOTES:
     dance-double:
     :
     Hard:
     12:
     0.385034,0.507949,0.499468,0.000000,0.000000,286.000000,233.000000,53.000000,0.000000,0.000000,0.000000,0.385034,0.507949,0.499468,0.000000,0.000000,286.000000,233.000000,53.000000,0.000000,0.000000,0.000000:
00000000
00000000
00000000
00000000
,
00000000
00000000
00000000
00000000
,
00000000
00000000
00000000
00000000
,
10000000
10000000
00010000
00000000
01000000
01000000
00001000
00000000
,
00100000
00100000
00001000
00000000
00010000
00010000
00000010
00000000
,
00001000
00000100
00000010
00000001
00000000
00001000
00000000
00001001
,
00000100
00000100
00000100
00000000
00000000
01000000
00100000
10000000
,
00010000
10000000
00010000
01000000
00010000
00100000
00001000
00010000
,
00000000
00001000
00000000
00000100
00001000
00000010
00000000
00000100
,
00000001
00000000
00000000
00000000
00010000
01000000
01000000
01000000
,
00010000
00000000
00000000
00000000
10000000
00100000
00100000
00100000
,
00000000
00010000
10010000
00000000
00000000
00001000
00101000
00000000
,
00010000
00000010
00001000
00000001
00000100
00000010
00001000
00000001
,
00001000
00000000
00000000
00000100
00010000
00001000
00001000
00001000
,
00100000
00000000
00000000
00010000
10000000
01000000
01000000
01000000
,
00100000
00000000
00100000
00001000
00010000
00000000
00000010
00001000
,
00000001
00000100
00000010
00000000
00001000
00001000
00001000
00000000
,
00000000
00001001
00000000
00000110
00000000
00001001
00000000
00001001
,
00000000
00001010
00000000
00101000
00000000
01010000
00000000
10100000
,
00000000
01010000
01010000
01010000
00000000
10100000
10100000
10100000
,
00000000
00110000
00000000
10100000
00000000
00110000
00000000
10100000
,
10000000
00000000
10000000
00010000
01000000
00000000
01000000
00001000
,
00010000
00000000
00010000
00000010
00001000
00000001
00000100
00000010
,
00001000
00000000
00000001
00000000
00000010
00001000
00000001
00000100
,
00000110
00000000
00001000
00000100
00010000
00001000
00100000
00000000
,
10000000
00000000
00000001
00000000
,
00100000
00000000
00000100
00000000
,
10100000
11000000
10100000
11000000
,
00110000
01010000
00110000
01010000
,
01000000
00000000
01000000
01000000
00000000
00010000
10000000
00010000
,
10000000
00000000
00001000
00000000
,
00000010
00000100
00000110
00000101
,
00001010
00010100
00101000
01010000
,
10000000
00001000
00000001
00010000
,
10000000
00001000
00000001
00010000
,
00000010
01000000
00100000
00000100
,
01000000
00000010
00100000
00000100
,
11000000
01100000
00110000
00011000
,
00001100
00000110
00000011
00000101
,
00001001
00010010
00010100
00101000
,
10000000
00010000
01000000
00100000
10000000
00000000
00010000
00000000
,
00000100
00000000
00000000
00010000
00001000
01000000
01000000
01000000
,
00010000
00000000
00000000
10000000
00010000
00100000
00100000
00100000
,
10000000
10010000
01000000
00101000
,
00010000
00000010
00001000
00000000
00000100
00000001
00001000
00000000
,
00001000
00000000
00000000
00000100
00010000
00001000
00001000
00001000
,
00100000
00000000
00000000
00010000
10000000
01000000
01000000
01000000
,
00100000
00101000
00010000
00001010
,
00001000
00000001
00000100
00000010
00001000
00000000
00000001
00000000
,
00001001
00000000
00000000
00000000
;

//---------------dance-single - ----------------
#NOTES:
     dance-single:
     :
     Beginner:
     1:
     0.021540,0.023089,0.000000,0.009424,0.000000,16.000000,16.000000,0.000000,1.000000,0.000000,0.000000,0.021540,0.023089,0.000000,0.009424,0.000000,16.000000,16.000000,0.000000,1.000000,0.000000,0.000000:
0000
0000
0000
0000
,
0000
0000
0000
0000
,
0000
0000
0000
0000
,
0001
0000
0000
0000
,
0000
0000
0000
0000
,
0000
0000
0000
0000
,
0001
0000
0000
0000
,
0000
0000
0000
0000
,
0000
0000
0000
0000
,
0010
0000
0000
0000
,
0000
0000
0000
0000
,
0000
0000
0000
0000
,
0010
0000
0000
0000
,
0000
0000
0000
0000
,
0000
0000
0000
0000
,
0100
0000
0000
0000
,
0000
0000
0000
0000
,
0000
0000
0000
0000
,
0100
0000
0000
0000
,
0000
0000
0000
0000
,
0000
0000
0000
0000
,
1000
0000
0000
0000
,
0000
0000
0000
0000
,
0000
0000
0000
0000
,
1000
0000
0000
0000
,
0000
0000
0000
0000
,
0000
0000
0000
0000
,
0001
0000
0000
0000
,
0000
0000
0000
0000
,
0000
0000
0000
0000
,
0001
0000
0000
0000
,
0000
0000
0000
0000
,
0000
0000
0000
0000
,
0010
0000
0000
0000
,
0000
0000
0000
0000
,
0000
0000
0000
0000
,
0010
0000
0000
0000
,
0000
0000
0000
0000
,
0000
0000
0000
0000
,
0100
0000
0000
0000
,
0000
0000
0000
0000
,
0000
0000
0000
0000
,
1000
0000
0000
0000
,
0000
0000
0000
0000
,
0000
0000
0000
0000
,
0001
0000
0000
0000
,
0000
0000
0000
0000
,
0000
0000
0000
0000
,
0020
0000
0000
0000
,
0030
0000
0000
0000
;

//---------------dance-single - ----------------
#NOTES:
     dance-single:
     :
     Challenge:
     15:
     0.725642,0.761924,0.376957,0.065967,0.965951,539.000000,499.000000,40.000000,7.000000,0.000000,0.000000,0.725642,0.761924,0.376957,0.065967,0.965951,539.000000,499.000000,40.000000,7.000000,0.000000,0.000000:
// measure 0
0000
0000
0000
0000
,  // measure 1
0000
0000
0000
0000
,  // measure 2
0000
0000
0000
0000
,  // measure 3
1000
0000
1000
0100
0000
0000
0010
0000
0010
0001
0000
0000
0001
0000
0001
1000
0000
0000
1000
0000
1000
0001
0000
0000
,  // measure 4
0100
0000
0000
0000
0100
0000
0010
0000
0000
0000
0010
0000
1000
0000
0000
0000
1000
0000
0001
0000
0000
0000
0001
0000
0010
0000
0000
0000
0010
0000
0001
0000
0000
1000
0000
0000
0000
0000
0000
1001
0000
0000
0000
0000
0000
0001
0000
0000
,  // measure 5
0100
0010
0100
0010
1000
0010
1000
0010
0100
0000
0101
0000
1010
0000
0101
0000
,  // measure 6
0001
0100
1000
0100
0010
0100
1000
0100
1000
0000
1100
0000
0110
0000
0011
0000
,  // measure 7
0010
0001
0010
0001
0100
0010
0100
0010
1000
0000
1001
0000
0011
0000
1010
0000
,  // measure 8
1000
0000
0000
0010
0000
0000
0100
0000
0000
0001
0000
0000
1000
0000
0000
0001
0000
0000
1000
0000
0000
0001
0000
0000
1000
0000
0000
0000
1000
0000
0001
0000
0000
1000
0000
0000
0000
0000
0000
1001
0000
0000
0000
0000
0000
0000
0000
0000
,  // measure 9
0020
0000
0001
0100
0000
0100
0000
0130
0000
0000
0110
0000
0100
0000
1000
0200
,  // measure 10
0000
0000
1000
1000
0000
0010
0000
0010
0000
0000
0310
0000
0110
0000
0100
1000
,  // measure 11
0002
0000
1000
1000
0000
0100
0000
0100
0003
0000
0001
0010
0000
0100
0000
1000
,  // measure 12
0000
0000
0000
0000
0001
0000
0100
0000
0000
0000
0001
0000
1000
0000
0000
0000
1000
0000
0100
0000
0000
0000
0100
0000
0010
0000
0000
0000
0000
0000
0110
0000
0000
0000
0000
0000
0100
0000
0000
1000
0000
0000
0001
0000
0000
0000
0000
0000
,  // measure 13
2000
0000
0001
0001
0000
0010
0000
0010
3000
0000
1010
0000
1000
0000
0010
0100
,  // measure 14
0000
0001
0000
1000
0001
0100
0000
0110
0000
0000
0010
0000
1000
0000
0001
1000
,  // measure 15
0010
0000
0100
0001
0000
0010
0000
0001
0000
1000
0000
0001
0010
0001
0000
1000
,  // measure 16
0020
0000
0130
0000
0000
0000
0101
0000
0000
0000
1010
0000
0010
1000
0001
1000
,  // measure 17
0100
0000
1000
0100
0010
0100
1000
0000
0001
0100
0010
0100
0001
0000
1000
1000
,  // measure 18
0001
0100
0010
1000
0001
1000
0100
1000
0010
0100
0010
0100
0001
0000
0100
0010
,  // measure 19
0100
0000
0010
1000
0100
1000
0001
1000
0010
1000
0100
1000
0010
0000
0100
0010
,  // measure 20
1000
0010
0100
0010
1000
0010
0100
0010
1000
0001
0010
0001
0100
0010
1000
0100
,  // measure 21
1000
0001
0100
0010
1000
0001
0010
0001
1000
0010
0100
0010
1000
0010
0100
0010
,  // measure 22
1000
0001
0010
0001
0100
0001
1000
0001
0010
0010
0001
0010
0100
1000
0001
1000
,  // measure 23
0100
0100
1000
0100
0100
1000
0100
0010
0001
0001
0010
0001
0001
0010
0001
0010
,  // measure 24
0001
0000
1000
0000
0010
0000
0100
0010
0000
0000
0110
0000
0010
1000
0000
0000
,  // measure 25
1001
0000
0001
0000
1000
0000
0001
0000
0100
0000
0010
0000
1000
0100
1000
0200
,  // measure 26
0000
0000
0310
0000
0100
0000
1000
0100
0010
0100
1000
0000
1000
0000
0001
0000
,  // measure 27
0100
0000
0010
0000
1000
0000
0001
0000
0010
0000
0001
0000
1000
0000
0010
0100
,  // measure 28
0001
0000
0001
0000
1001
0000
1000
0001
0100
0010
0100
0000
0110
0000
0000
0000
,  // measure 29
0110
0000
0010
0000
1000
0000
0001
0000
0100
0000
0010
0000
1000
0010
0100
0002
,  // measure 30
0000
0013
0000
0011
0000
0101
0001
1000
,  // measure 31
0000
0100
1000
0000
0000
0001
0010
0000
0100
0000
0100
0000
1000
0001
0100
0010
,  // measure 32
0100
0000
0010
0000
0100
0000
0010
0000
1000
0000
0001
0000
1000
0001
1000
0001
,  // measure 33
0010
0000
0001
0000
0010
0000
0001
0000
1000
0000
0010
0000
0100
0000
0001
0100
,  // measure 34
0000
0100
0010
0000
1000
0000
0001
0000
1000
0000
0100
0000
0010
0000
0001
0010
,  // measure 35
0000
0100
1000
0000
0001
0000
0010
0000
0100
0000
1000
0000
0001
0000
0100
0010
,  // measure 36
0000
0100
0010
0000
1000
0000
0001
0010
0100
0000
1000
0000
0100
1000
0100
0000
,  // measure 37
1000
0000
0001
0000
0010
0000
0001
0000
1000
0000
0010
0000
0100
0000
0001
0010
,  // measure 38
0000
0010
0001
0000
1000
0010
0000
0110
0000
0100
0001
0000
1000
0000
0001
1000
,  // measure 39
0010
0000
0100
0001
0000
1000
0010
0100
0001
0000
0010
0001
0000
0101
0000
0110
,  // measure 40
0000
0000
0000
0000
0010
0000
0100
0000
0000
0000
0100
0000
1000
0000
0000
0000
1000
0000
0001
0000
0000
0000
0001
0000
1000
0000
0000
0000
1000
0000
0001
0000
0000
1000
0000
0000
0000
0000
0000
1001
0000
0000
0000
0000
0000
0000
0000
0000
,  // measure 41
1100
0000
1000
0010
0000
0110
0000
0101
0000
0000
0001
0000
0010
0000
0100
1000
,  // measure 42
0000
1000
0001
1000
0000
0010
0000
0100
0000
0000
0001
0000
1001
0000
1000
0010
,  // measure 43
0100
0000
0001
0010
0000
0001
0000
1000
0001
0000
0010
0100
0000
0010
0000
1000
,  // measure 44
0000
0000
0000
0000
1000
0000
0100
0000
0000
0000
0100
0000
0010
0000
0000
0000
0010
0000
0001
0000
0000
0000
0001
0000
1000
0000
0000
0000
0000
0000
1001
0000
0000
0000
0000
0000
0001
0000
0000
1000
0000
0000
0100
0000
0000
0000
0000
0000
,  // measure 45
1000
0000
0010
0100
0000
0101
0000
1001
0000
0000
1000
0000
0100
0010
0001
0010
,  // measure 46
0000
0001
0010
0000
0001
1000
0000
0110
0000
0000
1000
0000
0100
0000
1000
0001
,  // measure 47
0010
0000
0001
0010
0000
0011
0000
1010
0000
1100
0000
1000
0100
1000
0000
0000
,  // measure 48
0100
0000
0000
0000
0100
0000
1000
0000
0000
0000
1000
0000
0001
0000
0000
0000
0001
0000
1000
0000
0000
0000
1000
0000
0001
0000
0000
0000
0001
0000
1000
0000
0000
0000
1000
0000
0001
0000
0000
0010
0000
0000
0100
0000
0000
1000
0000
0000
,  // measure 49
0001
0000
0000
0000
;
