#VERSION:0.83;
#TITLE:GIVE ME UP;
#SUBTITLE:;
#ARTIST:LH MUSIC CREATION;
#TITLETRANSLIT:;
#SUBTITLETRANSLIT:;
#ARTISTTRANSLIT:;
#GENRE:;
#ORIGIN:;
#CREDIT:;
#BANNER:GIVE ME UP.png;
#BACKGROUND:GIVE ME UP-bg.png;
#PREVIEWVID:;
#JACKET:GIVE ME UP-jacket.png;
#CDIMAGE:;
#DISCIMAGE:;
#LYRICSPATH:;
#CDTITLE:;
#MUSIC:GIVE ME UP.ogg;
#OFFSET:0.000000;
#SAMPLESTART:51.220001;
#SAMPLELENGTH:15.000000;
#SELECTABLE:YES;
#BPMS:0.000=130.000;
#STOPS:;
#DELAYS:;
#WARPS:;
#TIMESIGNATURES:0.000=4=4;
#TICKCOUNTS:0.000=4;
#COMBOS:0.000=1;
#SPEEDS:0.000=1.000=0.000=0;
#SCROLLS:0.000=1.000;
#FAKES:;
#LABELS:0.000=Song Start;
#BGCHANGES:;
#KEYSOUNDS:;
#ATTACKS:
;

//---------------dance-single - ----------------
#NOTEDATA:;
#CHARTNAME:;
#STEPSTYPE:dance-single;
#DESCRIPTION:;
#CHARTSTYLE:;
#DIFFICULTY:Beginner;
#METER:3;
#RADARVALUES:0.157437,0.207388,0.070131,0.000000,0.000000,110.000000,103.000000,7.000000,0.000000,0.000000,0.000000,0.000000,0.000000,0.000000,0.157437,0.207388,0.070131,0.000000,0.000000,110.000000,103.000000,7.000000,0.000000,0.000000,0.000000,0.000000,0.000000,0.000000;
#CREDIT:;
#NOTES:
0000
0000
0000
0000
,
0000
0000
0000
0000
,
0000
0000
0000
0000
,
0000
0000
0000
0000
,
0000
0000
0000
0000
,
0010
0000
0000
0000
,
0000
0000
0000
0000
,
1000
0000
0001
0000
,
0010
0000
0100
0000
,
0100
0000
0100
0000
,
0010
0000
0010
0000
,
0010
0010
0010
0000
,
0100
0000
0100
0000
,
1000
1000
1000
0000
,
0100
0000
0010
0000
,
0100
0100
0100
0000
,
0010
0000
0010
0000
,
0001
0001
0001
0000
,
0010
0000
0100
0000
,
0001
0001
0001
0001
,
0000
0110
0000
0100
,
0000
0010
0010
0010
,
0000
0010
0010
0010
,
0000
1000
1000
1000
,
0000
0110
0000
0100
,
0000
0100
0000
0010
,
0000
0100
0000
0100
,
0000
0000
0000
0100
,
0000
0010
0000
0100
,
0000
0001
0000
0001
,
0000
0010
0000
0100
,
0000
1000
0000
1000
,
0000
0100
0000
0010
,
0000
0001
0000
0100
,
0100
0100
0000
0010
,
0000
1000
0000
0010
,
0000
0010
0000
0100
,
0000
0001
0000
0001
,
0000
0100
0000
0100
,
0000
1000
0000
1000
,
0000
0100
0000
0010
,
0000
0001
0000
0100
,
0100
0000
0001
0000
,
0100
0000
0010
0010
,
0000
0110
0000
0100
,
0000
0110
0000
0010
,
0000
1001
0000
1000
,
0000
1001
0000
1001
,
0000
0001
0000
0100
,
0000
0010
0010
0010
,
0000
1000
1000
1000
,
0000
0100
0000
0001
,
0000
0000
0000
0000
;

//---------------dance-single - ----------------
#NOTEDATA:;
#CHARTNAME:;
#STEPSTYPE:dance-single;
#DESCRIPTION:;
#CHARTSTYLE:;
#DIFFICULTY:Easy;
#METER:5;
#RADARVALUES:0.279093,0.345145,0.310581,0.020037,0.000000,195.000000,164.000000,31.000000,2.000000,0.000000,0.000000,0.000000,0.000000,0.000000,0.279093,0.345145,0.310581,0.020037,0.000000,195.000000,164.000000,31.000000,2.000000,0.000000,0.000000,0.000000,0.000000,0.000000;
#CREDIT:;
#NOTES:
0000
0000
0000
0000
,
0000
0000
0000
0000
,
0000
0000
0000
0000
,
0000
0000
0000
0000
,
0000
0000
0000
0000
,
0010
0000
0000
0000
,
0000
0000
0000
0000
,
1000
0000
0001
0000
,
0010
0000
0100
0000
,
0100
0000
0100
0000
,
0010
0000
0010
1001
,
0010
0010
0010
0000
,
0100
0000
0100
0010
,
1000
1000
1000
0000
,
0100
0000
0010
0110
,
0100
0100
0100
0000
,
0010
0000
0010
0100
,
0001
0001
0001
0000
,
0010
0000
0100
0110
,
0001
0101
0001
0001
,
0100
0110
0100
0100
,
0010
1010
0010
0010
,
1000
1010
0010
1010
,
1000
1100
1000
1000
,
0100
0110
0100
0100
,
0010
0011
0010
0010
,
0001
0011
0010
0011
,
0000
0000
0000
0100
,
0010
0010
1000
0100
,
0010
0001
0100
0101
,
0010
0010
0001
0100
,
0010
1000
0100
1100
,
0100
0100
1000
0010
,
0100
0001
0010
0011
,
0100
0100
0001
0010
,
0100
1000
0010
1010
,
0100
0010
1000
0100
,
0010
0001
0100
0101
,
0010
0100
0001
0100
,
0010
1000
0100
1100
,
0010
0100
1000
0010
,
0100
0001
0010
0011
,
0100
0010
0001
0010
,
0100
1000
0010
1010
,
0100
0110
0100
0100
,
0010
0110
0010
0010
,
1000
1001
1000
1000
,
0001
1001
0001
1001
,
0100
0101
0100
0100
,
0010
1010
0010
0010
,
1000
1100
1000
1000
,
0001
0011
0001
0001
,
2002
0000
0000
0000
,
3003
0000
0000
0000
,
0000
0000
0000
0000
;

//---------------dance-single - ----------------
#NOTEDATA:;
#CHARTNAME:;
#STEPSTYPE:dance-single;
#DESCRIPTION:;
#CHARTSTYLE:;
#DIFFICULTY:Medium;
#METER:7;
#RADARVALUES:0.362106,0.424794,0.470881,0.300562,0.000000,253.000000,206.000000,47.000000,30.000000,0.000000,0.000000,0.000000,0.000000,0.000000,0.362106,0.424794,0.470881,0.300562,0.000000,253.000000,206.000000,47.000000,30.000000,0.000000,0.000000,0.000000,0.000000,0.000000;
#CREDIT:;
#NOTES:
0000
0000
0000
0000
,
0000
0000
0000
0000
,
0000
0000
0000
0000
,
0000
0000
0000
0000
,
0000
0000
0000
0000
,
0010
0000
0000
0000
,
0000
0000
0000
0000
,
2000
3010
0002
0013
,
0200
0301
0020
1030
,
0002
0013
2000
3010
,
0200
0301
0020
1030
,
0101
0000
1001
0000
0010
0100
0000
0010
,
0000
0001
1000
0000
1010
0000
0101
0000
,
0011
0000
1001
0000
0100
0010
0000
0000
,
1100
1001
0011
1001
,
1100
0000
1001
0000
0010
0100
0000
0010
,
0000
1000
0001
0000
0011
0000
1100
0000
,
1010
0000
1001
0000
0100
0010
0000
0000
,
0101
1001
1010
1001
,
0010
0100
0001
0000
0100
0000
0101
0000
,
0010
0100
1000
0000
0100
0000
1100
0000
,
0010
0100
0010
0000
0001
0000
0101
0000
,
2010
3100
0012
0103
,
0100
0010
1000
0000
0010
0000
1010
0000
,
0100
0010
0001
0000
0010
0000
0011
0000
,
0100
0010
0100
0000
1000
0000
1010
0000
,
0102
0013
2100
3010
,
0000
0000
0000
0100
,
0010
0000
1010
0000
0001
0100
0001
0000
,
0100
0000
0010
1000
0010
0000
1001
0000
,
0010
0000
0011
0000
1000
0100
1000
0000
,
0100
0000
0010
0001
0010
0000
1001
0000
,
0100
0000
1100
0000
0001
0010
0001
0000
,
0010
0000
0100
1000
0100
0000
1001
0000
,
0100
0000
0101
0000
1000
0010
1000
0000
,
0010
0000
0100
0001
0100
0000
1001
0000
,
0100
0000
1010
0000
0001
0100
0001
0000
,
0100
0000
0010
1000
0010
0000
1001
0000
,
0100
0000
0011
0000
1000
0100
1000
0000
,
0100
0000
0010
0001
0010
0000
1001
0000
,
0010
0000
1100
0000
0001
0010
0001
0000
,
0010
0000
0100
1000
0100
0000
1001
0000
,
0010
0000
0101
0000
1000
0010
1000
0000
,
0010
0000
0100
0001
0100
0000
1001
0000
,
2000
3010
0002
0013
,
0200
0000
0301
0000
0020
0000
1030
0100
,
2000
3010
0002
0013
,
0200
0000
1300
0000
0020
0000
0031
0100
,
0002
0103
2000
3100
,
0020
0000
1030
0000
0200
0000
0301
0010
,
0002
0103
2000
3100
,
0020
0031
0200
1300
,
2002
0000
0000
0000
,
3003
0000
0000
0000
,
0000
0000
0000
0000
;

//---------------dance-single - ----------------
#NOTEDATA:;
#CHARTNAME:;
#STEPSTYPE:dance-single;
#DESCRIPTION:;
#CHARTSTYLE:;
#DIFFICULTY:Hard;
#METER:11;
#RADARVALUES:0.500937,0.584092,0.791480,0.130244,0.135253,350.000000,271.000000,79.000000,13.000000,0.000000,0.000000,0.000000,0.000000,0.000000,0.500937,0.584092,0.791480,0.130244,0.135253,350.000000,271.000000,79.000000,13.000000,0.000000,0.000000,0.000000,0.000000,0.000000;
#CREDIT:;
#NOTES:
0000
0000
0000
0000
,
0000
0000
0000
0000
,
0000
0000
0000
0000
,
0000
0000
0000
0000
,
0000
0000
0000
0000
,
0010
0000
0000
0000
,
0000
0000
0000
0000
,
2000
0000
0000
0001
3000
0000
0010
0000
0002
0000
0000
1000
0003
0000
0010
0000
,
2000
0000
0000
0001
3000
0000
0010
0000
0002
0000
0000
1000
0003
0000
0100
0000
,
2000
0000
0000
0001
3000
0000
0100
0000
0002
0000
0000
1000
0003
0000
0100
0000
,
2000
0000
0000
0001
3000
0000
0010
0000
0001
0000
0100
0000
0010
0000
1000
0000
,
0101
0000
1010
0000
0001
0100
0000
0010
,
0000
1000
0001
0000
1000
0100
0010
0001
,
1010
0000
0101
0000
0100
0010
0000
0100
,
0101
0000
1010
0000
1100
0001
0011
0000
,
1010
0000
0101
0000
1000
0010
0000
0100
,
0000
0001
1000
0000
0001
0010
0100
1000
,
0101
0000
1010
0000
0010
0100
0000
0010
,
1010
0000
0101
0000
0011
1000
1100
0000
,
1001
1000
1100
0000
1001
0001
0101
0000
,
1001
0100
0110
0000
1010
0000
0101
0000
,
1001
0001
0011
0000
1001
1000
1010
0000
,
1001
0110
0101
1010
,
1001
0100
1100
0000
1001
0100
0101
0000
,
1001
0100
0110
0000
1010
0000
0101
0000
,
1001
0010
0011
0000
1001
0010
1010
0000
,
1001
0110
0101
1010
,
0000
0000
0000
0000
0000
0000
0100
0010
,
1000
0100
1100
0000
0001
0100
0101
0000
,
0020
0000
1030
0001
0101
0000
1010
0000
,
0001
0100
0101
0000
1000
0100
1100
0000
,
0020
0000
0031
1000
1001
0000
0100
0010
,
1000
0010
1010
0000
0001
0010
0011
0000
,
0200
0000
1300
0001
0011
0000
1100
0000
,
0001
0010
0011
0000
1000
0010
1010
0000
,
0200
0000
0301
1000
1001
0000
0010
0100
,
1000
0001
0100
0001
1000
0100
1000
0001
,
0100
0001
1000
0100
1000
0001
0101
0000
,
0001
1000
0100
1000
0001
0100
0001
1000
,
0100
1000
0001
0100
0001
1000
1100
0000
,
1000
0001
0010
0001
1000
0010
1000
0001
,
0010
0001
1000
0010
1000
0001
0011
0000
,
0001
1000
0010
1000
0001
0010
0001
1000
,
0010
1000
0001
0010
0001
1000
1010
0000
,
0110
0000
0000
0001
0000
0000
0001
0000
0110
0000
0000
1000
0000
0000
1000
0000
,
0110
0000
0000
0001
0000
0000
1000
0000
0010
0100
0000
0001
0000
0000
1000
0000
,
0110
0000
0000
1000
0000
0000
1000
0000
0110
0000
0000
0001
0000
0000
0001
0000
,
0110
0000
0000
1000
0000
0000
0001
0000
0100
0010
0000
1000
0000
0000
0001
0000
,
1001
0000
0000
0010
0000
0000
0010
0000
1001
0000
0000
0100
0000
0000
0100
0000
,
1001
0000
0000
0100
0000
0000
0010
0000
1000
0001
0000
0100
0000
0000
0010
0000
,
1001
0000
0000
0100
0000
0000
0100
0000
1001
0000
0000
0010
0000
0000
0010
0000
,
1001
0000
0000
0100
0000
0000
0010
0000
1000
0001
0000
0100
0000
0000
0010
0000
,
2002
0000
0000
0000
,
3003
0000
0000
0000
;

//---------------dance-double - ----------------
#NOTEDATA:;
#CHARTNAME:;
#STEPSTYPE:dance-double;
#DESCRIPTION:;
#CHARTSTYLE:;
#DIFFICULTY:Easy;
#METER:5;
#RADARVALUES:0.279093,0.345145,0.320599,0.020037,0.000000,195.000000,163.000000,32.000000,2.000000,0.000000,0.000000,0.000000,0.000000,0.000000,0.279093,0.345145,0.320599,0.020037,0.000000,195.000000,163.000000,32.000000,2.000000,0.000000,0.000000,0.000000,0.000000,0.000000;
#CREDIT:;
#NOTES:
00000000
00000000
00000000
00000000
,
00000000
00000000
00000000
00000000
,
00000000
00000000
00000000
00000000
,
00000000
00000000
00000000
00000000
,
00000000
00000000
00000000
00000000
,
00100000
00000000
00000000
00000000
,
00000000
00000000
00000000
00000000
,
00010000
00000000
10000000
00000000
,
00100000
00000000
01000000
00000000
,
00001000
00000000
00010000
00000000
,
00000100
00000000
00000010
00001001
,
00000010
00000010
00000010
00000000
,
00000100
00000000
00000100
00001000
,
00010000
00010000
00010000
00000000
,
00100000
00000000
00100000
10010000
,
01000000
01000000
01000000
00000000
,
00100000
00000000
00100000
00010000
,
00001000
00001000
00001000
00000000
,
00000100
00000000
00000100
00001001
,
00000100
00000110
00000100
00000100
,
00001000
00001100
00001000
00001000
,
00010000
00011000
00010000
00010000
,
00100000
01100000
00010000
10010000
,
01000000
01100000
01000000
01000000
,
00010000
01010000
00010000
00010000
,
00001000
00011000
00001000
00001000
,
00000010
00000110
00001000
00001001
,
00000000
00000000
00000000
00000000
,
00000010
00000010
00000001
00000100
,
00001000
00010000
01000000
11000000
,
00100000
00100000
10000000
01000000
,
00010000
00001000
00000100
00000101
,
00000100
00000100
00000001
00000010
,
00001000
00010000
00100000
10100000
,
01000000
01000000
10000000
00100000
,
00010000
00001000
00000010
00000011
,
00000100
00001000
00000001
00000100
,
00001000
00010000
00100000
10010000
,
01000000
00010000
10000000
01000000
,
00010000
00001000
00000010
00001001
,
00000010
00001000
00000001
00000010
,
00001000
00010000
01000000
10010000
,
00100000
00010000
10000000
00100000
,
00010000
00001000
00000100
00001001
,
00000100
00000110
00000100
00000100
,
00001000
00001100
00001000
00001000
,
00010000
00011000
00010000
00010000
,
00100000
00110000
00100000
00110000
,
10000000
10100000
10000000
10000000
,
01000000
11000000
01000000
01000000
,
00010000
01010000
00010000
00010000
,
00001000
00011000
00001000
00011000
,
00022000
00000000
00000000
00000000
,
00033000
00000000
00000000
00000000
,
00000000
00000000
00000000
00000000
;

//---------------dance-double - ----------------
#NOTEDATA:;
#CHARTNAME:;
#STEPSTYPE:dance-double;
#DESCRIPTION:;
#CHARTSTYLE:;
#DIFFICULTY:Medium;
#METER:7;
#RADARVALUES:0.369262,0.424794,0.551030,0.320599,0.000000,258.000000,203.000000,55.000000,32.000000,0.000000,0.000000,0.000000,0.000000,0.000000,0.369262,0.424794,0.551030,0.320599,0.000000,258.000000,203.000000,55.000000,32.000000,0.000000,0.000000,0.000000,0.000000,0.000000;
#CREDIT:;
#NOTES:
00000000
00000000
00000000
00000000
,
00000000
00000000
00000000
00000000
,
00000000
00000000
00000000
00000000
,
00000000
00000000
00000000
00000000
,
00000000
00000000
00000000
00000000
,
00100000
00000000
00000000
00000000
,
00000000
00000000
00000000
00000000
,
20000000
31000000
00020000
00031000
,
00000020
00000031
00000101
00001010
,
00000002
00000103
00002000
00013000
,
00200000
10300000
11000000
00110000
,
01100000
00000000
11000000
00000000
00100000
00001000
00000000
00010000
,
00000000
00000100
00000010
00000000
00000011
00000000
00001001
00000000
,
00000101
00000000
00000110
00000000
00010000
00001000
00000000
00000000
,
01001000
01010000
01100000
10100000
,
01100000
00000000
10100000
00000000
01000000
00001000
00000000
00010000
,
00000000
00000010
00000100
00000000
00000101
00000000
00001001
00000000
,
00000011
00000000
00000110
00000000
00010000
00001000
00000000
00000000
,
00101000
00110000
01100000
11000000
,
10000000
00010000
01000000
00000000
00001000
00000000
00011000
00000000
,
00000100
00000010
00000001
00000000
00000100
00000000
00000110
00000000
,
00010000
00001000
01000000
00000000
00100000
00000000
10010000
00000000
,
12000000
03010000
10200000
00310000
,
10000000
00010000
00100000
00000000
00001000
00000000
00011000
00000000
,
00000010
00000100
00000001
00000000
00000010
00000000
00000110
00000000
,
00010000
00001000
00100000
00000000
01000000
00000000
10010000
00000000
,
10200000
00310000
12000000
03010000
,
00000000
00000000
00000000
00100000
,
01000000
00000000
01010000
00000000
00100000
00001000
00010000
00000000
,
00000010
00000000
00000100
00000001
00001000
00000000
00000110
00000000
,
00000100
00000000
00001100
00000000
00000010
00010000
00001000
00000000
,
00100000
00000000
01000000
10000000
00010000
00000000
01100000
00000000
,
00100000
00000000
00110000
00000000
01000000
00001000
00010000
00000000
,
00000100
00000000
00000010
00000001
00001000
00000000
00000110
00000000
,
00000010
00000000
00001010
00000000
00000100
00010000
00001000
00000000
,
01000000
00000000
00100000
10000000
00010000
00000000
01100000
00000000
,
02000000
00000000
03010000
00000000
00100000
00001000
00010000
00000000
,
00000020
00000000
00000130
00000001
00001000
00000000
00000110
00000000
,
00000200
00000000
00001300
00000000
00000010
00010000
00001000
00000000
,
00200000
00000000
01300000
10000000
00010000
00000000
01100000
00000000
,
00200000
00000000
00310000
00000000
01000000
00001000
00010000
00000000
,
00000200
00000000
00000310
00000001
00001000
00000000
00000110
00000000
,
00000020
00000000
00001030
00000000
00000100
00010000
00001000
00000000
,
02000000
00000000
03100000
10000000
00010000
00000000
01100000
00000000
,
20000000
31000000
00020000
00031000
,
00000020
00000031
00000101
00001010
,
00000002
00000103
00002000
00013000
,
00200000
10300000
11000000
00110000
,
00000002
00000103
00002000
00013000
,
00200000
10300000
11000000
00110000
,
20000000
31000000
00020000
00031000
,
00000020
00000031
00000101
00001010
,
00002002
00000000
00000000
00000000
,
00003003
00000000
00000000
00000000
,
00000000
00000000
00000000
00000000
;

//---------------dance-double - ----------------
#NOTEDATA:;
#CHARTNAME:;
#STEPSTYPE:dance-double;
#DESCRIPTION:;
#CHARTSTYLE:;
#DIFFICULTY:Hard;
#METER:11;
#RADARVALUES:0.446549,0.477894,0.450843,0.270506,0.105197,312.000000,267.000000,45.000000,27.000000,0.000000,0.000000,0.000000,0.000000,0.000000,0.446549,0.477894,0.450843,0.270506,0.105197,312.000000,267.000000,45.000000,27.000000,0.000000,0.000000,0.000000,0.000000,0.000000;
#CREDIT:;
#NOTES:
00000000
00000000
00000000
00000000
,
00000000
00000000
00000000
00000000
,
00000000
00000000
00000000
00000000
,
00000000
00000000
00000000
00000000
,
00000000
00000000
00000000
00000000
,
00100000
00000000
00000000
00000000
,
00000000
00000000
00000000
00000000
,
20000000
00000000
00000000
00100000
30000000
00000000
00010000
00000000
00002000
00000000
00000000
00000010
00003000
00000000
00000001
00000000
,
00000020
00000000
00000000
00001000
00000030
00000000
00010000
00000000
00002000
00000000
00000000
00100000
00003000
00000000
01000000
00000000
,
00020000
00000000
00000000
00001000
00030000
00000000
00000100
00000000
00000020
00000000
00000000
00001000
00000030
00000000
00000001
00000000
,
00000200
00000000
00000000
00001000
00000300
00000000
00010000
00000000
00100000
00000000
00010000
00000000
00001000
00000000
00000010
00000000
,
00000011
00000000
00001100
00000000
00000010
00000001
00000000
00000100
,
00000000
00001000
00010000
00000000
00001000
00010000
01000000
00100000
,
00110000
00000000
11000000
00000000
00100000
10000000
00000000
01000000
,
00100000
00000000
00001000
00000000
00010000
00001000
01010000
00000000
,
10100000
00000000
01010000
00000000
00100000
10000000
00000000
01000000
,
00000000
00010000
00001000
00000000
00010000
00001000
00000100
00000010
,
00001010
00000000
00000101
00000000
00000010
00000001
00000000
00000100
,
00000010
00000000
00010000
00000000
00001000
00010000
00001100
00000000
,
00000010
00000001
00001001
00000000
00000100
00001000
00011000
00000000
,
01000000
10000000
10010000
00000000
10100000
00000000
01010000
00000000
,
00100000
10000000
10010000
00000000
01000000
00010000
00011000
00000000
,
00001100
00001001
00000011
00001001
,
00000100
00000001
00001001
00000000
00000010
00001000
00011000
00000000
,
00100000
10000000
10010000
00000000
11000000
00000000
00110000
00000000
,
01000000
10000000
10010000
00000000
00100000
00010000
00011000
00000000
,
00001010
00001001
00000101
00001001
,
00000000
00000000
00000000
00000000
00000000
00000000
00000100
00000010
,
00000001
00000100
00000101
00000000
00000100
00001000
00001100
00000000
,
00010000
00000000
00002000
01000000
00103000
00000000
01010000
00000000
,
10000000
01000000
11000000
00000000
01000000
00010000
01010000
00000000
,
00001000
00000000
00020000
00000100
00030010
00000000
00001100
00000000
,
00000001
00000010
00000011
00000000
00000010
00001000
00001010
00000000
,
00010000
00000000
00002000
00100000
01003000
00000000
00110000
00000000
,
10000000
00100000
10100000
00000000
00100000
00010000
00110000
00000000
,
00001000
00000000
00020000
00000010
00030100
00000000
00001010
00000000
,
00000001
00000100
00001000
00010000
00001000
00000100
00001000
00010000
,
01000000
00010000
00001000
00000100
00001000
00010000
01000000
00000000
,
10000000
01000000
00010000
00001000
00010000
01000000
00010000
00001000
,
00000100
00001000
00010000
01000000
00010000
00001000
00000100
00000000
,
00000001
00000010
00001000
00010000
00001000
00000010
00001000
00010000
,
00100000
00010000
00001000
00000010
00001000
00010000
00100000
00000000
,
10000000
00100000
00010000
00001000
00010000
00100000
00010000
00001000
,
00000010
00001000
00010000
00100000
00010000
00001000
00000010
00000000
,
00000002
00000000
00000000
00000010
00000003
00000000
00001000
00000000
00020000
00000000
00000000
00100000
00030000
00000000
10000000
00000000
,
00200000
00000000
00000000
00010000
00300000
00000000
00001000
00000000
00020000
00000000
00000000
00000010
00030000
00000000
00000100
00000000
,
00002000
00000000
00000000
00010000
00003000
00000000
01000000
00000000
00200000
00000000
00000000
00010000
00300000
00000000
10000000
00000000
,
02000000
00000000
00000000
00010000
03000000
00000000
00001000
00000000
00000010
00000000
00001000
00000000
00010000
00000000
00100000
00000000
,
20000000
00000000
00000000
00100000
30000000
00000000
00010000
00000000
00002000
00000000
00000000
00000010
00003000
00000000
00000001
00000000
,
00000020
00000000
00000000
00001000
00000030
00000000
00010000
00000000
00002000
00000000
00000000
00100000
00003000
00000000
01000000
00000000
,
00020000
00000000
00000000
00001000
00030000
00000000
00000100
00000000
00000020
00000000
00000000
00001000
00000030
00000000
00000001
00000000
,
00000200
00000000
00000000
00001000
00000300
00000000
00010000
00000000
00100000
00000000
00010000
00000000
00001000
00000000
00000010
00000000
,
00002002
00000000
00000000
00000000
,
00003003
00000000
00000000
00000000
,
00000000
00000000
00000000
00000000
;

//---------------dance-single - ----------------
#NOTEDATA:;
#CHARTNAME:;
#STEPSTYPE:dance-single;
#DESCRIPTION:;
#CHARTSTYLE:;
#DIFFICULTY:Challenge;
#METER:13;
#RADARVALUES:0.709899,0.902688,1.873503,0.060112,0.065122,496.000000,309.000000,187.000000,6.000000,0.000000,0.000000,0.000000,0.000000,0.000000,0.709899,0.902688,1.873503,0.060112,0.065122,496.000000,309.000000,187.000000,6.000000,0.000000,0.000000,0.000000,0.000000,0.000000;
#CREDIT:;
#NOTES:
// measure 0
0000
0000
0000
0000
,  // measure 1
0000
0000
0000
0000
,  // measure 2
0000
0000
0000
0000
,  // measure 3
0000
0000
0000
0000
,  // measure 4
0000
0000
0000
0000
,  // measure 5
0021
0000
0000
0000
0000
0000
0000
0000
0000
0000
0000
0000
0030
0000
0100
0010
,  // measure 6
0210
0000
0000
0300
1001
0000
0000
1000
,  // measure 7
1100
0000
0000
1010
0000
0000
0011
0000
0101
0000
0000
0110
0000
0000
1010
0000
,  // measure 8
1001
0000
0000
0101
0000
0000
1100
0000
1010
0000
0000
0110
0000
0000
0011
0000
,  // measure 9
0101
0000
0000
0110
0000
0000
1010
0000
1100
0000
0000
0101
0000
0000
0011
0000
,  // measure 10
1001
0000
0000
0101
0000
0000
1010
0000
0011
0000
0000
0010
1000
0000
0100
0000
,  // measure 11
1100
0000
1001
0000
0101
0100
0000
0110
,  // measure 12
0000
0000
0000
1000
1001
0001
0101
0100
,  // measure 13
0110
0000
1010
0000
1100
0100
0000
0000
,  // measure 14
0101
0000
0000
1100
0000
0000
1001
0001
,  // measure 15
0101
0000
0110
0000
1010
0010
0000
1100
,  // measure 16
0000
0000
0000
1000
1001
0001
0101
0100
,  // measure 17
0110
0000
1010
0000
0011
0001
0000
0101
,  // measure 18
1100
0000
0000
0101
0000
0100
0010
0100
,  // measure 19
1001
0100
0010
0100
1001
0100
0010
0100
,  // measure 20
1001
0100
0010
0100
1001
0001
1000
0001
,  // measure 21
0110
0001
1000
0001
0110
0001
1000
0001
,  // measure 22
0110
0001
1000
0001
0110
0100
1000
0100
,  // measure 23
1010
0100
1000
0100
1010
0100
1000
0100
,  // measure 24
1010
0100
1000
0100
1010
0100
0001
0100
,  // measure 25
0011
0100
0001
0100
0011
0100
0001
0100
,  // measure 26
0011
0100
0001
0100
0011
0100
0001
0100
,  // measure 27
0022
0000
0000
0000
0033
0000
1000
0001
,  // measure 28
0101
0110
1010
1100
,  // measure 29
0101
0100
1100
0100
0101
0000
1000
0010
,  // measure 30
0011
1010
1100
0101
,  // measure 31
0011
0010
1010
0010
0011
0000
1000
0010
,  // measure 32
0011
0101
1100
1010
,  // measure 33
1001
0001
0101
0001
0011
0000
0001
0010
,  // measure 34
0110
1001
0110
1001
,  // measure 35
1010
1000
1100
1000
1001
0000
0100
0010
,  // measure 36
0011
0010
1010
1000
1100
0100
0101
0010
,  // measure 37
0110
0100
0101
0100
1100
1000
0100
0010
,  // measure 38
1010
1000
1001
0001
0101
0100
0110
0010
,  // measure 39
1010
0010
0011
0001
1001
1000
1010
1000
,  // measure 40
1100
1010
1001
0011
0101
1100
0110
0011
,  // measure 41
1010
1100
1001
0101
0011
1010
0110
0011
,  // measure 42
1010
1001
1100
0110
0101
1001
0011
0110
,  // measure 43
1010
0110
0011
1001
0101
0110
1100
1010
,  // measure 44
1001
0000
0000
0001
0100
0000
0101
0000
1001
0000
0100
0000
0110
0000
1000
0000
,  // measure 45
1010
0000
0000
0010
0001
0000
0101
0000
1010
0000
0100
0000
0010
0000
0100
0000
,  // measure 46
1100
0000
0000
1000
0001
0000
1001
0000
0110
0000
0001
0000
0010
0000
0100
0000
,  // measure 47
0110
0000
0000
0010
0001
0000
0101
0000
1010
0000
0100
0000
0010
0000
1000
0000
,  // measure 48
1100
1010
1100
1010
1100
1010
1100
0110
,  // measure 49
0011
0101
0011
0101
0011
0101
0011
0101
,  // measure 50
0110
1001
0110
1001
0110
1001
0110
0011
,  // measure 51
1001
0110
1001
0110
1001
0110
1001
0110
,  // measure 52
2002
0000
0000
0000
,  // measure 53
3003
0000
0000
0000
;
