#VERSION:0.83;
#TITLE:GIRL IN A DAYDREAM;
#SUBTITLE:;
#ARTIST:PANDORA;
#TITLETRANSLIT:;
#SUBTITLETRANSLIT:;
#ARTISTTRANSLIT:;
#GENRE:;
#ORIGIN:;
#CREDIT:;
#BANNER:GIRL IN A DAYDREAM.png;
#BACKGROUND:GIRL IN A DAYDREAM-bg.png;
#PREVIEWVID:;
#JACKET:GIRL IN A DAYDREAM-jacket.png;
#CDIMAGE:;
#DISCIMAGE:;
#LYRICSPATH:;
#CDTITLE:;
#MUSIC:GIRL IN A DAYDREAM.ogg;
#OFFSET:0.000000;
#SAMPLESTART:30.459999;
#SAMPLELENGTH:15.000000;
#SELECTABLE:YES;
#BPMS:0.000=126.000,
100.000=63.000,
119.500=126.000;
#STOPS:;
#DELAYS:;
#WARPS:;
#TIMESIGNATURES:0.000=4=4;
#TICKCOUNTS:0.000=4;
#COMBOS:0.000=1;
#SPEEDS:0.000=1.000=0.000=0;
#SCROLLS:0.000=1.000;
#FAKES:;
#LABELS:0.000=Song Start;
#BGCHANGES:;
#KEYSOUNDS:;
#ATTACKS:
;

//---------------dance-single - ----------------
#NOTEDATA:;
#CHARTNAME:;
#STEPSTYPE:dance-single;
#DESCRIPTION:;
#CHARTSTYLE:;
#DIFFICULTY:Beginner;
#METER:4;
#RADARVALUES:0.119147,0.116825,0.000000,0.009812,0.000000,85.000000,85.000000,0.000000,1.000000,0.000000,0.000000,0.000000,0.000000,0.000000,0.119147,0.116825,0.000000,0.009812,0.000000,85.000000,85.000000,0.000000,1.000000,0.000000,0.000000,0.000000,0.000000,0.000000;
#CREDIT:;
#NOTES:
0000
0000
0000
0000
,
0000
0000
0000
0000
,
0000
0000
0000
0000
,
0000
1000
1000
0000
,
0010
0000
0010
0000
,
0000
1000
1000
0000
,
0001
0000
0100
0000
,
0000
1000
1000
0000
,
0010
0000
0100
0000
,
1000
0000
1000
0000
,
0001
0000
0010
0000
,
1000
0000
0000
0000
,
0001
0000
0000
0000
,
1000
0000
0100
0000
,
0001
0000
0000
0000
,
0100
0000
0000
0000
,
0010
0000
0010
0000
,
1000
0000
1000
0000
,
0100
0000
0100
0000
,
1000
0000
0001
0000
,
0100
0000
0100
0000
,
0001
0000
0001
0000
,
0010
0000
0010
0000
,
0100
0000
0100
0000
,
0010
0000
0010
0000
,
0100
0000
0100
0000
,
0010
0000
0010
0000
,
0001
0000
1000
0000
,
0001
0000
1000
0000
,
0002
0000
0000
0003
,
0000
1000
0000
0000
0000
1000
0000
0000
,
0000
0001
0000
0000
0000
0001
0000
0000
,
0000
0010
0000
0000
0000
0100
0000
0000
,
0000
1000
0000
0000
0000
1000
0000
0000
,
0000
0001
0000
0000
0000
0001
0000
0000
,
0000
1000
0000
0000
0000
1000
0000
0000
,
0000
0010
0000
0000
0000
0100
0000
0000
,
0000
0001
0000
0000
0000
1000
0000
0000
,
0000
0001
0000
0000
0000
0001
0000
0000
,
0000
1000
0000
0000
0000
0001
0000
0000
,
0000
1000
0000
0000
0000
1000
0000
0000
,
0000
0001
0000
0000
0000
1000
0000
0000
,
0000
0001
0000
0000
0000
1000
0000
0000
,
0000
0001
0000
0000
0000
0001
0000
0000
,
0000
0100
0000
0000
0000
0010
0000
0000
,
0000
0100
0000
0000
0000
0010
0000
0000
,
0000
0100
0000
0000
0000
0010
0000
0000
,
0000
1000
0000
0000
0000
0100
0000
0000
;

//---------------dance-single - ----------------
#NOTEDATA:;
#CHARTNAME:;
#STEPSTYPE:dance-single;
#DESCRIPTION:;
#CHARTSTYLE:;
#DIFFICULTY:Easy;
#METER:5;
#RADARVALUES:0.130361,0.163555,0.000000,0.009812,0.000000,93.000000,93.000000,0.000000,1.000000,0.000000,0.000000,0.000000,0.000000,0.000000,0.130361,0.163555,0.000000,0.009812,0.000000,93.000000,93.000000,0.000000,1.000000,0.000000,0.000000,0.000000,0.000000,0.000000;
#CREDIT:;
#NOTES:
0000
0000
0000
0000
,
0000
0000
0000
0000
,
0000
0000
0000
0000
,
0000
1000
1000
0000
,
0010
0000
0010
0000
,
0000
1000
1000
0000
,
0001
0000
0100
0000
,
0000
1000
1000
0000
,
0010
0000
0100
0000
,
1000
0000
1000
0000
,
0001
0100
0010
0000
,
1000
0000
0000
0000
,
0001
0000
0000
0000
,
1000
0000
0100
0000
,
0001
0000
0000
0000
,
0100
0000
0000
0000
,
0010
0000
0010
0000
,
1000
0001
1000
0000
,
0100
0000
0100
0000
,
1000
0000
0001
0000
,
0100
0000
0100
0000
,
0001
1000
0001
1000
,
0010
0000
0010
0000
,
0100
0000
0100
0000
,
0010
0000
0010
0000
,
1000
0000
0001
0000
,
1000
0000
0100
0000
,
0001
0000
1000
0000
,
0100
0000
0001
0000
,
0200
0000
0000
0000
0000
0000
0000
0300
,
0000
1000
0000
0000
0000
1000
0000
0000
,
0000
0001
0000
0000
0000
0001
0000
0000
,
0000
0010
0000
0000
0000
0100
0000
0000
,
0000
1000
0000
0001
0000
1000
0000
0000
,
0000
0001
0000
0000
0000
0001
0000
0000
,
0000
1000
0000
0000
0000
1000
0000
0000
,
0000
0010
0000
0000
0000
0100
0000
0000
,
0000
0001
0000
0000
0000
1000
0000
0000
,
0000
0001
0000
0000
0000
0001
0000
0000
,
0000
1000
0000
0100
0000
0001
0000
0000
,
0000
1000
0000
0000
0000
1000
0000
0000
,
0000
0001
0000
0100
0000
1000
0000
0000
,
0000
0001
0000
0000
0000
1000
0000
0000
,
0000
0001
0000
0000
0000
0001
0000
0000
,
0000
0100
0000
0000
0000
0010
0000
0000
,
0000
0100
0000
0000
0000
0010
0000
0000
,
0000
0100
0000
0000
0000
0010
0000
0000
,
0000
1000
0000
0001
0000
0100
0000
0000
;

//---------------dance-single - ----------------
#NOTEDATA:;
#CHARTNAME:;
#STEPSTYPE:dance-single;
#DESCRIPTION:;
#CHARTSTYLE:;
#DIFFICULTY:Medium;
#METER:8;
#RADARVALUES:0.203251,0.256341,0.078497,0.088309,0.009812,145.000000,137.000000,8.000000,9.000000,0.000000,0.000000,0.000000,0.000000,0.000000,0.203251,0.256341,0.078497,0.088309,0.009812,145.000000,137.000000,8.000000,9.000000,0.000000,0.000000,0.000000,0.000000,0.000000;
#CREDIT:;
#NOTES:
0000
0000
0000
0000
,
0000
0000
0000
0000
,
0000
0000
0000
0000
,
1000
0000
0100
0000
0010
0000
0000
1001
,
0000
0000
0100
0100
,
1000
0000
0001
0000
0100
0000
0000
0001
,
0000
1000
0000
0100
0000
0000
1000
0000
,
0001
0000
0010
0000
0100
0000
1000
0001
,
0000
0000
0100
0100
,
0001
0000
0000
1000
0100
0000
0000
0000
,
1001
0110
1001
0000
,
0010
0000
0000
1100
0000
0000
0000
0000
,
0010
0000
0000
0101
0000
0000
0000
0000
,
1000
0000
0000
0010
0000
0000
0000
0100
,
0100
0000
0000
0000
,
1001
0000
0000
0000
,
1000
0000
0001
0000
1000
0100
0010
0000
,
0001
1000
0100
0000
,
0001
0000
1000
0000
0001
0010
0100
0000
,
1000
0001
0100
0000
,
1000
0000
0010
0000
0100
0001
0100
0000
,
0010
0000
1000
0000
0100
0000
0010
0001
,
0100
0000
0010
0000
,
1000
0000
0000
0110
0000
0000
0000
0000
,
0001
0000
0000
1000
0000
0000
0000
0000
,
2000
0000
3200
0000
,
0302
0000
0000
0000
0000
0000
0000
0000
0000
0000
0000
0000
0000
0000
0000
0000
0000
0023
0000
0000
0000
0000
0000
0000
0000
0000
0000
0000
0000
0000
0000
0000
,
2030
0000
0000
0000
0000
0000
0000
0000
0000
0000
0000
0000
0000
0000
0000
0000
3000
0020
0000
0000
0000
0000
0000
0000
0000
0000
0000
0000
0000
0000
0000
0000
,
0230
0000
0302
0000
,
2003
0000
0000
0000
0000
0000
0000
3000
,
0000
0001
0000
0000
0000
0001
0000
0000
,
0000
1000
0000
0100
0000
0010
0000
0000
,
0000
1000
0000
0000
0000
1000
0000
0000
,
0000
0001
0000
0100
0000
0010
0000
0000
,
0000
1000
0000
0000
0000
0001
0000
0000
,
0000
0010
0000
0100
0000
1000
0000
0000
,
0000
0001
0000
0000
0000
0100
0000
0000
,
0000
0010
0000
0000
0100
0000
0000
0000
,
0000
0001
0000
1000
0100
0000
0010
0001
,
0010
0000
0100
0000
0100
0000
1000
0100
,
0000
0010
0000
0001
1000
0000
0001
0100
,
0001
0010
0010
0000
,
0000
1000
0000
0100
0010
0000
0010
0001
,
0010
0000
0100
0000
0100
0000
1000
0100
,
0000
1000
0000
0001
0000
0100
0010
0000
,
0000
1000
0000
0001
0000
0100
0010
0000
,
0000
1000
0000
0001
0000
0010
0100
0000
,
0000
1000
0000
0000
0001
0000
0000
0000
;

//---------------dance-single - ----------------
#NOTEDATA:;
#CHARTNAME:;
#STEPSTYPE:dance-single;
#DESCRIPTION:;
#CHARTSTYLE:;
#DIFFICULTY:Hard;
#METER:10;
#RADARVALUES:0.336415,0.327969,0.049060,0.009812,0.058873,240.000000,235.000000,5.000000,1.000000,0.000000,0.000000,0.000000,0.000000,0.000000,0.336415,0.327969,0.049060,0.009812,0.058873,240.000000,235.000000,5.000000,1.000000,0.000000,0.000000,0.000000,0.000000,0.000000;
#CREDIT:;
#NOTES:
0000
0000
0000
0000
,
0000
0000
0000
0000
,
0000
0000
0000
0000
,
0000
1000
0001
1000
0100
0000
0010
0100
,
0000
0000
1000
0100
0001
0000
1000
0000
,
0000
0001
1000
0001
0100
0000
0010
0010
,
0000
0001
0000
0100
0000
0010
0100
0000
,
0000
0001
0010
0100
1000
0000
0001
0100
,
0000
0000
0010
0100
0010
0000
1000
0000
,
1100
0000
0010
0000
0101
0000
0010
1000
,
0000
1100
0000
1001
0000
0100
0010
0000
,
1000
0000
0100
0100
0000
0010
0001
0000
,
1000
0000
0010
0010
0000
0100
0001
0000
,
1000
0001
0010
0100
0000
1000
0001
1000
,
0000
0001
0000
0001
0000
0001
0100
0000
,
1001
0000
0000
0000
0000
0100
0100
0000
,
1000
0100
1000
0100
0000
0010
0001
0100
,
0000
0001
0000
1000
0000
0100
0100
0000
,
0010
0001
0010
0001
0000
0100
0010
1000
,
0000
0001
0000
1000
0000
0000
0000
0000
,
0001
0100
0001
0100
0000
0010
1000
0100
,
0000
1000
0000
0001
0000
0100
0100
0000
,
0010
1000
0100
0010
0001
1000
0000
0000
,
0010
1000
0100
0010
0000
0010
0001
0000
,
1000
0100
0010
0001
0000
0001
1000
0000
,
0100
0000
0000
0000
0000
0000
0000
0000
0000
0000
0000
0000
0000
0000
0000
0010
0000
0000
0000
0000
0001
0000
0000
0000
0100
0000
0000
0000
0000
0000
0000
0000
0000
0000
0000
0000
0000
0000
0000
0000
0000
0000
0000
0000
0000
0000
0000
0000
,
0100
0000
0000
0000
0000
0000
0000
0000
0000
0000
0000
0000
0000
0000
0000
0010
0000
0000
0000
0000
1000
0000
0000
0000
0100
0000
0000
0000
0000
0000
0000
0000
0000
0000
0000
0000
0000
0000
0000
0000
0000
0000
0000
0000
0000
0000
0000
0000
,
0010
0000
0000
0000
0000
0000
0000
0000
0000
0000
0000
0000
0000
0000
0000
0001
0000
0000
0000
0000
0000
0010
0000
0000
0000
0100
0000
0000
0000
0000
0000
0000
0000
0000
0000
0000
0000
0000
0000
0000
0000
0000
0000
0000
0000
0000
0000
0000
,
0001
0000
0000
0000
0000
0000
0100
0000
0010
0000
0000
0000
0000
0000
1000
0000
0010
0000
0000
0000
0000
0000
0100
0000
0001
0000
0000
0010
0000
0000
0100
0000
,
0020
0000
0000
0000
0000
0000
0000
0030
,
0000
1000
0001
0100
0010
0000
1000
0001
,
1000
0000
0100
0000
0010
0001
0100
0001
,
0000
1000
0100
0010
0001
0000
0100
0010
,
0100
0000
0001
1000
0100
0000
0100
0010
,
0000
0001
1000
0010
0100
0000
0001
1000
,
0001
0000
0010
0000
0100
1000
0010
1000
,
0000
0100
0001
0100
0000
1000
0010
1000
,
0000
0001
0000
1000
0100
0000
0100
1000
,
0000
0001
0100
0001
0010
0000
0010
0100
,
1000
0000
0001
0000
1000
0000
0001
0100
,
0000
1000
0100
0010
0001
0000
1000
0010
,
1000
0001
0010
0000
,
0000
0100
1000
0010
0100
0000
0001
0010
,
0001
0000
1000
0000
0001
0000
0100
0010
,
0000
1000
0100
0001
0100
1000
0010
0000
,
0100
0000
0001
0010
0100
1000
0100
0000
,
0000
0001
0100
1000
0100
0001
0010
0000
,
0000
0100
1000
0001
0100
0000
0010
0000
;

//---------------dance-double - ----------------
#NOTEDATA:;
#CHARTNAME:;
#STEPSTYPE:dance-double;
#DESCRIPTION:;
#CHARTSTYLE:;
#DIFFICULTY:Easy;
#METER:4;
#RADARVALUES:0.134566,0.163555,0.029436,0.009812,0.000000,96.000000,93.000000,3.000000,1.000000,0.000000,0.000000,0.000000,0.000000,0.000000,0.134566,0.163555,0.029436,0.009812,0.000000,96.000000,93.000000,3.000000,1.000000,0.000000,0.000000,0.000000,0.000000,0.000000;
#CREDIT:;
#NOTES:
00000000
00000000
00000000
00000000
,
00000000
00000000
00000000
00000000
,
00000000
00000000
00000000
00000000
,
00000000
00001000
00000000
00000100
,
00000001
00000000
00000000
00000000
,
00000000
00000001
00000000
00001000
,
00000000
00000001
00000100
00001000
,
00000000
00010000
00000000
01000000
,
10000000
00000000
00000000
00000000
,
00000000
10000000
00000000
00010000
,
01000000
00001000
00010000
00000000
,
00011000
00000000
00000000
00000000
,
00011000
00000000
00000000
00000000
,
00000100
00000000
00001000
00000000
,
00000001
00000000
00000000
00000000
,
00001001
00000000
00000000
00000000
,
00000100
00000000
00000100
00000000
,
00000010
00001000
00000100
00000000
,
00010000
00000000
00001000
00000000
,
00100000
00010000
01000000
00000000
,
00100000
00000000
00100000
00000000
,
10000000
01000000
00010000
00001000
,
00000100
00000000
00000000
00000000
,
00000001
00000000
00001000
00000001
,
00000100
00000000
00000000
00000000
,
00001000
00000000
00010000
00000000
,
01000000
00000000
10000000
00000000
,
00010000
00000000
00100000
00000000
,
01000000
00000000
00010000
00000000
,
00002000
00000000
00000000
00003000
,
00000000
00100000
00000000
00000000
00000000
00010000
00000000
00000000
,
00000000
10000000
00000000
01000000
00000000
00100000
00000000
00000000
,
00000000
00010000
00000000
00000000
00000000
01000000
00000000
00000000
,
00000000
00100000
00000000
00000000
00000000
01000000
00000000
00000000
,
00000000
00010000
00000000
00000000
00000000
10000000
00000000
00000000
,
00000000
01000000
00000000
00010000
00000000
00001000
00000000
00000000
,
00000000
00000010
00000000
00000000
00000000
00000001
00000000
00000000
,
00000000
00000100
00000000
00000000
00000000
00000010
00000000
00000100
,
00000000
00000001
00000000
00000000
00000000
00001000
00000000
00000000
,
00000000
00000001
00000000
00001000
00000000
00000100
00000000
00000000
,
00000000
00010000
00000000
00000000
00000000
00001000
00000000
00000000
,
00000000
00100000
00000000
00010000
00000000
01000000
00000000
00000000
,
00000000
00100000
00000000
00000000
00000000
10000000
00000000
00000000
,
00000000
00010000
00000000
01000000
00000000
00001000
00000000
00010000
,
00000000
00000010
00000000
00000000
00000000
00000000
00000000
00000000
,
00000000
00000100
00000000
00000000
00000000
00000000
00000000
00000000
,
00000000
00000010
00000000
00000000
00000000
00000000
00000000
00000000
,
00000000
00001000
00000000
00000001
00000000
00000010
00000000
00000000
;

//---------------dance-double - ----------------
#NOTEDATA:;
#CHARTNAME:;
#STEPSTYPE:dance-double;
#DESCRIPTION:;
#CHARTSTYLE:;
#DIFFICULTY:Medium;
#METER:7;
#RADARVALUES:0.225678,0.257690,0.039248,0.009812,0.034342,161.000000,157.000000,4.000000,1.000000,0.000000,0.000000,0.000000,0.000000,0.000000,0.225678,0.257690,0.039248,0.009812,0.034342,161.000000,157.000000,4.000000,1.000000,0.000000,0.000000,0.000000,0.000000,0.000000;
#CREDIT:;
#NOTES:
00000000
00000000
00000000
00000000
,
00000000
00000000
00000000
00000000
,
00000000
00000000
00000000
00000000
,
00100000
00000000
00010000
01000000
00100000
00000000
00000000
00000000
,
10000000
00000000
00000000
01000000
00010000
00000000
00001000
00000000
,
00100000
00000000
00010000
01000000
00100000
00000000
00000000
00000000
,
10000000
01000000
00010000
00001000
,
00000100
00000000
00000001
00000010
00000100
00000000
00000001
00000100
,
00000000
00000000
00001000
00001000
,
00000000
00000010
00000100
00000000
,
00001001
00000101
00001010
00000000
,
00000100
00000000
00010000
00001000
00000000
00100000
00000000
00000000
,
00010000
00000000
10000000
01000000
00000000
00100000
00000000
00000000
,
00010000
00000000
10000000
00000000
,
01000000
00000000
00000000
00000000
,
10010000
00000000
00000000
00000000
,
00100000
00000000
00001000
00010000
00000100
00000000
00001000
00000000
,
00000010
00000100
00001000
00010000
,
00000010
00000000
00001000
00000100
00010000
00000000
00001000
00100000
,
00000000
00010000
00000000
01000000
00000000
00000000
00000000
00000000
,
00100000
00000000
10000000
01000000
00010000
00000000
00001000
00000000
,
00100000
00000000
01000000
00010000
00000000
00010000
00001000
00000000
,
00000100
00000000
00000001
00000010
00000100
00000000
00001000
00000000
,
00000001
00000000
00001000
00000100
00000000
00010000
00001000
00000000
,
00100000
00000000
00010000
10000000
00000000
01000000
00100000
00000000
,
00010000
00000000
00000000
00000000
00000000
10000000
01000000
00000000
00000000
00000000
00000000
00000000
,
00100000
00000000
00000000
00000000
00000000
00010000
01000000
00000000
00000000
00000000
00000000
00000000
,
00001000
00000000
00000000
00000000
00000000
00000000
00000000
00000000
00000000
00000000
00000000
00000000
00000000
00000000
00000000
00000000
00000000
00000000
00000000
00000000
00010000
00000000
00000000
00000000
00000000
00000010
00000000
00000000
00000000
00000000
00000000
00000000
00000000
00000000
00000000
00000000
00000000
00000000
00000000
00000000
00000000
00000000
00000000
00000000
00000000
00000000
00000000
00000000
,
00001000
00000000
00000000
00000000
00000000
00000010
00000001
00000000
00000000
00000000
00000010
00001000
,
00000200
00000000
00000000
00000000
00000000
00000000
00000000
00000300
,
00000000
00001000
00000000
00000000
00000000
00000001
00000000
00000000
,
00000000
00000100
00000000
00001000
00000000
00010000
00000000
00000000
,
00000000
00000010
00000000
00000000
00000000
00000100
00000000
00000000
,
00000000
00001000
00000000
00010000
00001000
00100000
00000000
00000000
,
00000000
00010000
00000000
00000000
00000000
10000000
00000000
00000000
,
00000000
01000000
00000000
00010000
00000000
00001000
00000000
00000000
,
00000000
00100000
00000000
00000000
00000000
01000000
00000000
00000000
,
00000000
00010000
00000000
00001000
00010000
00000010
00000000
00000000
,
00000000
00001000
00000000
00000001
00000010
00000000
00000001
00000100
,
00000000
00000010
00000000
00001000
00000000
00000100
00000000
00000000
,
00000000
00010000
00000000
00000000
00000000
00001000
00000000
00000000
,
00000000
00100000
00000000
00010000
00000000
01000000
00000000
00000000
,
00000000
00100000
00000000
10000000
01000000
00000000
10000000
00100000
,
00000000
01000000
00000000
00001000
00000000
00010000
00000000
00000000
,
00000000
00000010
00000000
00001000
00000000
00000100
00010000
00000000
,
00000000
00000010
00000000
00001000
00000000
00000100
00010000
00000000
,
00000000
00100000
00000000
10000000
00000000
01000000
00100000
00000000
,
00000000
00010000
00000000
01000000
00001000
00000000
00010000
00000000
;

//---------------dance-double - ----------------
#NOTEDATA:;
#CHARTNAME:;
#STEPSTYPE:dance-double;
#DESCRIPTION:;
#CHARTSTYLE:;
#DIFFICULTY:Hard;
#METER:9;
#RADARVALUES:0.356039,0.538807,0.009812,0.029436,0.112839,254.000000,253.000000,1.000000,3.000000,0.000000,0.000000,0.000000,0.000000,0.000000,0.356039,0.538807,0.009812,0.029436,0.112839,254.000000,253.000000,1.000000,3.000000,0.000000,0.000000,0.000000,0.000000,0.000000;
#CREDIT:;
#NOTES:
00000000
00000000
00000000
00000000
,
00000000
00000000
00000000
00000000
,
00000000
00000000
00000000
00000000
,
00000010
00001000
00000100
00001000
00000010
00000000
00010000
00001000
,
00010000
00100000
10000000
01000000
,
00100000
00010000
01000000
00010000
00100000
00000000
00001000
00010000
,
00000000
00000010
00000000
00000100
00000000
00000001
00000001
00000000
,
00000010
00000100
00001000
00000001
00000100
00000000
00000010
00001000
,
00000100
00010000
00001000
00100000
,
00010000
10000000
01000000
10000000
00100000
00000000
01000000
00100000
,
01000000
00010000
10000000
01000000
,
00010000
00000000
00001000
00010000
00001000
00000000
00010000
00000000
,
01000000
00000000
10000000
00100000
10000000
00000000
01000000
00010000
,
01000000
10000000
00100000
01000000
,
00010000
00100000
00001000
00010000
,
00011000
00000000
00000000
00000000
00000000
00010000
00010000
00000000
,
00000010
00001000
00000010
00000000
00000100
00000001
00000100
00000000
,
00000010
00000000
00001000
00000000
00000001
00000100
00000001
00000000
,
00001000
00000010
00001000
00000000
00000100
00010000
00000100
00000000
,
00001000
00000000
00000010
00000000
00010000
00001000
00010000
00000000
,
00100000
00000000
10000000
01000000
00010000
00001000
00000100
00000001
,
00000010
00000100
00001000
00000010
00000100
00001000
00010000
00000000
,
00000010
00001000
00000010
00000000
00000100
00000001
00000100
00000000
,
00000010
00001000
00000100
00010000
00000000
00001000
00100000
00010000
,
01000000
00100000
10000000
01000000
00000000
00100000
00000000
00000000
,
00010000
01000000
00100000
10000000
00000000
10000000
01000000
00000000
00100000
00010000
01000000
00100000
00000000
00100000
01000000
00000000
,
10000000
01000000
00100000
00010000
00000000
00010000
00000000
00001000
00020000
00000000
00000000
00000100
00030100
00000000
00000100
00000000
,
00000001
00000010
00000100
00001000
00000000
00001000
00000100
00000000
00000010
00000001
00000010
00000100
00000000
00000100
00001000
00000000
,
00000001
00000000
00000001
00000010
00000100
00000000
00000000
00000000
00000010
00000000
00001000
00010000
00000100
00000000
00010000
00000000
,
02000000
00000000
00000000
00000000
00000000
00000000
00000000
03000000
,
00000000
00000000
10000000
00000000
00000000
00000000
00010000
00000000
00000000
00000000
00000000
00000000
00000000
00010000
01000000
00000000
,
00000000
00000000
00000000
00000000
00000000
00000000
00100000
00000000
00000000
00000000
00000000
00000000
00000000
00100000
10000000
00000000
,
00000000
00000000
00000000
00000000
00000000
00000000
01000000
00000000
00000000
00000000
00000000
00000000
00000000
01000000
00100000
00000000
,
00000000
00000000
00000000
00000000
00000000
00100000
00010000
00000000
00000000
00000000
01000000
00000000
00000000
00000000
00001000
00000000
,
00000000
00010000
00000000
00000010
00001000
00000100
00000000
00010000
,
00000000
00001000
00100000
00001000
00000000
00010000
00000000
00000010
,
00000000
00001000
00000000
00000100
00000000
00010000
00001000
00010000
,
00000000
00000010
00001000
00000100
00000000
00000010
00000001
00000010
,
00000000
00000100
00000000
00001000
00000010
00000100
00001000
00010000
,
00000000
00000010
00001000
00000100
00000000
00010000
00000000
00001000
,
00000000
00100000
00010000
01000000
00000000
00100000
10000000
00100000
,
00000000
01000000
00000000
00010000
00000000
00100000
00000000
01000000
,
00000000
10000000
00000000
00010000
01000000
00001000
00000000
00010000
,
00000010
00001000
00000000
00000001
00000000
00000010
00000000
00000100
,
00001000
00000010
00000000
00000100
00000001
00000100
00000000
00000010
,
00000000
00001000
00000100
00010000
00000000
00001000
00000000
00100000
,
00010000
00100000
00000000
00001000
00000000
00010000
00000010
00001000
,
00000100
00000010
00000001
00000100
00000020
00000000
00000130
00000000
;

//---------------dance-single - ----------------
#NOTEDATA:;
#CHARTNAME:;
#STEPSTYPE:dance-single;
#DESCRIPTION:;
#CHARTSTYLE:;
#DIFFICULTY:Challenge;
#METER:13;
#RADARVALUES:0.555084,0.655939,0.294363,0.294363,0.397390,396.000000,366.000000,30.000000,30.000000,0.000000,0.000000,0.000000,0.000000,0.000000,0.555084,0.655939,0.294363,0.294363,0.397390,396.000000,366.000000,30.000000,30.000000,0.000000,0.000000,0.000000,0.000000,0.000000;
#CREDIT:;
#NOTES:
// measure 0
0000
0000
0000
0000
,  // measure 1
0000
0000
0000
0000
,  // measure 2
0000
0000
0000
0200
0000
0000
0310
0000
,  // measure 3
1000
0010
0001
0010
0200
0000
0010
0310
,  // measure 4
0000
1000
0001
1000
0010
1000
0100
0000
,  // measure 5
1000
0010
0001
0100
2000
0000
3001
1001
,  // measure 6
0000
1010
0000
0110
0000
0010
0200
0000
,  // measure 7
0301
0010
1000
0100
0002
0000
0103
0020
,  // measure 8
0000
0100
0130
1000
0010
0001
1000
0000
,  // measure 9
0100
0001
1000
0001
2001
0000
3100
0010
,  // measure 10
1020
0001
0130
0110
,  // measure 11
1000
0100
1000
0000
0010
0000
0002
0000
0000
0000
1003
0000
0001
1000
0001
0000
,  // measure 12
1000
0010
1000
0000
0010
0000
0200
0000
0000
0000
0310
0000
0010
1000
0010
0000
,  // measure 13
0100
0001
0100
0001
0100
0000
0010
1000
0010
1000
0010
0000
0100
0000
0001
0000
,  // measure 14
0100
0010
0100
0010
0100
0000
1000
0000
0001
0100
0001
0010
0100
0000
1000
0000
,  // measure 15
0200
0000
1000
1000
0000
0001
0301
0000
,  // measure 16
1000
0100
0001
0000
0010
0000
1000
0010
0001
0000
0010
0000
1000
0000
0100
0001
,  // measure 17
0010
0000
1000
0000
0010
0001
0200
0000
0000
0000
1000
0000
1300
0000
0000
0000
,  // measure 18
1000
0100
0001
0000
0010
0000
1000
0010
0001
0000
0100
0000
1000
0000
0001
0010
,  // measure 19
1000
0000
0100
0000
0010
0001
0200
0000
0000
0000
0001
0000
0301
0000
0000
0000
,  // measure 20
1000
0010
0001
0000
0010
0000
1000
0100
0001
0000
0010
0000
1000
0000
0100
0010
,  // measure 21
0001
0000
0010
1000
0100
0000
0020
0000
0000
0000
0100
0000
0130
0000
0000
0000
,  // measure 22
1100
0100
0100
0100
0010
0100
0110
0000
,  // measure 23
1001
1000
0100
0020
0000
0100
0130
0000
,  // measure 24
1010
0010
0010
0002
0000
0010
0013
0000
,  // measure 25
2000
0000
0000
0000
0000
0000
0000
0000
0000
0000
0000
0000
0000
0000
0000
3100
0000
0000
0000
0000
0010
0000
0000
0000
0002
0000
0000
0000
0000
0000
0000
0000
0000
0000
0000
0000
0000
0000
0000
0013
0000
0000
0000
0000
0000
1000
0000
0000
,  // measure 26
0000
0200
0000
0000
0000
0000
0000
0000
0000
0000
0000
0000
0000
0000
0000
0000
0000
0000
0000
0000
0000
0000
0000
0000
0000
0000
0000
0000
0000
0000
0000
0000
0000
0000
0000
0000
0000
0000
0000
0000
0000
0000
0000
0000
0000
0000
0000
0000
0000
0000
0000
0000
0000
0000
0000
0000
0000
0000
0000
0000
0310
0000
0000
0000
0000
0000
0000
0000
0000
0000
0000
0000
0000
0000
0000
0000
0000
0000
0000
0000
0001
0000
0000
0000
0000
0000
0000
0000
0000
0000
0000
0000
0000
0000
0000
0000
0020
0000
0000
0000
0000
0000
0000
0000
0000
0000
0000
0000
0000
0000
0000
0000
0000
0000
0000
0000
0000
0000
0000
0000
0000
0000
0000
0000
0000
0000
0000
0000
0000
0000
0000
0000
0000
0000
0000
0000
0000
0000
0000
0000
0000
0000
0000
0000
0000
0000
0000
0000
0000
0000
0000
0000
0000
0000
0000
0000
0130
0000
0000
0000
0000
0000
0000
0000
0000
0000
0000
0000
0000
0000
0000
0000
0000
0000
0000
0000
0000
0000
0000
0000
0010
0000
0000
0000
0000
0000
0000
0000
0000
0000
0000
0000
,  // measure 27
0000
0200
0000
0000
0000
0000
0000
0000
0000
0000
0000
0000
0000
0000
0000
0000
0000
0000
0000
0000
0000
0000
0000
0000
0000
0000
0000
0000
0000
0000
0000
0000
0000
0000
0000
0000
0000
0000
0000
0000
0000
0000
0000
0000
0000
0000
0000
0000
0000
0000
0000
0000
0000
0000
0000
0000
0000
0000
0000
0000
0000
0000
0000
0000
1300
0000
0000
0000
0000
0000
0000
0000
0000
0000
0000
0000
0000
0000
0000
0000
0000
0000
0000
0000
0010
0000
0000
0000
0000
0000
0000
0000
0000
0000
0000
0000
0000
0000
0000
0000
0002
0000
0000
0000
0000
0000
0000
0000
0000
0000
0000
0000
0000
0000
0000
0000
0000
0000
0000
0000
0000
0000
0000
0000
0000
0000
0000
0000
0000
0000
0000
0000
0000
0000
0000
0000
0000
0000
0000
0000
0000
0000
0000
0000
0000
0000
0000
0000
0000
0000
0000
0000
0000
0000
0000
0000
0013
0000
0000
0000
0000
0000
0000
0000
0000
0000
0000
0000
0000
0000
0000
0000
0000
0000
0000
0000
0000
0000
0000
0000
0100
0000
0000
0000
0000
0000
0000
0000
0000
0000
0000
0000
,  // measure 28
2200
0000
0000
0000
3300
0000
0100
0001
0100
0000
0000
0010
0000
0000
0100
0000
0202
0000
0000
0000
0303
0000
0010
0100
0010
0000
0000
1000
0000
0000
0010
0000
,  // measure 29
0220
0000
0000
0000
0000
0000
0000
0330
,  // measure 30
0000
0100
0001
0100
1000
0100
0001
0100
,  // measure 31
1000
0000
0010
0000
0001
0000
0010
0000
1000
0000
0010
0100
0010
0000
0001
0000
,  // measure 32
0010
0000
0100
0010
0100
0000
1000
0000
0010
0000
0001
0100
0001
0000
0010
0000
,  // measure 33
1000
0000
0010
1000
0010
1000
0100
0000
0001
0000
0201
0000
0000
0000
1300
0000
,  // measure 34
0000
1000
0010
0100
0010
0001
0100
0010
,  // measure 35
1000
0000
0010
0000
0001
0000
1000
0100
1000
0100
0010
0000
0001
0000
0100
0000
,  // measure 36
1000
0000
0100
0000
0001
0000
0010
0001
1000
0001
0100
0000
0001
0000
0010
0100
,  // measure 37
1000
0100
0010
0100
1000
0000
0001
0010
0100
0000
0010
0000
1001
0000
0110
0000
,  // measure 38
0000
0000
0001
0010
1000
0000
0100
0000
0001
0100
1000
0000
0010
0000
0100
0001
,  // measure 39
0010
1000
1100
0000
0110
1000
0101
1000
,  // measure 40
0000
0000
1000
0100
0001
0000
0010
0000
0001
0010
1000
0000
0100
0000
0010
1000
,  // measure 41
0100
0000
0011
0000
1010
0010
0110
0100
,  // measure 42
0000
0000
0001
0010
1000
0000
0010
0000
0001
0100
1000
0000
0010
0000
1000
0010
,  // measure 43
0001
1000
1001
0000
0110
0000
1010
1000
,  // measure 44
1100
0000
1000
0100
1000
0000
0100
1000
0100
0000
0001
0100
0001
0100
0001
0000
,  // measure 45
0011
0000
0001
0010
0001
0000
0010
1000
0010
0000
1000
0010
1000
0010
1000
0000
,  // measure 46
1100
0000
0100
0001
0100
0000
1000
0100
1000
0000
0100
0010
0100
0010
0100
0000
,  // measure 47
1010
0001
0010
1000
1200
0000
0310
0000
;
