#VERSION:0.83;
#TITLE:GIMME GIMME;
#SUBTITLE:;
#ARTIST:컨츄리꼬꼬;
#TITLETRANSLIT:;
#SUBTITLETRANSLIT:;
#ARTISTTRANSLIT:country kko kko;
#GENRE:;
#ORIGIN:;
#CREDIT:;
#BANNER:GIMME GIMME.png;
#BACKGROUND:GIMME GIMME-bg.png;
#PREVIEWVID:;
#JACKET:GIMME GIMME-jacket.png;
#CDIMAGE:;
#DISCIMAGE:;
#LYRICSPATH:;
#CDTITLE:;
#MUSIC:GIMME GIMME.mp3;
#OFFSET:1.625000;
#SAMPLESTART:58.345001;
#SAMPLELENGTH:15.000000;
#SELECTABLE:YES;
#BPMS:0.000=144.030,
76.000=72.015,
77.500=144.030;
#STOPS:;
#DELAYS:;
#WARPS:;
#TIMESIGNATURES:0.000=4=4;
#TICKCOUNTS:0.000=4;
#COMBOS:0.000=1;
#SPEEDS:0.000=1.000=0.000=0;
#SCROLLS:0.000=1.000;
#FAKES:;
#LABELS:0.000=Song Start;
#BGCHANGES:;
#KEYSOUNDS:;
#ATTACKS:
;

//---------------dance-single - ----------------
#NOTEDATA:;
#CHARTNAME:;
#STEPSTYPE:dance-single;
#DESCRIPTION:;
#CHARTSTYLE:;
#DIFFICULTY:Easy;
#METER:6;
#RADARVALUES:0.373719,0.537595,0.418566,0.000000,0.005813,225.000000,189.000000,36.000000,0.000000,0.000000,0.000000,0.000000,0.000000,0.000000,0.373719,0.537595,0.418566,0.000000,0.005813,225.000000,189.000000,36.000000,0.000000,0.000000,0.000000,0.000000,0.000000,0.000000;
#CREDIT:;
#NOTES:
0000
0000
0000
0000
,
0000
0000
0000
0000
,
0000
0000
0000
0000
,
0000
0000
0000
0000
,
0010
0000
0010
0001
,
1000
0100
1000
0100
,
0010
0001
0010
0001
,
1000
0100
1000
0100
,
0010
0001
0010
0001
,
0010
0010
0010
0100
,
0010
0010
0010
0100
,
1001
0001
0001
1001
,
0010
0010
1000
0100
,
0010
0010
0001
0100
,
0001
0001
1000
0100
,
1000
1000
0001
0100
,
0010
0010
0100
0010
,
0100
0100
0010
0100
,
1001
0110
1001
0110
,
1001
0000
0000
0000
0000
0001
0000
0001
,
0000
0100
0000
0100
0000
0001
0000
0010
,
0000
0100
0000
0100
0000
1000
0000
0010
,
0000
1000
0000
1000
0000
0001
0000
0010
,
0000
0001
0000
0001
0000
1000
0000
0010
,
0000
0100
0000
0100
0000
0010
0000
0010
,
0000
1000
0000
1000
0000
0001
0000
0001
,
0000
0010
0000
0001
0000
1000
0000
0100
,
0000
0010
0000
0100
0000
0100
0000
0001
,
0000
1000
0000
1000
0000
0001
0000
0100
,
0000
0001
0000
0001
0000
1000
0000
0100
,
0000
1000
0000
1000
0000
0001
0000
0100
,
0000
0001
0000
0001
0000
1000
0000
0100
,
0000
0001
0000
0001
0000
1000
0000
0100
,
0000
1000
0000
1000
0000
0001
0000
0100
,
0000
1000
0000
1000
0000
0001
0000
0100
,
0000
0010
0000
0010
0000
0010
0000
1001
,
0000
0110
0000
0110
0000
0110
0000
0010
,
0000
1001
0000
1001
0000
1001
0000
1000
,
0000
0110
0000
0110
0000
0110
0000
0100
,
0000
1001
0000
1001
0000
1001
0000
0001
,
0000
0010
0000
0010
0000
0100
0000
0100
,
0000
0010
0000
0100
0000
0010
0000
0010
,
0000
0100
0000
0001
0000
0100
0000
1000
,
0000
1000
0000
0100
0000
0001
0000
0001
,
0000
1010
0000
1010
0000
1010
0000
0110
,
0000
0011
0000
0011
0000
0011
0000
0110
,
0000
1100
0000
1100
0000
1100
0000
0110
,
0000
0101
0000
0101
0000
0101
0000
0110
,
0000
0010
0000
0010
0000
0100
0000
0100
,
0000
0010
0000
0100
0000
0010
0000
0010
,
0000
1000
0000
0100
0000
0001
0000
0001
,
0000
0000
0000
0100
0000
0000
0000
0100
0000
0001
0000
0000
0000
0000
0000
0000
0000
0000
0000
0000
0000
0000
0000
0000
;

//---------------dance-single - ----------------
#NOTEDATA:;
#CHARTNAME:;
#STEPSTYPE:dance-single;
#DESCRIPTION:;
#CHARTSTYLE:;
#DIFFICULTY:Medium;
#METER:8;
#RADARVALUES:0.395312,0.507729,0.511580,0.000000,0.011627,238.000000,194.000000,44.000000,0.000000,0.000000,0.000000,0.000000,0.000000,0.000000,0.395312,0.507729,0.511580,0.000000,0.011627,238.000000,194.000000,44.000000,0.000000,0.000000,0.000000,0.000000,0.000000,0.000000;
#CREDIT:;
#NOTES:
0000
0000
0000
0000
,
0000
0000
0000
0000
,
0000
0000
0000
0000
,
0000
0000
0000
0000
,
0000
0000
0000
0000
,
0010
0010
0010
0010
,
0001
1000
0001
1000
,
0001
0001
0100
0100
,
1000
1000
0100
0100
,
0001
0100
0001
0100
,
1000
0100
1000
0100
,
1001
0000
0000
0000
,
1001
0000
0100
0000
0001
0100
0001
0000
,
1001
0000
0100
0000
1000
0100
1000
0000
,
1001
0000
0100
0000
0010
0001
0100
0000
,
1001
0000
0100
0000
0010
1000
0100
0000
,
1001
0100
1001
0010
,
1001
0100
1001
0010
,
0100
0100
0100
0100
,
1001
0000
0000
0000
0000
0010
0000
0010
,
0000
1000
0100
1000
0000
0010
0000
0010
,
0000
0001
0100
0001
0000
0010
0000
0010
,
0000
1000
0100
1000
0000
0010
0000
0010
,
0000
0001
0100
0001
0000
0010
0000
0010
,
0000
0100
0000
0100
0000
0010
0000
0010
,
0000
0010
0000
0010
0000
0001
0000
0100
,
0000
1000
0000
0100
0000
0001
0000
0100
,
0000
1000
0000
0100
0000
0001
0000
0001
,
0000
0100
0001
0100
0000
1000
0000
1000
,
0000
0100
1000
0100
0000
0001
0000
0001
,
0000
0100
0001
0100
0000
1000
0000
1000
,
0000
0100
1000
0100
0000
0001
0000
0001
,
0000
0100
0000
0000
0000
1000
0000
1000
,
0000
0010
0000
0010
0000
1001
0000
0000
,
1001
0000
0000
1001
0000
0101
0000
1000
,
0000
0100
0100
0100
0000
1001
0000
1001
,
0000
1001
0000
1001
0000
0101
0000
1100
,
0000
0000
0001
0100
0000
1001
0000
1001
,
0000
1001
0000
1001
0000
1100
0000
0101
,
0000
0000
1000
0100
0000
0001
0000
0101
,
0000
1000
0000
1100
0000
0001
0000
0101
,
0000
0000
1000
0100
0000
0001
0000
0001
,
0000
0100
0000
0100
0000
1000
0000
0100
,
0000
1001
0000
1001
0000
0101
0000
0101
,
0000
1010
0000
1010
0000
1001
0000
1010
,
0000
0000
0100
0100
0000
1001
0000
0101
,
0000
1001
0000
0101
0000
1001
0000
0101
,
0000
0000
1000
1000
0000
0001
0000
0001
,
0000
1000
0000
0001
0000
0100
0000
0000
,
0000
0100
0000
0100
0000
0010
0000
0010
,
0000
0001
0000
1000
0000
1001
0000
0100
,
0000
0000
0000
0000
0000
0000
0000
0000
0100
0000
0000
0000
0000
1000
0000
0000
0000
0000
0000
0100
0000
0000
0000
0000
1000
0000
0000
0000
0000
0000
0000
0000
0000
0000
0000
0000
0000
0000
0000
0000
0000
0000
0000
0000
0000
0000
0000
0000
0000
0000
0000
0000
0000
0000
0000
0000
0000
0000
0000
0000
0000
0000
0000
0000
;

//---------------dance-single - ----------------
#NOTEDATA:;
#CHARTNAME:;
#STEPSTYPE:dance-single;
#DESCRIPTION:;
#CHARTSTYLE:;
#DIFFICULTY:Hard;
#METER:12;
#RADARVALUES:0.554766,0.537595,0.476700,0.000000,0.011627,334.000000,293.000000,41.000000,0.000000,0.000000,0.000000,0.000000,0.000000,0.000000,0.554766,0.537595,0.476700,0.000000,0.011627,334.000000,293.000000,41.000000,0.000000,0.000000,0.000000,0.000000,0.000000,0.000000;
#CREDIT:;
#NOTES:
0000
0000
0000
0000
,
0000
0000
0000
0000
,
0000
0000
0000
0000
,
0000
0000
0000
0000
,
0000
0000
0000
0000
,
1001
0101
1100
0101
,
0010
1000
0100
0001
0100
1000
0100
0000
,
1001
0101
1100
0101
,
0010
0010
1000
0000
0001
0001
0100
0000
,
1001
0110
0101
0011
,
1000
0001
0100
0010
0100
1000
0010
0000
,
1001
0000
0000
0000
,
1001
0000
1100
0000
0010
1000
0001
0100
,
0010
1000
0001
0100
0010
1000
0001
0000
,
1001
0000
0101
0000
0010
0001
1000
0100
,
0010
0001
1000
0100
0010
0001
1000
0000
,
0101
0000
1010
0000
0010
1000
0100
1000
,
0001
1000
0010
1000
0100
1000
0001
0000
,
1001
1001
0110
0011
,
1001
0000
0011
1001
0000
0010
1000
0100
,
1000
0010
1000
0100
1000
0010
1000
0100
,
1000
0010
1000
0001
0000
0010
0001
0100
,
0001
0010
0001
0100
0001
0010
0001
0100
,
0001
0010
0001
1000
0000
0001
1000
0100
,
1000
0001
1000
0100
1000
0001
1000
0100
,
1000
0001
1000
0001
0000
1000
0001
0100
,
0001
1000
0001
0100
0001
1000
0001
0100
,
0001
1000
0001
1000
0000
1001
0000
0010
,
1000
0010
1000
0100
0000
1001
0000
0010
,
0001
0010
0001
0100
0000
1010
0000
0001
,
0100
0001
1000
0100
0000
0011
0000
1000
,
0100
1000
0001
0100
0000
0110
0000
0001
,
1000
0100
0010
0001
0000
0110
0000
1000
,
0001
0100
0010
1000
0000
0101
0000
0000
,
0011
0000
0000
1001
0000
1010
1000
0001
,
0100
0010
1000
0100
0000
1000
0010
0001
,
0010
1000
0010
0001
0010
1000
0010
0001
,
0010
0000
1000
0100
0010
0001
0100
1000
,
0100
0001
0100
1000
0100
0001
0100
1000
,
0100
0000
0001
0010
0100
0010
0010
0001
,
0001
1000
1000
0100
0100
0010
0010
0001
,
0001
0000
1000
0001
0100
0101
0000
0000
,
1001
0000
0010
1001
0000
0010
1000
0100
,
0000
1001
0000
0101
0000
0010
1000
0100
,
1000
0010
0100
0001
0010
0001
0100
0001
,
0010
0000
0001
1000
0100
0010
0001
0100
,
0001
0010
0100
1000
0010
1000
0100
1000
,
0010
0000
1000
0001
0100
0001
1000
0100
,
1000
0000
0001
0100
0001
0100
0000
0100
,
0000
0001
1000
0100
0010
0001
0000
0001
,
0000
0001
1000
0001
0100
0000
0000
0100
,
0000
0000
0000
0000
0000
0000
0000
0000
0001
0000
0000
0000
0000
1000
0000
0000
0000
0000
0000
0001
0000
0000
0000
0000
0100
0000
0000
0000
0000
0000
0000
0000
0000
0000
0000
0000
0000
0000
0000
0000
0000
0000
0000
0000
0000
0000
0000
0000
0000
0000
0000
0000
0000
0000
0000
0000
0000
0000
0000
0000
0000
0000
0000
0000
;

//---------------dance-double - ----------------
#NOTEDATA:;
#CHARTNAME:;
#STEPSTYPE:dance-double;
#DESCRIPTION:;
#CHARTSTYLE:;
#DIFFICULTY:Easy;
#METER:6;
#RADARVALUES:0.307280,0.447996,0.244163,0.000000,0.000000,185.000000,164.000000,21.000000,0.000000,0.000000,0.000000,0.000000,0.000000,0.000000,0.307280,0.447996,0.244163,0.000000,0.000000,185.000000,164.000000,21.000000,0.000000,0.000000,0.000000,0.000000,0.000000,0.000000;
#CREDIT:;
#NOTES:
00000000
00000000
00000000
00000000
,
00000000
00000000
00000000
00000000
,
00000000
00000000
00000000
00000000
,
00000000
00000000
00000000
00000000
,
00000000
00000000
00000000
00000000
,
10000000
00000000
00000000
00000000
,
00001000
00000000
00000000
00000000
,
00000001
00000000
00000000
00000000
,
00010000
00000000
00000000
00000000
,
01000000
01000000
01000000
01000000
,
00100000
00100000
00100000
00100000
,
10010000
00000000
01000000
10010000
,
10000000
01000000
00100000
00010000
,
00001000
00000100
00000010
00000001
,
00000001
00000010
00000100
00001000
,
00010000
00100000
01000000
10000000
,
01000000
01000000
10000000
00010000
,
00100000
00100000
10000000
00010000
,
01000000
00000000
00010000
00001000
,
00000100
00000000
00000000
00000000
00000000
00001001
00000000
00000001
,
00000000
00000010
00000000
00000100
00000000
00001000
00000000
00010000
,
00000000
00100000
00000000
01000000
00000000
10000000
00000000
10000000
,
00000000
01000000
00000000
00100000
00000000
00010000
00000000
00001000
,
00000000
00000100
00000000
00000010
00000000
00000001
00000000
00001000
,
00000000
00001000
00000000
00000001
00000000
00000001
00000000
00000010
,
00000000
00000010
00000000
00000100
00000000
00000100
00000000
00001000
,
00000000
00000000
00000000
00010000
00000000
00000000
00000000
00100000
,
00000000
00000000
00000000
10000000
00000000
10010000
00000000
00010000
,
00000000
00010000
00000000
01000000
00000000
01000000
00000000
00001000
,
00000000
00011000
00000000
00000100
00000000
00001001
00000000
00000010
,
00000000
00000010
00000000
00001000
00000000
00001000
00000000
00000100
,
00000000
00000110
00000000
00010000
00000000
00011000
00000000
01000000
,
00000000
01000000
00000000
10000000
00000000
10000000
00000000
00010000
,
00000000
00000000
00000000
00010000
00000000
10010000
00000000
01000000
,
00000000
01100000
00000000
00100000
00000000
01100000
00000000
10010000
,
00000000
10010000
00000000
10010000
00000000
10000000
00000000
10000000
,
00000000
00100000
00000000
00010000
00000000
00001000
00000000
00000100
,
00000000
00000010
00000000
00000001
00000000
00000001
00000000
00000001
,
00000000
00000100
00000000
00001000
00000000
00010000
00000000
00100000
,
00000000
01000000
00000000
10000000
00000000
10000000
00000000
00100000
,
00000000
00100000
00000000
00100000
00000000
00100000
00000000
00100000
,
00000000
00100000
00000000
00100000
00000000
00100000
00000000
10000000
,
00000000
00000000
00000000
00010000
00000000
00000000
00000000
00001000
,
00000000
00000000
00000000
00000001
00000000
00001001
00000000
00000001
,
00000000
00000100
00000000
00001000
00000000
00010000
00000000
00100000
,
00000000
01000000
00000000
10000000
00000000
10000000
00000000
10000000
,
00000000
00100000
00000000
00010000
00000000
00001000
00000000
00000100
,
00000000
00000010
00000000
00000001
00000000
00000001
00000000
00001000
,
00000000
00001001
00000000
00000001
00000000
00001001
00000000
00000100
,
00000000
00000100
00000000
00000100
00000000
00000110
00000000
00001000
,
00000000
00011000
00000000
00010000
00000000
10010000
00000000
01000000
,
00000000
01000000
00000000
01100000
00000000
00000000
00000000
00000000
;

//---------------dance-double - ----------------
#NOTEDATA:;
#CHARTNAME:;
#STEPSTYPE:dance-double;
#DESCRIPTION:;
#CHARTSTYLE:;
#DIFFICULTY:Medium;
#METER:8;
#RADARVALUES:0.368736,0.418130,0.290671,0.000000,0.005813,222.000000,197.000000,25.000000,0.000000,0.000000,0.000000,0.000000,0.000000,0.000000,0.368736,0.418130,0.290671,0.000000,0.005813,222.000000,197.000000,25.000000,0.000000,0.000000,0.000000,0.000000,0.000000,0.000000;
#CREDIT:;
#NOTES:
00000000
00000000
00000000
00000000
,
00000000
00000000
00000000
00000000
,
00000000
00000000
00000000
00000000
,
00000000
00000000
00000000
00000000
,
00000000
00000000
00000000
00000000
,
00001000
00000100
00000001
00001000
,
00010000
01000000
10000000
00010000
,
00001000
00000100
00000001
00001000
,
00010000
01000000
10000000
00010000
,
00001000
00001000
00000100
00000100
,
00010000
00010000
01000000
01000000
,
00001000
00001000
01000000
10000000
,
00100000
10010000
00100000
10010000
,
00100000
10000000
01000000
00010000
,
00110000
00101000
00011000
00010010
,
00001000
00000100
00000001
00000010
,
00000010
00001000
00000010
00000001
,
00000001
00000100
00000010
00000010
,
00001000
00001000
00010000
00010000
,
01100000
10000000
01000000
00010000
00000000
10010000
00000000
01000000
,
00000000
00100000
00000000
00100000
00000000
01010000
00000000
01001000
,
00000000
00011000
00000000
00101000
00000000
00010000
00000000
00001000
,
00000000
00000100
00000000
00000010
00000000
00000110
00000000
00000001
,
00000000
00000100
00000000
00001000
00000000
00000010
00000000
00000001
,
00000000
00000010
00000000
00000001
00000000
00000100
00000000
00001000
,
00000000
00010000
00000000
01100000
00000000
00100000
00000000
10010000
,
00000000
10000000
00000000
10000000
00000000
00010000
00000000
00010000
,
00000000
00100000
00000000
01000000
00000000
10000000
00000000
00100000
,
00000000
01000000
00000000
00010000
00000000
01001000
00000000
00010000
,
00000000
00010010
00000000
00001000
00000000
00000001
00000000
00000010
,
00000000
00000100
00000000
00000010
00000000
00000001
00000000
00000100
,
00000000
00001001
00000000
00001000
00000000
00001000
00000000
00000100
,
00000000
00000100
00000000
00000010
00000000
00010010
00000000
00001000
,
00000000
00101000
00000000
00010000
00000000
10000000
00000000
01000000
,
00000000
00100000
00000000
01000000
00000000
00100000
00000000
10000000
,
00000000
00100000
00000000
10010000
00000000
00010000
00000000
00010000
,
00000000
00010000
00000000
00010000
00000000
00100000
00000000
00100000
,
00000000
00100000
00000000
00100000
00000000
10000000
00000000
10000000
,
00000000
10000000
00000000
10000000
00000000
01000000
00000000
01000000
,
00000000
01000000
00000000
01000000
00000000
00010000
00000000
00010000
,
00000000
00001000
00000000
00001000
00000000
00000010
00000000
00000010
,
00000000
00000001
00000000
00001000
00000000
00000001
00000000
00001100
,
00000000
00000010
00000000
00010010
00000000
00001000
00000000
00000100
,
00000000
00000001
00000000
00000001
00000000
00000100
00000000
00001000
,
00000000
00010000
00000000
00100000
00000000
10000000
00010000
01000000
,
00000000
00010000
10000000
01000000
00000000
01000000
00000000
00010000
,
00000000
00001000
00000000
00000010
00000000
00000001
00001000
00000100
,
00000000
00001000
00000001
00000100
00000000
00000100
00001000
00010000
,
00000000
01100000
00000000
10000000
00000000
00100000
01000000
00010000
,
00000000
00100000
01000000
10000000
00000000
00110000
00000000
10000000
,
00000000
01000000
00010000
00001000
00000000
00000100
00000000
00000001
,
00000000
00000000
00000000
00001000
00000000
00000000
00000000
00001000
00000000
00000100
00000000
00000000
00000000
00000000
00000000
00000000
00000000
00000000
00000000
00000000
00000000
00000000
00000000
00000000
;

//---------------dance-double - ----------------
#NOTEDATA:;
#CHARTNAME:;
#STEPSTYPE:dance-double;
#DESCRIPTION:;
#CHARTSTYLE:;
#DIFFICULTY:Hard;
#METER:12;
#RADARVALUES:0.483344,0.507729,0.290671,0.000000,0.005813,291.000000,266.000000,25.000000,0.000000,0.000000,0.000000,0.000000,0.000000,0.000000,0.483344,0.507729,0.290671,0.000000,0.005813,291.000000,266.000000,25.000000,0.000000,0.000000,0.000000,0.000000,0.000000,0.000000;
#CREDIT:;
#NOTES:
00000000
00000000
00000000
00000000
,
00000000
00000000
00000000
00000000
,
00000000
00000000
00000000
00000000
,
00000000
00000000
00000000
00000000
,
00000000
00000000
00000000
00000000
,
10000000
01000000
10000000
01000000
10000000
01000000
10000000
00010000
,
01000000
00010000
01000000
00010000
01000000
00010000
01000000
00000000
,
01001000
00011000
01001000
00011000
,
00010100
00011000
00010100
00001100
,
00000001
00000100
00000001
00000100
00000001
00000100
00000001
00001000
,
00000100
00001000
00000100
00001000
00000100
00001000
00000100
00000000
,
00000001
00001000
00000100
00000000
00001000
00000001
00000100
00000000
,
00000010
00000001
00000010
00000000
00000100
00001000
00000100
00000000
,
00010100
00000000
00011000
00000000
01000000
00001000
00010000
00000000
,
00010000
01000000
10000000
00000000
00010000
01000000
10000000
00000000
,
01100000
00000000
10010000
00000000
00100000
01000000
00010000
00000000
,
10000000
00100000
00010000
00000000
00100000
00010000
00001000
00000000
,
00010010
00000000
00001010
00000000
00000100
00001000
00000010
00000000
,
00000010
00001000
00000001
00000000
00001000
00000001
00000100
00000000
,
00001001
00000000
00000110
00000000
00001000
00010000
01000000
00000000
00000000
00000000
00100000
00000000
00010000
00000000
01000000
00000000
,
00000000
00010000
01000000
00100000
00000000
10000000
00000000
01000000
,
00000000
00010000
10000000
01000000
00000000
00100000
00010000
00001000
,
00000000
00000010
00010000
00001000
00000000
00000100
00000000
00000110
,
00000000
00001000
00000010
00000001
00000000
00001000
00000100
00000010
,
00000000
00000100
00000010
00000001
00000000
00000110
00000000
00001000
,
00000000
00010000
01000000
10000000
00000000
00100000
00010000
10000000
,
00000000
00100000
00010000
01000000
00000000
10000000
00000000
10000000
,
00000000
01000000
00000000
00010000
00000000
10000000
01000000
00100000
,
00000000
01000000
00100000
00010000
00000000
00100000
00001000
00010000
,
00000000
01000000
00010000
00001000
00000000
00000100
00001000
00010000
,
00000000
00000010
00010000
00001000
00000000
00001000
00000100
00000010
,
00000000
00000100
00000010
00000001
00000000
00000001
00000010
00001000
,
00000000
00000001
00000010
00001000
00000000
00000001
00000100
00001000
,
00000000
00000100
00001000
00010000
00000000
00001000
00010000
01000000
,
00000000
00010000
01000000
10000000
00000000
10000000
00100000
00010000
,
00000000
10000000
00100000
00010000
00000000
10000000
01000000
10000000
,
01000000
00010000
01000000
00010000
00000000
01100000
00000000
00010000
,
00000000
00001000
00000000
00000100
00000000
00000001
00000100
00000001
,
00000100
00001000
00000100
00001000
00000000
00000110
00000000
00001000
,
00000000
00010000
00000000
01000000
00000000
00100000
00010000
10000000
,
00100000
01000000
00010000
10000000
00000000
00100000
00000000
00100000
,
00000000
01000000
00000000
00010000
00000000
01010000
00000000
10000000
,
00000000
11000000
00000000
00010000
00000000
00100000
00000000
00100000
,
00000000
00100000
00000000
00100000
00000000
00100000
00010000
01000000
,
00010000
00100000
00010000
01000000
00000000
00100000
00010000
00001000
,
00000000
00001000
00000100
00000001
00000000
00000010
00001000
00000100
,
00001000
00000010
00001000
00000100
00000000
00000010
00001000
00010000
,
00000000
00010000
01000000
10000000
00000000
00110000
00000000
10000000
,
00000000
10100000
00000000
00010000
00000000
00100000
00010000
01000000
,
00000000
00100000
10000000
01000000
00000000
10000000
01000000
00010000
,
00000000
10000000
01000000
00010000
00000000
00001000
00000000
00000100
,
00000000
00000001
00000000
00000101
00000000
00000000
00000000
00000000
;

//---------------dance-single - ----------------
#NOTEDATA:;
#CHARTNAME:;
#STEPSTYPE:dance-single;
#DESCRIPTION:;
#CHARTSTYLE:;
#DIFFICULTY:Beginner;
#METER:4;
#RADARVALUES:0.217588,0.358397,0.151149,0.093015,0.000000,131.000000,118.000000,13.000000,8.000000,0.000000,0.000000,0.000000,0.000000,0.000000,0.217588,0.358397,0.151149,0.093015,0.000000,131.000000,118.000000,13.000000,8.000000,0.000000,0.000000,0.000000,0.000000,0.000000;
#CREDIT:;
#NOTES:
0000
0000
0000
0000
,
0000
0000
0000
0000
,
0000
0000
0000
0000
,
0020
0000
0000
0030
,
0200
0000
0000
0300
,
0001
0000
0000
0000
,
1000
0000
0000
0000
,
0001
0000
0000
0000
,
0010
0000
0000
0000
,
0100
0000
0000
0000
,
1000
0000
0000
0000
,
0001
0000
1001
1001
,
0001
0001
1000
0000
,
1000
1000
0001
0000
,
0100
0100
0010
0000
,
0010
0010
0100
0000
,
0001
0010
0001
0000
,
1000
0010
1000
0000
,
0001
1000
0001
0000
,
0200
0000
0300
0000
0000
0010
0000
0000
,
0000
0010
0000
0000
0000
0010
0000
0000
,
0000
0010
0000
0000
0000
1000
0000
0000
,
0000
1000
0000
0000
0000
1000
0000
0000
,
0000
1000
0000
0000
0000
0100
0000
0000
,
0000
0100
0000
0000
0000
0100
0000
0000
,
0000
0100
0000
0000
0000
1000
0000
0001
,
0000
0100
0000
0000
0000
0110
0000
0000
,
0000
0010
0000
0010
0000
0200
0000
0000
,
0000
0000
0000
0000
0000
0300
0000
0000
,
0000
0001
0000
0000
0000
2000
0000
0000
,
0000
0000
0000
0000
0000
3000
0000
0000
,
0000
0010
0000
0000
0000
0200
0000
0000
,
0000
0000
0000
0000
0000
0300
0000
0000
,
0000
0001
0000
0000
0000
0020
0000
0000
,
0000
0000
0000
0000
0000
0030
0000
0000
,
0000
0000
0000
0110
0000
0010
0000
0010
,
0000
0010
0000
0010
0000
0010
0000
0010
,
0000
0010
0000
0100
0000
0101
0000
0001
,
0000
0001
0000
0001
0000
0001
0000
0001
,
0000
0001
0000
1000
0000
1010
0000
1000
,
0000
1000
0000
1000
0000
1000
0000
1000
,
0000
1000
0000
1000
0000
1001
0000
0000
,
0000
0000
0000
0110
0000
0000
0000
0000
,
0000
1001
0000
1001
0000
1100
0000
0100
,
0000
0100
0000
0100
0000
0100
0000
0100
,
0000
0100
0000
0010
0000
0011
0000
0001
,
0000
0001
0000
0001
0000
0001
0000
0001
,
0000
0001
0000
1000
0000
1001
0000
1000
,
0000
0001
0000
1000
0000
0001
0000
0000
,
0000
0001
0000
1000
0000
0001
0000
1000
,
0000
0100
0000
1000
0000
0010
0000
0100
,
0000
0000
0000
0020
0000
0000
0000
0030
0000
0100
0000
0000
0000
0000
0000
0000
0000
0000
0000
0000
0000
0000
0000
0000
;

//---------------dance-single - ----------------
#NOTEDATA:;
#CHARTNAME:;
#STEPSTYPE:dance-single;
#DESCRIPTION:;
#CHARTSTYLE:;
#DIFFICULTY:Challenge;
#METER:12;
#RADARVALUES:0.559749,0.537595,0.127895,0.174402,0.110455,337.000000,326.000000,11.000000,15.000000,0.000000,0.000000,0.000000,0.000000,0.000000,0.559749,0.537595,0.127895,0.174402,0.110455,337.000000,326.000000,11.000000,15.000000,0.000000,0.000000,0.000000,0.000000,0.000000;
#CREDIT:;
#NOTES:
// measure 0
0000
0000
0000
0000
,  // measure 1
0000
0000
0000
0000
,  // measure 2
0000
0000
0000
0000
0000
0000
1000
0001
1000
0001
0000
0000
,  // measure 3
2100
0000
0001
0000
3010
1000
0001
0000
,  // measure 4
0012
0000
1000
0000
0103
0010
1000
0000
,  // measure 5
1000
0000
0100
1000
0000
1000
0001
0000
0000
0100
0001
0000
1000
0000
0010
0000
,  // measure 6
1000
0001
0100
0010
0100
0001
1000
0000
,  // measure 7
1020
0000
0100
0000
1030
0001
0010
0000
,  // measure 8
0210
0000
1000
0000
1300
0010
0001
0000
,  // measure 9
0001
0001
0010
0010
1000
1000
0010
0001
,  // measure 10
0020
0000
0130
0000
1000
0001
0100
0010
,  // measure 11
1000
0000
0000
0000
0000
0000
1000
0100
1000
0100
0000
0000
,  // measure 12
1000
0001
0010
0001
0000
1000
0100
1000
,  // measure 13
0001
0100
0010
0100
0000
0010
1000
0010
,  // measure 14
0100
0001
0010
0001
0000
0010
0100
1000
,  // measure 15
0100
1000
0010
0100
0010
0100
0001
1000
,  // measure 16
0001
1000
0100
1000
0000
1000
0010
0100
,  // measure 17
0001
0010
0001
0100
0000
0010
0100
0010
,  // measure 18
1000
0001
0010
0001
1000
0001
0100
0010
,  // measure 19
0000
0000
0100
0100
0000
0001
1000
0100
,  // measure 20
0010
0000
0010
0001
1000
0001
0100
0010
,  // measure 21
1000
0000
1000
0010
0100
0001
1000
0001
,  // measure 22
0010
0000
0010
0001
1000
0010
1000
0001
,  // measure 23
0100
0000
0100
0010
1000
0001
1000
0100
,  // measure 24
0010
0000
0010
0001
1000
0010
1000
0000
,  // measure 25
0000
1000
0010
0100
0001
2000
0000
0100
,  // measure 26
0000
0010
0000
3100
1000
0001
0100
0010
,  // measure 27
0000
0000
0100
0000
0100
0000
0001
0000
0001
0000
2000
0000
0000
0010
0000
0000
,  // measure 28
3100
0000
0100
1000
0001
0010
0000
0010
,  // measure 29
0001
0000
1000
0000
0001
0000
0100
0000
0001
0000
0020
0000
0000
0001
0000
0000
,  // measure 30
0130
0000
0100
1000
0001
1000
0000
1000
,  // measure 31
0010
0000
0100
0000
0010
0000
1000
0000
0001
0000
0200
0000
0000
0010
0000
0000
,  // measure 32
0310
0000
0010
0100
0001
1000
0000
1000
,  // measure 33
0001
0010
0001
0100
0010
1000
0000
0001
,  // measure 34
1000
0000
0001
0100
0000
1000
0100
0000
,  // measure 35
1000
0010
0100
2002
3003
1000
0100
0001
,  // measure 36
0100
1000
0100
0001
0100
1000
0100
0001
,  // measure 37
0100
0000
0100
1000
0001
0100
1000
0100
,  // measure 38
0001
0100
1000
0100
0001
0100
1000
0100
,  // measure 39
0001
0000
0000
0000
1001
0000
0000
0000
1010
0000
0000
0100
0001
0000
0000
1000
,  // measure 40
0010
0000
0000
1000
0100
0000
0000
1000
0001
0000
0000
0100
0001
0000
0000
0010
,  // measure 41
0001
0000
0010
0001
1000
0020
0000
0130
,  // measure 42
0001
0000
1001
0000
1100
0000
1000
0001
,  // measure 43
0100
0020
0000
0200
0330
0010
1000
0010
,  // measure 44
0001
0010
1000
0010
0001
0010
1000
0010
,  // measure 45
0001
0000
0001
1000
0010
0001
0010
1000
,  // measure 46
0010
0001
0010
1000
0010
0001
0010
1000
,  // measure 47
0010
0000
0010
0001
0100
0010
1000
0001
,  // measure 48
0100
0000
0100
0001
1000
0200
0000
0310
,  // measure 49
0100
1000
0001
0100
0010
0100
0000
0101
,  // measure 50
0000
0000
1001
0000
0000
1000
0001
0000
0010
0000
0100
0000
1000
0000
0001
0000
,  // measure 51
0000
0000
0000
1000
0000
0001
0000
1000
0000
0001
0000
0000
0000
0000
0000
0000
0000
0000
0000
0000
0000
0000
0000
0000
;
