#TITLE:GET UP'N MOVE (2008 X-edit);
#SUBTITLE:;
#ARTIST:S & K;
#TITLETRANSLIT:;
#SUBTITLETRANSLIT:;
#ARTISTTRANSLIT:;
#GENRE:;
#CREDIT:;
#BANNER:GET UP'N MOVE (2008 X-edit).png;
#BACKGROUND:GET UP'N MOVE (2008 X-edit)-bg.png;
#LYRICSPATH:;
#CDTITLE:;
#MUSIC:GET UP'N MOVE (2008 X-edit).ogg;
#OFFSET:0.000000;
#SAMPLESTART:36.349998;
#SAMPLELENGTH:15.000000;
#SELECTABLE:YES;
#DISPLAYBPM:132.000000;
#BPMS:0.000000=132.841003
,4.000000=131.981995
;
#STOPS:
;
#BGCHANGES:;
#KEYSOUNDS:;
#ATTACKS:;

//---------------dance-single - ----------------
#NOTES:
     dance-single:
     :
     Beginner:
     3:
     0.106295,0.160944,0.097052,0.000000,0.000000,69.000000,60.000000,9.000000,0.000000,0.000000,0.000000,0.106295,0.160944,0.097052,0.000000,0.000000,69.000000,60.000000,9.000000,0.000000,0.000000,0.000000:
0000
0000
0000
0000
,
0000
0000
0000
0000
,
0000
0000
0000
0000
,
0000
0000
0000
0000
,
0000
0000
0000
0001
,
0000
0000
0000
1000
,
0000
0000
0000
0001
,
0000
0000
0000
1001
,
0000
0000
0000
0000
,
0000
0000
0000
1000
,
0000
0000
0000
0001
,
0000
0000
0000
1000
,
0000
0000
0000
0010
,
0000
0000
0000
1000
,
0000
0000
0000
0001
,
0000
0000
0000
0010
,
0000
0001
0000
0001
,
0000
1000
0000
1000
,
0000
0000
0000
1001
,
0000
0000
0000
1001
,
0000
0000
0000
0100
,
0000
0000
0000
0010
,
0000
0001
0000
0100
,
0000
1000
0000
0010
,
0000
0000
0000
0000
,
0000
0000
1000
1001
,
0000
0000
0000
0000
,
0000
0000
0001
1001
,
0000
0000
0000
0000
,
0000
0000
0000
0000
,
0001
0000
0010
0000
,
1000
0000
0010
0000
,
0001
0000
0010
0000
,
0000
0000
0000
0000
,
0000
0010
0000
0010
,
0000
0100
0000
0100
,
0000
1000
0000
1000
,
0000
0001
0000
0001
,
0000
1000
0000
0100
,
0000
0001
0000
0100
,
0000
0001
0000
0010
,
0000
1000
0000
0100
,
0000
0000
0000
0001
,
0000
0000
0001
1001
,
0000
0000
0000
1000
,
0000
0000
1000
1001
,
0000
0000
0000
0001
,
0000
0000
0001
1001
,
0000
0000
0000
0000
,
0000
0000
1000
1001
,
0000
0000
0000
0000
;

//---------------dance-single - ----------------
#NOTES:
     dance-single:
     :
     Easy:
     6:
     0.318884,0.402360,0.118619,0.053918,0.032351,207.000000,196.000000,11.000000,5.000000,0.000000,0.000000,0.318884,0.402360,0.118619,0.053918,0.032351,207.000000,196.000000,11.000000,5.000000,0.000000,0.000000:
0000
0000
0000
0000
,
0000
0000
0000
0000
,
0000
0000
0000
0000
,
0000
0000
0000
0000
,
1000
0100
0001
0100
,
0010
1000
0010
0000
,
0001
0100
1000
0100
,
0010
0001
0010
1100
,
0001
0001
1000
1000
,
0010
0200
0300
1001
,
0001
0001
0010
0001
,
0001
0001
1000
0100
,
1000
1000
0010
1000
,
0001
0001
0010
0001
,
0010
1000
0001
0100
,
0001
0000
0010
0000
1000
0100
0001
0000
,
1000
0020
0100
0130
,
0001
0020
0100
0130
,
1000
0010
0001
0100
,
0001
0010
1000
0100
,
1000
0100
0001
0100
,
0010
0000
1000
0000
0001
0100
1000
0000
,
0001
1000
0100
0001
,
1000
0000
0000
0001
0000
0000
1000
0100
1000
0100
0000
0000
,
1000
1000
0001
0001
,
0010
0000
0010
0000
0010
0010
0010
0000
,
1010
0000
1000
0000
1000
0100
0001
0000
,
1000
0000
0100
0000
0010
1000
0100
0000
,
0000
0010
0000
0010
,
0000
0010
0000
0010
,
1000
0000
1000
0000
0010
1000
0100
0000
,
0001
0000
0001
0000
0010
0001
0100
0000
,
0010
0000
0010
0000
1000
0001
1000
0000
,
0000
0000
0000
0000
,
0010
0000
0100
0000
0010
0010
0010
0000
,
0100
0000
0010
0000
0100
0100
0100
0000
,
0001
0000
1000
0000
0001
0001
0001
0000
,
1000
0000
0001
0000
1000
1000
1000
0000
,
0110
0000
1001
0000
0110
1000
0100
0000
,
0001
0000
1000
0000
0110
0001
0100
0000
,
0010
1000
0001
0010
,
0010
0000
0000
0100
0000
0000
0001
0100
0001
0100
0000
0000
,
1000
0002
1000
1003
,
0001
2000
0001
3001
,
1001
0000
0000
0000
0001
0100
1000
0000
,
1001
0000
0000
0000
1000
0100
0001
0000
,
1001
0000
0001
0000
0010
1000
0100
0000
,
0001
0000
1000
0000
0010
0001
0100
0000
,
0010
0000
0000
0000
0110
0010
1000
0000
,
0001
0000
0000
1000
0000
0000
0001
0100
0001
0100
0000
0000
,
0000
0000
0000
0000
;

//---------------dance-single - ----------------
#NOTES:
     dance-single:
     :
     Medium:
     7:
     0.349695,0.375536,0.161753,0.118619,0.107835,227.000000,212.000000,15.000000,11.000000,0.000000,0.000000,0.349695,0.375536,0.161753,0.118619,0.107835,227.000000,212.000000,15.000000,11.000000,0.000000,0.000000:
0000
0000
0000
0000
,
0000
0000
0000
0000
,
0000
0000
0000
0000
,
0000
0000
0000
0000
,
0001
0100
1000
0100
,
0010
0100
0001
0000
0010
0000
0100
0000
,
1000
0100
0001
0100
,
0010
0100
1000
0000
0010
0000
0101
0000
,
1000
0010
1000
0000
0001
0010
0001
0000
,
0100
0200
0300
1001
,
0010
0001
0000
1000
0000
0001
0000
1000
,
0010
0001
0000
0001
0000
1000
1000
0000
,
0100
0001
0000
0001
0100
1000
0000
1000
,
0100
0001
0000
0001
0100
1000
0000
1000
,
0000
0001
0000
1000
0000
0100
0000
0010
,
0000
0001
0000
1000
0000
0010
0010
0000
,
0100
0100
0000
0101
0000
0010
0000
0001
,
0000
0100
0000
1100
0000
0010
0000
1000
,
0000
0001
0000
0100
0000
1000
0000
0100
,
0000
0001
0000
0100
0000
1000
0100
0000
,
0010
0200
0000
0301
0000
0010
0000
1100
,
0000
0002
0000
1003
0000
0001
0000
0101
,
0000
0001
0000
0010
0000
0100
0000
0010
,
0000
0000
0000
1000
0000
0000
0000
0000
0000
0001
0000
0000
1000
0000
0010
0000
1000
0000
0100
0000
0000
0000
0000
0000
,
1000
0000
0010
0000
0010
0000
0000
0000
1000
0000
0000
1000
0000
0000
1001
0000
,
0000
0000
0001
0000
1000
0000
0000
0000
0010
0000
0000
0100
0000
0000
0100
0000
,
0000
0000
0010
0000
0100
0000
0000
0000
0001
0000
0000
1000
0000
0000
0001
0000
,
0000
0100
0100
0000
0010
0000
0110
0000
,
0002
0010
0000
0013
,
2000
0010
0000
3010
,
0000
0000
0100
0000
0100
0000
0000
0000
0100
0000
0000
0100
0000
0000
0100
0000
,
0000
0000
0001
0000
0001
0000
0000
0000
0010
0000
0000
0010
0000
0000
0010
0000
,
0000
0000
1000
0000
1000
0000
0000
0000
0100
0000
0000
0100
0000
0000
0100
0000
,
0000
0000
0010
0000
0000
0020
0000
0000
0000
0000
0000
0100
0000
0000
0130
0000
,
0000
1000
0000
0010
0000
0001
0000
0100
,
0000
1000
0000
0010
0000
0001
0000
0100
,
0000
0010
0000
1000
0000
0100
0000
0001
,
0000
0010
0000
1000
0000
0100
0000
0101
,
0000
0100
0000
1000
0000
0010
0000
0001
,
0000
1100
0000
1001
0000
0100
0100
0000
,
0000
1000
0000
0001
0000
0010
0000
0100
,
0000
0000
0000
0010
0000
0000
0000
0000
0000
0010
0000
0000
1000
0000
0010
0000
1000
0000
0100
0000
0000
0000
0000
0000
,
0000
0000
0100
0000
0100
0000
0000
0000
0100
0000
0000
0100
0000
0000
0100
0000
,
0000
0000
0001
0000
0002
0000
0000
0000
1003
0000
0000
0001
0000
0000
1000
0000
,
0000
0000
1000
0000
2000
0000
0000
0000
3010
0000
0000
0001
0000
0000
0101
0000
,
0000
0000
0001
0000
0002
0000
0000
0000
0013
0000
0000
0100
0000
0000
1100
0000
,
0000
0000
0010
0000
0020
0000
0000
0000
1030
0000
0000
0001
0000
0000
1001
0000
,
0000
0000
0100
0000
0200
0000
0000
0000
0310
0000
0000
0100
0000
0000
1001
0000
,
0000
0100
0000
0100
0000
1000
0000
1000
,
0000
0000
0000
0001
0000
0000
0001
0000
0000
0000
0000
0000
1000
0000
0010
0000
1000
0000
0100
0000
0000
0000
0000
0000
,
0000
0000
0000
0000
;

//---------------dance-single - ----------------
#NOTES:
     dance-single:
     :
     Hard:
     11:
     0.517609,0.509657,0.323506,0.161753,0.107835,336.000000,306.000000,30.000000,15.000000,0.000000,0.000000,0.517609,0.509657,0.323506,0.161753,0.107835,336.000000,306.000000,30.000000,15.000000,0.000000,0.000000:
0000
0000
0000
0000
,
0000
0000
0000
0000
,
0000
0000
0000
0000
,
0000
0000
0000
0000
,
1000
0100
0100
0000
0001
0100
0100
0000
,
0010
1000
0100
1000
0010
0000
0100
0000
,
0001
0100
0100
0000
1000
0100
0100
0000
,
0010
0001
0100
0001
0010
0000
1010
0000
,
0001
0010
0001
0010
1000
0010
1000
0010
,
0100
0010
0200
0000
0300
0000
1001
0000
,
0010
0001
1000
0100
0010
0001
0010
1000
,
0010
0001
0100
0001
0010
1000
0001
0010
,
0100
0001
1000
0001
0100
1000
0010
1000
,
0100
0001
0010
0001
0100
1000
0010
1000
,
0100
0001
0010
1000
0001
0100
1000
0010
,
0100
0001
1000
1000
0100
0010
1001
0000
,
0002
0010
0013
0100
1000
0010
0100
0001
,
2000
0100
3100
0001
0100
0010
1000
0100
,
0020
0001
0031
1000
0010
0100
1000
0010
,
0200
0001
0301
1000
0100
0010
0100
1000
,
0001
0100
1000
0001
1000
0010
0100
1000
,
0010
0001
0001
1000
1000
0001
0010
0100
,
0100
0001
0010
0010
1000
0100
1000
0010
,
0001
0000
0000
1000
0000
0000
0100
0000
0000
0001
0000
0000
1000
0000
0010
0000
1000
0000
0100
0000
0000
0000
0000
0000
,
1000
0000
0100
0000
0100
0000
0000
0000
1001
0000
0000
0100
0000
0000
0100
0000
,
0000
0000
1001
0000
0002
0000
0000
0000
0013
0000
0000
1000
0000
0000
0100
0000
,
0000
0000
1100
0000
0002
0000
0000
0000
1003
0000
0000
0001
0000
0000
0101
0000
,
0000
1100
0200
0000
0301
0000
0110
0000
,
0002
0010
0000
0013
,
2000
0010
0000
3010
,
0000
0000
0001
0000
1000
0000
0000
0000
0110
0000
0000
0100
0000
0000
1100
0000
,
0000
0000
0110
0000
0110
0000
0000
0000
1001
0000
0000
1000
0000
0000
0101
0000
,
0000
0000
0100
0000
1100
0000
0000
0000
0010
0000
0000
0001
0000
0000
0101
0000
,
0000
0000
1100
0000
0000
1100
0000
0000
0000
0000
0000
0101
0000
0000
0101
0000
,
1000
0100
1000
0100
0001
0100
0001
0100
,
1000
0001
1000
0001
0100
0010
0100
0010
,
1000
0010
0100
1000
0001
0100
0100
0001
,
0100
0010
0100
1000
0001
0100
1000
0001
,
0010
0100
0001
1000
1000
0010
0100
0001
,
0100
1100
0001
1001
1000
0100
0100
0000
,
0010
1000
1000
0001
0100
0010
0001
0100
,
1000
0000
0000
0010
0000
0000
0001
0000
0000
0010
0000
0000
1000
0000
0010
0000
1000
0000
0100
0000
0000
0000
0000
0000
,
1001
0000
0100
0000
0200
0000
0000
0000
1300
0000
0000
0001
0000
0000
0100
0000
,
1000
0000
0001
0000
0002
0000
0000
0000
1003
0000
0000
0010
0000
0000
0101
0000
,
0001
0000
1000
0000
2000
0000
0000
0000
3010
0000
0000
0001
0000
0000
0101
0000
,
1000
0000
0001
0000
0200
0000
0000
0000
0310
0000
0000
0100
0000
0000
1100
0000
,
0010
0000
0001
0000
0200
0000
0000
0000
1300
0000
0000
0001
0000
0000
1001
0000
,
0010
0000
0100
0000
0100
0000
0000
0000
0011
0000
0000
0100
0000
0000
1001
0000
,
0010
0100
0001
0100
0100
1000
0100
1000
,
0010
0000
0000
0001
0000
0000
0100
0000
0000
0000
0000
0000
1000
0000
0010
0000
1000
0000
0100
0000
0000
0000
0000
0000
,
0000
0000
0000
0000
;

//---------------dance-single - ----------------
#NOTES:
     dance-single:
     :
     Challenge:
     8:
     0.338911,0.375536,0.140186,0.107835,0.107835,220.000000,207.000000,13.000000,10.000000,108.000000,0.000000,0.338911,0.375536,0.140186,0.107835,0.107835,220.000000,207.000000,13.000000,10.000000,108.000000,0.000000:
0000
0000
0000
0000
,
0000
0000
0000
0000
,
0000
0000
0000
0000
,
0000
0000
0000
0000
,
0001
0100
1000
0100
,
0010
0100
0001
0000
0010
0000
MMMM
0000
,
1000
0100
0001
0100
,
0010
0100
1000
0000
0010
0000
MMMM
0000
,
1000
0010
1000
0000
0001
0010
0001
0000
,
0100
0200
0300
MMMM
,
0010
0001
0000
1000
0000
0001
0000
1000
,
0010
0001
0000
0001
0000
1000
1000
0000
,
0100
0001
0000
0001
0100
1000
0000
1000
,
0100
0001
0000
0001
0100
1000
0000
1000
,
0000
0001
0000
1000
0000
0100
0000
0010
,
0000
0001
0000
1000
0000
0010
0010
0000
,
MMMM
0100
0000
0101
0000
0010
0000
0001
,
MMMM
0100
0000
1100
0000
0010
0000
1000
,
MMMM
0001
0000
0100
0000
1000
0000
0100
,
MMMM
0001
0000
0100
0000
1000
0100
0000
,
MMMM
0200
0000
0301
0000
0010
0000
1100
,
MMMM
0002
0000
1003
0000
0001
0000
0101
,
MMMM
0001
0000
0010
0000
0100
0000
0010
,
MMMM
0000
0000
1000
0000
0000
0000
0000
0000
0001
0000
0000
1000
0000
0010
0000
1000
0000
0100
0000
0000
0000
0000
0000
,
1000
0000
0010
0000
0010
0000
0000
0000
1000
0000
0000
1000
0000
0000
1001
0000
,
0000
0000
0001
0000
1000
0000
0000
0000
0010
0000
0000
0100
0000
0000
0100
0000
,
0000
0000
0010
0000
0100
0000
0000
0000
0001
0000
0000
1000
0000
0000
0001
0000
,
0000
0100
0100
0000
0010
0000
0110
0000
,
0002
0010
0000
0013
,
2000
0010
0000
3010
,
MMMM
0000
0100
0000
0100
0000
0000
0000
0100
0000
0000
0100
0000
0000
0100
0000
,
MMMM
0000
0001
0000
0001
0000
0000
0000
0010
0000
0000
0010
0000
0000
0010
0000
,
MMMM
0000
1000
0000
1000
0000
0000
0000
0100
0000
0000
0100
0000
0000
0100
0000
,
0000
0000
0010
0000
0000
0010
0000
0000
MMMM
0000
0000
0100
0000
0000
0100
0000
,
MMMM
1000
0000
0010
0000
0001
0000
0100
,
MMMM
1000
0000
0010
0000
0001
0000
0100
,
MMMM
0010
0000
1000
0000
0100
0000
0001
,
MMMM
0010
0000
1000
0000
0100
0000
0101
,
MMMM
0100
0000
1000
0000
0010
0000
0001
,
MMMM
1100
0000
1001
0000
0100
0100
0000
,
MMMM
1000
0000
0001
0000
0010
0000
0100
,
MMMM
0000
0000
0010
0000
0000
0000
0000
0000
0010
0000
0000
1000
0000
0010
0000
1000
0000
0100
0000
0000
0000
0000
0000
,
0000
0000
0100
0000
0100
0000
0000
0000
0100
0000
0000
0100
0000
0000
0100
0000
,
0000
0000
0001
0000
0002
0000
0000
0000
1003
0000
0000
0001
0000
0000
1000
0000
,
0000
0000
1000
0000
2000
0000
0000
0000
3010
0000
0000
0001
0000
0000
0101
0000
,
0000
0000
0001
0000
0002
0000
0000
0000
0013
0000
0000
0100
0000
0000
1100
0000
,
MMMM
0000
0010
0000
0020
0000
0000
0000
1030
0000
0000
0001
0000
0000
1001
0000
,
MMMM
0000
0100
0000
0200
0000
0000
0000
0310
0000
0000
0100
0000
0000
1001
0000
,
MMMM
0100
0000
0100
0000
1000
0000
1000
,
MMMM
0000
0000
0001
0000
0000
0001
0000
0000
0000
0000
0000
1000
0000
0010
0000
1000
0000
0100
0000
0000
0000
0000
0000
,
0000
0000
0000
0000
;

//---------------dance-double - ----------------
#NOTES:
     dance-double:
     :
     Easy:
     6:
     0.289615,0.321888,0.129402,0.053918,0.000000,188.000000,176.000000,12.000000,5.000000,0.000000,0.000000,0.289615,0.321888,0.129402,0.053918,0.000000,188.000000,176.000000,12.000000,5.000000,0.000000,0.000000:
00000000
00000000
00000000
00000000
,
00000000
00000000
00000000
00000000
,
00000000
00000000
00000000
00000000
,
00000000
00000000
00000000
00000000
,
00000001
00000000
00001000
00000000
,
00000001
00000100
00002000
00000000
,
00013000
00000000
10000000
00000000
,
10000000
01000000
00010000
10010000
,
00100000
00100000
00010000
00010000
,
00002000
00020000
00033000
00011000
,
00001010
00001000
00010000
01000000
,
00110000
00010000
00001000
00000100
,
00000001
00000010
00001000
00010000
,
00100000
00010000
00001000
00000010
,
00000001
00000100
00010000
10000000
,
00010000
00000000
00001000
00000000
00010000
00001000
00000100
00000000
,
00000010
00000001
00000100
00001000
,
00100000
10000000
01000000
00010000
,
00002000
00100000
01000000
00103000
,
00020000
00000010
00000100
00030010
,
00001000
00000001
00000100
00000001
,
00000010
00000000
00001000
00000000
00100000
00010000
00001000
00000000
,
00100000
01000000
00001000
00000001
,
00000010
00001000
00000001
00000001
,
00000010
00000010
00000001
00010000
,
00100000
00000000
00100000
00000000
00100000
00010000
00001000
00000000
,
00000101
00000000
00000010
00000000
00010000
00001000
00000010
00000000
,
00000001
00000000
00000100
00000000
00001000
00010000
00100000
00000000
,
00000000
00001000
00000000
00010000
,
00000000
00001000
00000000
00010000
,
00000010
00000010
00000001
00000001
,
00000100
00001000
01000000
00100000
,
00010000
10000000
01000000
00010000
,
00000000
00000000
00000000
00000000
,
00001000
00000010
00000100
00001000
,
00010000
00100000
10000000
01000000
,
10000000
00010000
00001000
00000001
,
00000001
00001000
00010000
10000000
,
10010000
00000000
00000001
00000100
,
00001001
00000000
10000000
01000000
,
00010000
00010000
01000000
01000000
,
00011000
00011000
00000100
00000100
,
00000001
00000100
00001000
00010000
,
00100000
00010000
10000000
01000000
,
10010000
00000000
00000000
00000000
00001000
00000100
00000001
00000000
,
00001001
00000000
00000000
00000000
00010000
01000000
10000000
00000000
,
00100000
00000000
00010000
00000000
00100000
00010000
00001000
00000000
,
00000010
00000000
00010000
00000000
00100000
00010000
00001000
00000000
,
00000101
00000000
00000000
00000000
00000100
00001000
00010000
00000000
,
00100000
00000000
10000000
00000000
01000000
00010000
00001000
00000000
,
00000000
00000000
00000000
00000000
;

//---------------dance-double - ----------------
#NOTES:
     dance-double:
     :
     Medium:
     7:
     0.331208,0.375536,0.086268,0.118619,0.107835,215.000000,207.000000,8.000000,11.000000,0.000000,0.000000,0.331208,0.375536,0.086268,0.118619,0.107835,215.000000,207.000000,8.000000,11.000000,0.000000,0.000000:
00000000
00000000
00000000
00000000
,
00000000
00000000
00000000
00000000
,
00000000
00000000
00000000
00000000
,
00000000
00000000
00000000
00000000
,
10000000
01000000
00010000
01000000
,
00100000
00000000
00001000
00010000
00000100
00000000
00000000
00000000
,
00000001
00000100
00001000
00000100
,
00000010
00000000
00010000
00001000
01000000
00000000
10010000
00000000
,
00100000
10000000
01000000
00010000
,
00002000
00020000
00033000
00011000
,
00010000
00000010
00000000
00010000
00000000
00000010
00000000
00001000
,
00010000
00100000
00000000
00100000
00000000
00001000
00001000
00000000
,
00010000
00001000
00000000
00000100
00001000
00010000
00000000
01000000
,
00010000
00001000
00000000
00000100
00001000
00010000
00000000
01000000
,
00000000
00001000
00000000
00000001
00000000
00000100
00000000
00010000
,
00000000
10000000
00000000
01000000
00000000
00010000
00010000
00000000
,
00001000
00001000
00000000
00000001
00000000
00001000
00000000
00010000
,
00000000
00010000
00000000
10000000
00000000
00010000
00000000
00001000
,
00000000
00000010
00000000
00000001
00000000
00000100
00000000
00001000
,
00000000
00100000
00000000
10000000
00000000
01000000
00000000
00010000
,
00000000
00001000
00000000
00010000
00000000
00000100
00000000
00000001
,
00000000
00001000
00000000
00000100
00000000
00010000
00000000
00100000
,
00000000
10000000
00000000
01000000
00000000
00010000
00000000
00001000
,
00000000
00000000
00000000
00000010
00000000
00000000
00000000
00000000
00000000
00001000
00000000
00000000
00000001
00000000
00000100
00000000
00000001
00000000
00000100
00000000
00000000
00000000
00000000
00000000
,
00001000
00000000
00000100
00000000
00000100
00000000
00000000
00000000
00000100
00000000
00000000
00000100
00000000
00000000
00000100
00000000
,
00000000
00000000
00001000
00000000
00001000
00000000
00000000
00000000
00010000
00000000
00000000
00010000
00000000
00000000
00010000
00000000
,
00000000
00000000
01000000
00000000
01000000
00000000
00000000
00000000
00100000
00000000
00000000
10000000
00000000
00000000
01000000
00000000
,
00000000
00010000
00001000
00000000
00000010
00000001
00000100
00000000
,
00000000
00000010
00000000
00000010
,
00000000
00000010
00000000
00000010
,
00000000
00000000
00000001
00000000
00000002
00000000
00000000
00000000
00000013
00000000
00000000
00000100
00000000
00000000
00001000
00000000
,
00000000
00000000
00001000
00000000
00002000
00000000
00000000
00000000
00013000
00000000
00000000
01000000
00000000
00000000
00010000
00000000
,
00000000
00000000
00100000
00000000
00200000
00000000
00000000
00000000
00301000
00000000
00000000
00010000
00000000
00000000
00000100
00000000
,
00000000
00000000
00000001
00000000
00000000
00000001
00000000
00000000
00000000
00000000
00000000
00001000
00000000
00000000
00001000
00000000
,
00000100
00000001
00000000
00000001
00000000
00000100
00000000
00001000
,
00000000
00010000
00000000
01000000
00000000
10000000
00000000
00010000
,
00000000
00100000
00000000
10000000
00000000
01000000
00000000
00010000
,
00000000
00001000
00000000
00000010
00000000
00000001
00000000
00000100
,
00000000
00001000
00000000
01000000
00000000
10000000
00000000
01000000
,
00000000
01010000
00000000
00110000
00000000
00001000
00001000
00000000
,
00000000
00000010
00000000
00000100
00000000
00010000
00000000
00100000
,
00000000
00000000
00000000
10000000
00000000
00000000
00000000
00000000
00000000
00010000
00000000
00000000
10000000
00000000
01000000
00000000
10000000
00000000
01000000
00000000
00000000
00000000
00000000
00000000
,
00000000
00000000
00010000
00000000
00010000
00000000
00000000
00000000
01000000
00000000
00000000
01000000
00000000
00000000
02000000
00000000
,
00000000
00000000
03001000
00000000
00001000
00000000
00000000
00000000
00000010
00000000
00000000
00000010
00000000
00000000
00000020
00000000
,
00000000
00000000
00000031
00000000
00000001
00000000
00000000
00000000
00000100
00000000
00000000
00001000
00000000
00000000
00012000
00000000
,
00000000
00000000
01003000
00000000
01000000
00000000
00000000
00000000
00010000
00000000
00000000
00100000
00000000
00000000
21000000
00000000
,
00000000
00000000
30100000
00000000
00010000
00000000
00000000
00000000
00001000
00000000
00000000
00000010
00000000
00000000
00000102
00000000
,
00000000
00000000
00000013
00000000
00001000
00000000
00000000
00000000
00010000
00000000
00000000
00100000
00000000
00000000
12000000
00000000
,
00000000
03010000
00000000
00001000
00000000
00000100
00000000
00000001
,
00000000
00000000
00000000
00000010
00000000
00000000
00000000
00000000
00000000
00000000
00000000
00000000
00000001
00000000
00000100
00000000
00000001
00000000
00000100
00000000
00000000
00000000
00000000
00000000
,
00000000
00000000
00000000
00000000
;

//---------------dance-double - ----------------
#NOTES:
     dance-double:
     :
     Hard:
     11:
     0.516069,0.536481,0.258805,0.000000,0.156361,335.000000,311.000000,24.000000,0.000000,0.000000,0.000000,0.516069,0.536481,0.258805,0.000000,0.156361,335.000000,311.000000,24.000000,0.000000,0.000000,0.000000:
00000000
00000000
00000000
00000000
,
00000000
00000000
00000000
00000000
,
00000000
00000000
00000000
00000000
,
00000000
00000000
00000000
00000000
,
00000001
00000010
00000000
00000100
00001000
00000010
00000000
00000100
,
00001000
00010000
01000000
10000000
00100000
00000000
01000000
00000000
,
10000000
00100000
00000000
01000000
00010000
00100000
00000000
01000000
,
00010000
00001000
00000100
00000001
00000010
00000000
00001001
00000000
,
00010000
00000010
00001000
00000100
00010000
00000010
00001000
00000100
,
00000001
00000100
00000010
00000000
00000000
00000000
00001001
00000000
,
00010000
00001000
00100000
00010000
01000000
10000000
01000000
00010000
,
00100000
10000000
00010000
01000000
00010000
00001000
00001000
00000000
,
00010000
00000100
00001000
00000010
00010000
00000100
00000010
00000100
,
00001000
00000010
00000100
00000001
00000100
00000010
00000010
00000000
,
00010000
00001000
01000000
00010000
00100000
10000000
00100000
00001000
,
00010000
01000000
10000000
00100000
01000000
00000000
00011000
00000000
,
00000010
00001000
00010000
00100000
10000000
01000000
10000000
01000000
,
00010000
00001000
00000100
00000010
00000001
00000100
00000001
00000100
,
00001000
00010000
00100000
00010000
01000000
00010000
01000000
00010000
,
00001000
00000010
00000001
00001000
00000010
00000100
00000010
00000100
,
00000010
00000010
00001000
00001000
00000100
00000100
00000010
00000001
,
00001000
00001000
00000100
00000100
00010000
00010000
00001000
00100000
,
00010000
10000000
01000000
01000000
00100000
00010000
01000000
01000000
,
00001000
00000000
00000000
00010000
00000000
00000000
00000010
00000000
00000000
00000100
00000000
00000000
00000001
00000000
00000010
00000000
00000001
00000000
00000010
00000000
00000000
00000000
00000000
00000000
,
00000000
00000000
00000100
00000000
00000000
00000001
00000000
00000000
00001000
00000000
00000000
00000100
00000000
00000000
00011000
00000000
,
00000000
00000000
00001000
00000000
00000000
00100000
00000000
00000000
00010000
00000000
00000000
10000000
00000000
00000000
11000000
00000000
,
00000000
00000000
00100000
00000000
00000000
00011000
00000000
00000000
00010000
00000000
00000000
00000100
00000000
00000000
00001010
00000000
,
00000000
00000000
00000001
00000000
00000000
00000100
00000000
00000000
00000010
00000000
00001000
00000000
00000100
00000000
00000000
00000000
,
00000000
00000001
00000000
00000100
,
00000000
00010000
00000000
00001000
,
00010000
00000000
00001000
00000000
00000000
00110000
00000000
00000000
00010000
00000000
00000000
10000000
00000000
00000000
11000000
00000000
,
00100000
00000000
00010000
00000000
00000000
01000000
00000000
00000000
01001000
00000000
00000000
00010000
00000000
00000000
00000010
00000000
,
00001000
00000000
00000100
00000000
00000000
00000110
00000000
00000000
00000001
00000000
00000000
00000100
00000000
00000000
00000011
00000000
,
00001000
00000000
00000100
00000000
00000000
00010100
00000000
00000000
00000000
00000000
00000000
00100000
00000000
00000000
00110000
00000000
,
00001000
00000100
00000001
00000100
00001000
00010000
00001000
00010000
,
00010000
01000000
10000000
01000000
00100000
01000000
00100000
01000000
,
10000000
01000000
10000000
01000000
00010000
01000000
00010000
01000000
,
00100000
00001000
00100000
00001000
00010000
00000010
00010000
00000010
,
00001000
00000100
00001000
00000100
00000001
00000100
00000001
00000100
,
00001000
00000010
00001000
00000010
00000100
00010000
00000100
00010000
,
01000000
00001000
01000000
00001000
00010000
00100000
00010000
00100000
,
10000000
00000000
00000000
00010000
00000000
00000000
10000000
00000000
00000000
00010000
00000000
00000000
10000000
00000000
01000000
00000000
10000000
00000000
01000000
00000000
00000000
00000000
00000000
00000000
,
00001000
00000000
00001000
00000000
00001000
00000000
00010000
00000000
00000100
00000000
00000000
00000010
00000000
00000000
00000001
00000000
,
00000100
00000000
00000100
00000000
00000100
00000000
00000010
00000000
00001010
00000000
00000000
00000100
00000000
00000000
00011000
00000000
,
00001000
00000000
00001000
00000000
00001000
00000000
00100000
00000000
00010000
00000000
00000000
01000000
00000000
00000000
00100000
00000000
,
10000000
00000000
10000000
00000000
10000000
00000000
01000000
00000000
00110000
00000000
00000000
00010000
00000000
00000000
01010000
00000000
,
00001000
00000000
00010000
00000000
00001000
00010000
00000000
00000000
00000100
00000000
00000000
00000110
00000000
00000000
00000011
00000000
,
00000100
00000000
00000010
00000000
00001000
00000010
00000000
00000000
00010010
00000000
00000000
00000100
00000000
00000000
00101000
00000000
,
00001000
01000000
00010000
10000000
01000000
00100000
00010000
01000000
,
10010000
00000000
00000000
00011000
00000000
00000000
00000010
00001000
00000010
00001000
00000000
00000000
,
00000000
00000000
00000000
00000000
;

//---------------dance-double - ----------------
#NOTES:
     dance-double:
     :
     Challenge:
     8:
     0.321965,0.375536,0.064701,0.086268,0.107835,209.000000,203.000000,6.000000,8.000000,208.000000,0.000000,0.321965,0.375536,0.064701,0.086268,0.107835,209.000000,203.000000,6.000000,8.000000,208.000000,0.000000:
00000000
00000000
00000000
00000000
,
00000000
00000000
00000000
00000000
,
00000000
00000000
00000000
00000000
,
00000000
00000000
00000000
00000000
,
10000000
01000000
00010000
01000000
,
00100000
00000000
00001000
00010000
00000100
00000000
MMMMMMMM
00000000
,
00000001
00000100
00001000
00000100
,
00000010
00000000
00010000
00001000
01000000
00000000
MMMMMMMM
00000000
,
00100000
10000000
01000000
00010000
,
00002000
00020000
00033000
MMMMMMMM
,
00010000
00000010
00000000
00010000
00000000
00000010
00000000
00001000
,
00010000
00100000
00000000
00100000
00000000
00001000
00001000
00000000
,
00010000
00001000
00000000
00000100
00001000
00010000
00000000
01000000
,
00010000
00001000
00000000
00000100
00001000
00010000
00000000
01000000
,
00000000
00001000
00000000
00000001
00000000
00000100
00000000
00010000
,
00000000
10000000
00000000
01000000
00000000
00010000
00010000
00000000
,
MMMMMMMM
00001000
00000000
00000001
00000000
00001000
00000000
00010000
,
MMMMMMMM
00010000
00000000
10000000
00000000
00010000
00000000
00001000
,
MMMMMMMM
00000010
00000000
00000001
00000000
00000100
00000000
00001000
,
MMMMMMMM
00100000
00000000
10000000
00000000
01000000
00000000
00010000
,
MMMMMMMM
00001000
00000000
00010000
00000000
00000100
00000000
00000001
,
MMMMMMMM
00001000
00000000
00000100
00000000
00010000
00000000
00100000
,
MMMMMMMM
10000000
00000000
01000000
00000000
00010000
00000000
00001000
,
MMMMMMMM
00000000
00000000
00000010
00000000
00000000
00000000
00000000
00000000
00001000
00000000
00000000
00000001
00000000
00000100
00000000
00000001
00000000
00000100
00000000
00000000
00000000
00000000
00000000
,
00001000
00000000
00000100
00000000
00000100
00000000
00000000
00000000
00000100
00000000
00000000
00000100
00000000
00000000
00000100
00000000
,
00000000
00000000
00001000
00000000
00001000
00000000
00000000
00000000
00010000
00000000
00000000
00010000
00000000
00000000
00010000
00000000
,
00000000
00000000
01000000
00000000
01000000
00000000
00000000
00000000
00100000
00000000
00000000
10000000
00000000
00000000
01000000
00000000
,
00000000
00010000
00001000
00000000
00000010
00000001
00000100
00000000
,
00000000
00000010
00000000
00000010
,
00000000
00000010
00000000
00000010
,
MMMMMMMM
00000000
00000001
00000000
00000002
00000000
00000000
00000000
00000013
00000000
00000000
00000100
00000000
00000000
00001000
00000000
,
MMMMMMMM
00000000
00001000
00000000
00002000
00000000
00000000
00000000
00013000
00000000
00000000
01000000
00000000
00000000
00010000
00000000
,
MMMMMMMM
00000000
00100000
00000000
00200000
00000000
00000000
00000000
00301000
00000000
00000000
00010000
00000000
00000000
00000100
00000000
,
00000000
00000000
00000001
00000000
00000000
00000001
00000000
00000000
00000000
00000000
00000000
00001000
00000000
00000000
00001000
00000000
,
MMMMMMMM
00000001
00000000
00000001
00000000
00000100
00000000
00001000
,
MMMMMMMM
00010000
00000000
01000000
00000000
10000000
00000000
00010000
,
MMMMMMMM
00100000
00000000
10000000
00000000
01000000
00000000
00010000
,
MMMMMMMM
00001000
00000000
00000010
00000000
00000001
00000000
00000100
,
MMMMMMMM
00001000
00000000
01000000
00000000
10000000
00000000
01000000
,
MMMMMMMM
01010000
00000000
00110000
00000000
00001000
00001000
00000000
,
MMMMMMMM
00000010
00000000
00000100
00000000
00010000
00000000
00100000
,
MMMMMMMM
00000000
00000000
10000000
00000000
00000000
00000000
00000000
00000000
00010000
00000000
00000000
10000000
00000000
01000000
00000000
10000000
00000000
01000000
00000000
00000000
00000000
00000000
00000000
,
00000000
00000000
00010000
00000000
00010000
00000000
00000000
00000000
01000000
00000000
00000000
01000000
00000000
00000000
02000000
00000000
,
00000000
00000000
03001000
00000000
00001000
00000000
00000000
00000000
00000010
00000000
00000000
00000010
00000000
00000000
00000020
00000000
,
00000000
00000000
00000031
00000000
00000001
00000000
00000000
00000000
00000100
00000000
00000000
00001000
00000000
00000000
00012000
00000000
,
00000000
00000000
01003000
00000000
01000000
00000000
00000000
00000000
00010000
00000000
00000000
00100000
00000000
00000000
11000000
00000000
,
MMMMMMMM
00000000
00100000
00000000
00010000
00000000
00000000
00000000
00001000
00000000
00000000
00000010
00000000
00000000
00000101
00000000
,
MMMMMMMM
00000000
00000010
00000000
00001000
00000000
00000000
00000000
00010000
00000000
00000000
00100000
00000000
00000000
11000000
00000000
,
MMMMMMMM
00010000
00000000
00001000
00000000
00000100
00000000
00000001
,
MMMMMMMM
00000000
00000000
00000010
00000000
00000000
00000000
00000000
00000000
00000000
00000000
00000000
00000001
00000000
00000100
00000000
00000001
00000000
00000100
00000000
00000000
00000000
00000000
00000000
,
00000000
00000000
00000000
00000000
;

//---------------dance-single - Edit----------------
#NOTES:
     dance-single:
     :
     Edit:
     15:
     0.637769,0.804721,0.593094,0.064701,0.700930,414.000000,359.000000,55.000000,6.000000,256.000000,0.000000,0.637769,0.804721,0.593094,0.064701,0.700930,414.000000,359.000000,55.000000,6.000000,256.000000,0.000000:
// measure 0
0000
0000
0000
0000
,  // measure 1
0000
0000
0000
0000
,  // measure 2
0000
0000
0000
0000
,  // measure 3
0001
0010
0001
0000
0010
0000
0100
0010
0100
0000
1000
0000
0100
0010
0100
0000
0001
0000
0010
0000
0000
0000
0000
0000
,  // measure 4
1001
0100
MMMM
0100
MMMM
0100
MMMM
0100
,  // measure 5
0010
0000
0001
0010
0000
1000
0010
0000
0202
0000
0000
0000
0303
0000
0000
0000
,  // measure 6
1001
0010
MMMM
0010
MMMM
0010
MMMM
0010
,  // measure 7
1000
0000
0010
0001
0000
1000
0010
0000
2200
0000
0000
0000
3300
0000
0000
0000
,  // measure 8
1000
0000
0100
0000
0001
0000
0100
0000
0010
0100
0000
0100
0000
0010
0001
1000
,  // measure 9
0010
0100
0001
0000
0010
0000
MMMM
0000
MMMM
0000
MMMM
0000
0101
0000
0000
0000
,  // measure 10
0001
0010
0000
0010
1000
0000
0010
0000
0100
0001
0000
0001
0100
0000
0000
0000
,  // measure 11
1000
0100
0000
0100
0000
0100
0010
0100
0001
0000
MMMM
0000
1001
0000
0000
0000
,  // measure 12
0001
0000
0010
0000
1000
0000
0010
0001
0000
0010
0000
0010
1000
0000
0010
0001
,  // measure 13
0000
0001
0000
0001
0100
0000
0000
0000
0100
0010
0000
0110
0000
1001
0000
0000
,  // measure 14
1000
0000
0100
0010
0001
0000
0001
0100
0010
1000
0100
0000
MMMM
0000
0000
0000
,  // measure 15
0000
1000
0100
1000
0100
1000
0010
0001
0100
0001
0100
0000
MMMM
0000
0000
0000
,  // measure 16
MMMM
0100
MMMM
1000
MMMM
0010
MMMM
0100
,  // measure 17
MMMM
0001
MMMM
0010
MMMM
1000
MMMM
0100
,  // measure 18
MMMM
0010
MMMM
0001
MMMM
0100
MMMM
0010
,  // measure 19
MMMM
1000
MMMM
0001
MMMM
1000
MMMM
0001
,  // measure 20
0101
MMMM
1010
0000
1100
MMMM
0011
0000
,  // measure 21
0110
0000
MMMM
0000
1001
0000
0001
0010
0000
0010
0100
0000
MMMM
0000
0000
0000
,  // measure 22
1000
0100
0010
0001
0100
0000
0000
0001
0010
0100
1000
0100
0010
0000
0000
0001
,  // measure 23
0100
0000
0000
0010
0000
0000
1000
0000
0000
0100
0000
0000
0010
0000
0000
0001
0000
0000
1000
0000
0000
0010
0000
0000
0100
0000
0000
0000
0100
0000
0000
0000
0100
0000
0000
0000
0100
0000
0000
0000
0000
0000
MMMM
0000
0000
0000
0000
0000
,  // measure 24
1000
0100
0001
0000
0001
0100
1000
0000
1001
0000
0000
MMMM
0000
0000
1001
0000
,  // measure 25
0001
0000
0000
0010
0000
0000
0100
0000
0000
0000
0000
0000
1000
0000
0000
0100
0000
0000
0010
0000
0000
0000
0000
0000
0011
0000
0000
0000
0011
0000
0000
0000
0011
0000
0000
0000
0011
0000
0000
0000
0000
0000
0000
0000
0000
0000
0000
0000
,  // measure 26
0001
0100
0010
1000
0100
0010
0001
0000
0011
0000
0000
MMMM
0000
0000
1010
0000
,  // measure 27
1000
0000
0000
0000
0000
0000
0100
0000
0000
0000
0000
0000
0010
0000
0000
0001
0000
0000
0000
0000
0000
0001
0000
0000
0110
0000
0000
0000
1010
0000
0000
0000
0101
0000
0000
0000
1100
0000
0000
0000
0000
0000
0000
0000
0000
0000
0000
0000
,  // measure 28
0200
0301
MMMM
1000
MMMM
0001
MMMM
0100
,  // measure 29
0020
0031
MMMM
1000
MMMM
0001
MMMM
0100
,  // measure 30
1000
0000
0100
0000
0010
0001
0100
0000
0101
0000
0000
1010
0000
0000
0101
0000
,  // measure 31
0001
0000
0010
0000
0100
0000
1000
0100
0010
0000
0000
1010
0000
0000
0101
0000
,  // measure 32
0010
0000
0001
0000
0100
0001
1000
0001
0010
0000
0000
0110
0000
0000
1001
0000
,  // measure 33
0000
0000
1010
0000
0000
0101
0000
0000
MMMM
0000
0000
0011
0000
0000
1100
0000
,  // measure 34
MMMM
0001
MMMM
0100
MMMM
1000
MMMM
0100
,  // measure 35
MMMM
0001
MMMM
0010
MMMM
1000
MMMM
0010
,  // measure 36
MMMM
0001
MMMM
1000
MMMM
0100
MMMM
0010
,  // measure 37
MMMM
0100
MMMM
1000
MMMM
0010
MMMM
0100
,  // measure 38
0010
0000
0001
0010
0000
0100
0010
1000
0001
0000
MMMM
0000
0101
0000
0000
0000
,  // measure 39
0010
0000
0001
0100
0000
0100
0010
1000
0100
0000
MMMM
0000
1100
0000
0000
0000
,  // measure 40
1000
0010
0100
0001
0010
0000
0000
0001
0010
0100
1000
0010
0100
0000
0000
1000
,  // measure 41
0100
0000
0000
0010
0000
0000
0001
0000
0000
0100
0000
0000
0010
0000
0000
1000
0000
0000
0100
0000
0000
0010
0000
0000
0001
0000
0000
0000
0011
0000
0000
0000
0101
0000
0000
0000
1001
0000
0000
0000
0000
0000
0000
0000
0000
0000
0000
0000
,  // measure 42
1000
0100
0010
0000
0001
0010
0100
1000
1010
0000
0000
MMMM
0000
0000
0101
0000
,  // measure 43
0010
0000
0000
0001
0000
0000
0100
0000
0000
0000
0000
0000
1000
0000
0000
0100
0000
0000
0010
0000
0000
0001
0000
0000
0100
0000
0000
0000
0101
0000
0000
0000
0110
0000
0000
0000
1100
0000
0000
0000
0000
0000
0000
0000
0000
0000
0000
0000
,  // measure 44
1000
0010
0100
0000
0010
0001
1000
0010
0001
0000
0000
MMMM
0000
0000
0110
0000
,  // measure 45
1000
0000
0000
0001
0000
0000
0100
0000
0000
0000
0000
0000
0010
0000
0000
0001
0000
0000
0100
0000
0000
0010
0000
0000
1000
0000
0000
0000
1100
0000
0000
0000
1010
0000
0000
0000
1001
0000
0000
0000
0000
0000
0000
0000
0000
0000
0000
0000
,  // measure 46
0100
0001
1000
0000
0100
1000
0100
0001
1000
0000
0000
MMMM
0000
0000
1001
0000
,  // measure 47
0010
0000
0000
0001
0000
0000
0100
0000
0000
0000
0000
0000
0010
0000
0000
0001
0000
0000
1000
0000
0000
0100
0000
0000
0010
0000
0000
0000
1010
0000
0000
0000
0110
0000
0000
0000
0011
0000
0000
0000
0000
0000
0000
0000
0000
0000
0000
0000
,  // measure 48
0001
0100
1000
0100
0001
0010
1000
0010
,  // measure 49
0001
0000
0000
0000
0000
0000
MMMM
0000
0000
0000
0000
0000
0001
0010
0001
0000
0010
0100
0010
0000
0000
0000
0000
0000
;
