#VERSION:0.83;
#TITLE:가면의 시간;
#SUBTITLE:;
#ARTIST:FIN.K.L;
#TITLETRANSLIT:GAMYEONUI SIGAN;
#SUBTITLETRANSLIT:;
#ARTISTTRANSLIT:;
#GENRE:;
#ORIGIN:;
#CREDIT:;
#BANNER:GAMYEONUI SIGAN.png;
#BACKGROUND:GAMYEONUI SIGAN-bg.png;
#PREVIEWVID:;
#JACKET:GAMYEONUI SIGAN-jacket.png;
#CDIMAGE:;
#DISCIMAGE:;
#LYRICSPATH:;
#CDTITLE:;
#MUSIC:GAMYEONUI SIGAN.mp3;
#OFFSET:1.265000;
#SAMPLESTART:43.282001;
#SAMPLELENGTH:15.000000;
#SELECTABLE:YES;
#BPMS:0.000=113.040,
116.000=56.520,
132.000=113.040;
#STOPS:;
#DELAYS:;
#WARPS:;
#TIMESIGNATURES:0.000=4=4;
#TICKCOUNTS:0.000=4;
#COMBOS:0.000=1;
#SPEEDS:0.000=1.000=0.000=0;
#SCROLLS:0.000=1.000;
#FAKES:;
#LABELS:0.000=Song Start;
#BGCHANGES:;
#KEYSOUNDS:;
#ATTACKS:
;

//---------------dance-single - ----------------
#NOTEDATA:;
#CHARTNAME:;
#STEPSTYPE:dance-single;
#DESCRIPTION:;
#CHARTSTYLE:;
#DIFFICULTY:Easy;
#METER:5;
#RADARVALUES:0.286918,0.473010,0.319288,0.000000,0.000000,195.000000,164.000000,31.000000,0.000000,0.000000,0.000000,0.000000,0.000000,0.000000,0.286918,0.473010,0.319288,0.000000,0.000000,195.000000,164.000000,31.000000,0.000000,0.000000,0.000000,0.000000,0.000000,0.000000;
#CREDIT:;
#DISPLAYBPM:113.000000:56.000000;
#NOTES:
0000
0000
0000
0000
,
0000
0000
0000
0000
,
0000
0000
0000
0000
,
0000
0000
0000
0000
,
0000
0000
0000
0000
,
1000
1000
1000
0100
,
0001
0001
0001
0010
,
1001
0100
1001
0100
,
1000
1000
0001
0001
,
1000
1000
1000
0010
,
0001
0001
0001
0100
,
1001
0010
1001
0100
,
1000
1000
0001
0001
,
0001
0010
0100
1001
,
1000
0100
0010
1001
,
0010
0100
0010
1001
,
0010
0100
0010
0110
,
1001
1000
1000
1000
,
1001
0001
0001
0001
,
1001
0010
0100
1000
,
1001
0100
0010
0001
,
1000
0100
0001
0100
,
1000
0100
0001
0100
,
1000
1000
0001
0001
,
1001
0100
1000
0100
,
0110
0100
1001
0100
,
1001
0100
0001
0100
,
0110
0100
1001
0100
,
1000
0100
0010
0001
,
1000
1000
0001
0001
0010
0100
0001
0100
,
0001
0001
1000
1000
0010
0100
1000
0100
,
1001
1000
0001
0100
1001
0001
1000
0100
,
0010
0100
0010
0110
1001
0010
0100
1000
,
1001
1000
1000
0100
,
1001
0001
0001
0010
,
1001
0100
1001
0100
,
1000
1000
0001
0001
,
1001
1000
1000
0010
,
1001
0001
0001
0100
,
1001
0010
1001
0100
,
1000
1000
0001
0001
,
0001
0010
0100
1001
;

//---------------dance-single - ----------------
#NOTEDATA:;
#CHARTNAME:;
#STEPSTYPE:dance-single;
#DESCRIPTION:;
#CHARTSTYLE:;
#DIFFICULTY:Medium;
#METER:9;
#RADARVALUES:0.434055,0.731015,0.906366,0.000000,0.000000,295.000000,207.000000,88.000000,0.000000,0.000000,0.000000,0.000000,0.000000,0.000000,0.434055,0.731015,0.906366,0.000000,0.000000,295.000000,207.000000,88.000000,0.000000,0.000000,0.000000,0.000000,0.000000,0.000000;
#CREDIT:;
#NOTES:
0000
0000
0000
0000
,
0000
0000
0000
0000
,
0000
0000
0000
0000
,
0000
0000
0000
0000
,
0000
0000
0000
0000
,
0110
0000
0000
1000
0001
1000
0001
0000
,
0110
0000
0000
0001
1000
0001
1000
0000
,
0110
0000
0000
1000
0001
1000
0001
0000
,
0110
0000
0000
0001
1000
0001
1000
0000
,
0110
0000
0000
1000
0001
0100
0010
0000
,
1001
0000
0000
0010
0100
1000
0001
0000
,
0110
0000
0000
1000
0001
0010
0100
0000
,
1001
0000
0000
0100
0010
1000
0001
0000
,
0110
0000
0001
1000
0100
0010
0001
0000
,
1100
0000
0001
0100
0010
1000
0100
0000
,
0011
0000
1000
0100
0010
0001
0100
0000
,
1010
0000
0100
0010
0001
0100
0010
0000
,
1001
0000
0010
0100
0001
1000
0010
0000
,
0101
0000
1000
0100
0010
0001
1000
0000
,
0110
0000
0001
0100
0010
1000
0001
0000
,
0110
1001
1100
0101
,
1000
0100
1000
0000
1001
0000
1001
0000
,
0001
0100
0001
0000
1001
0000
1001
0000
,
1000
0010
1000
0000
1001
0000
1001
0000
,
0110
1001
1100
0101
,
1000
0100
1000
0000
1001
0000
1001
0000
,
0001
0100
0001
0000
1001
0000
1001
0000
,
1000
0010
1000
0000
1001
0000
1001
0000
,
0110
1001
1100
0101
,
1001
1001
1001
0110
1100
1100
1100
0110
,
0011
0011
0011
0110
0101
0101
0101
0110
,
1010
1010
1010
0110
0011
0011
0011
0110
,
1100
1100
1100
0110
1100
0011
0101
1010
,
1001
0000
0010
0100
1000
0001
0100
0000
,
1010
0000
0100
0010
0001
0100
0010
0000
,
1001
0000
0100
0010
0001
1000
0010
0000
,
0101
1100
0011
1100
,
0011
0000
0100
0010
1000
0100
0010
0000
,
1001
0000
0100
0010
1000
0100
0010
0000
,
1001
0000
0100
0010
0001
0100
0010
0000
,
1001
1100
1001
0101
,
1001
0001
0010
0100
1000
1001
1001
0000
;

//---------------dance-single - ----------------
#NOTEDATA:;
#CHARTNAME:;
#STEPSTYPE:dance-single;
#DESCRIPTION:;
#CHARTSTYLE:;
#DIFFICULTY:Hard;
#METER:12;
#RADARVALUES:0.604735,0.819463,1.617040,0.010300,0.133895,411.000000,254.000000,157.000000,1.000000,0.000000,0.000000,0.000000,0.000000,0.000000,0.604735,0.819463,1.617040,0.010300,0.133895,411.000000,254.000000,157.000000,1.000000,0.000000,0.000000,0.000000,0.000000,0.000000;
#CREDIT:;
#NOTES:
// measure 0
0000
0000
0000
0000
,  // measure 1
0000
0000
0000
0000
,  // measure 2
0000
0000
0000
0000
,  // measure 3
0000
0000
0000
0000
,  // measure 4
0000
0000
0000
0000
,  // measure 5
1000
0000
0000
0000
0000
0000
0100
0000
0010
0000
0000
0101
0000
0000
1001
0000
,  // measure 6
0100
0000
0000
0000
0000
0000
0010
0000
0001
0000
0000
1100
0000
0000
1010
0000
,  // measure 7
0100
0000
0000
0000
0000
0000
0001
0000
0010
0000
0000
0110
0000
0000
1100
0000
,  // measure 8
0010
0000
0000
0000
0000
0000
0100
0000
0001
0000
0000
1100
0000
0000
1001
0000
,  // measure 9
0100
0000
0000
0000
0000
0000
0010
0000
1000
0000
0000
0101
0000
0000
0011
0000
,  // measure 10
0100
0000
0000
0000
0000
0000
1000
0000
0010
0000
0000
0110
0000
0000
0101
0000
,  // measure 11
0010
0000
0000
0000
0000
0000
0100
0000
1000
0000
0000
0101
0000
0000
1001
0000
,  // measure 12
0100
0000
0000
0000
0000
0000
0010
0000
0001
0000
0000
1100
0000
0000
0011
0000
,  // measure 13
0100
0010
1000
1100
1100
0011
0011
0000
,  // measure 14
0100
0010
1000
1100
1100
0011
0011
0000
,  // measure 15
1000
0100
0010
0011
0011
1100
1100
0000
,  // measure 16
0001
0100
0010
1010
1010
0101
0101
0000
,  // measure 17
0010
0100
1000
1001
1001
0110
0110
0000
,  // measure 18
0001
0010
0100
1100
1100
0101
0101
0000
,  // measure 19
0010
1000
0001
0101
0101
1100
1100
0000
,  // measure 20
0001
0001
0100
0100
0010
0000
0000
0000
,  // measure 21
1001
1001
0110
0110
0101
0101
1001
0000
,  // measure 22
0110
0110
0101
0101
0011
0011
0110
0000
,  // measure 23
1001
1001
0110
0110
1010
1010
1001
0000
,  // measure 24
0110
0110
0101
0101
1100
1100
0110
0000
,  // measure 25
0011
0011
0110
0110
1100
1100
0101
0000
,  // measure 26
1010
1010
0110
0110
0101
0101
1100
0000
,  // measure 27
1001
1001
0110
0110
1100
1100
1001
0000
,  // measure 28
0101
0000
1100
0000
0101
0110
1010
0000
,  // measure 29
1001
0000
0110
0000
1000
0100
1000
0000
1001
0000
0110
0000
0001
0100
0001
0000
,  // measure 30
1010
0000
0101
0000
1000
0010
1000
0000
0101
0000
1010
0000
0001
0100
0001
0000
,  // measure 31
1010
0000
1100
0000
0010
0001
0010
0000
1100
0000
0101
0000
0010
1000
0010
0000
,  // measure 32
0101
0000
1010
0000
0100
0010
0100
0000
1100
1100
1001
1001
0011
0011
1100
1100
,  // measure 33
0001
0000
0100
0000
0001
0000
0010
0000
0110
0000
0000
1001
0000
0000
0110
0000
,  // measure 34
1000
0000
0001
0000
0010
0000
0100
0000
1001
0000
0000
0110
0000
0000
1001
0000
,  // measure 35
0010
0000
0100
0000
0010
0000
0001
0000
0101
0000
0000
1010
0000
0000
0101
0000
,  // measure 36
1100
1100
0011
0011
0101
0101
1010
0000
,  // measure 37
0001
0000
0010
0000
0100
0000
1000
0000
1001
0000
0000
0110
0000
0000
1001
0000
,  // measure 38
0100
0000
0010
0000
1000
0000
0100
0000
0110
0000
0000
1001
0000
0000
0110
0000
,  // measure 39
0001
0000
0100
0000
0010
0000
1000
0000
1100
0000
0000
0011
0000
0000
1001
0000
,  // measure 40
0101
0101
0011
0011
1100
1100
0011
0000
,  // measure 41
1001
0000
1001
0000
0110
0000
0110
0000
1010
0000
1000
0020
0000
0000
0030
0000
;

//---------------dance-double - ----------------
#NOTEDATA:;
#CHARTNAME:;
#STEPSTYPE:dance-double;
#DESCRIPTION:;
#CHARTSTYLE:;
#DIFFICULTY:Easy;
#METER:5;
#RADARVALUES:0.257490,0.387008,0.267790,0.000000,0.000000,175.000000,149.000000,26.000000,0.000000,0.000000,0.000000,0.000000,0.000000,0.000000,0.257490,0.387008,0.267790,0.000000,0.000000,175.000000,149.000000,26.000000,0.000000,0.000000,0.000000,0.000000,0.000000,0.000000;
#CREDIT:;
#NOTES:
00000000
00000000
00000000
00000000
,
00000000
00000000
00000000
00000000
,
00000000
00000000
00000000
00000000
,
00000000
00000000
00000000
00000000
,
00000000
00000000
00000000
00000000
,
00010000
00010000
00010000
01100000
,
00001000
00001000
00001000
00000110
,
00000010
00000010
00000010
00001001
,
00000100
00000100
00000100
00011000
,
00001000
00100000
00100000
00011000
,
00010000
00000100
00000100
00011000
,
00000000
00010000
10000000
01100000
,
00010000
00001000
00000001
00000110
,
00000000
00000001
00000000
00000001
,
00001000
00010000
10000000
00000000
,
10010000
10000000
00010000
10000000
,
10000000
01000000
00100000
01000000
,
00010000
00010000
00000000
00100000
,
00001000
00000001
00000001
00000001
,
00000110
00001000
00010000
10000000
,
01000000
00100000
10010000
10010000
,
00000000
00000000
10000000
00010000
,
00100000
00010000
10000000
00100000
,
00000000
10010000
00000000
00001000
,
00000000
00001001
00000000
00010000
,
01000000
00000000
00010000
10000000
,
10000000
10000000
00010000
00010000
,
00001000
00001000
00000001
00000001
,
00001000
00001000
00010000
10000000
,
10010000
01000000
00100000
01000000
00100000
01000000
00100000
00100000
,
00010000
10000000
00010000
10000000
00010000
10000000
00010000
00010000
,
10000000
00010000
01000000
00100000
00010000
00001000
00010000
00010000
,
00001000
00010000
00000100
00000010
00000100
00000010
00000010
00000100
,
00000110
00000110
00001001
00001001
,
00000110
00001001
00000110
00001001
,
00000010
00000100
00000001
00000100
,
00000000
00000010
00000001
00001000
,
00000000
00000100
00010000
00001000
,
00000000
00001000
01000000
00010000
,
10000000
00010000
00001000
00000001
,
00001000
00000100
00010000
00001000
,
00010000
00011000
00011000
00011000
;

//---------------dance-double - ----------------
#NOTEDATA:;
#CHARTNAME:;
#STEPSTYPE:dance-double;
#DESCRIPTION:;
#CHARTSTYLE:;
#DIFFICULTY:Medium;
#METER:10;
#RADARVALUES:0.335473,0.430009,0.556179,0.000000,0.041198,228.000000,174.000000,54.000000,0.000000,0.000000,0.000000,0.000000,0.000000,0.000000,0.335473,0.430009,0.556179,0.000000,0.041198,228.000000,174.000000,54.000000,0.000000,0.000000,0.000000,0.000000,0.000000,0.000000;
#CREDIT:;
#NOTES:
00000000
00000000
00000000
00000000
,
00000000
00000000
00000000
00000000
,
00000000
00000000
00000000
00000000
,
00000000
00000000
00000000
00000000
,
00000000
00000000
00000000
00000000
,
10010000
00000000
01000000
00001000
00010000
00000000
00000000
00000000
,
00001001
00000000
00000100
00010000
00001000
00000000
00000000
00000000
,
00110000
00000000
01000000
00001000
00010000
00000000
00000000
00000000
,
00001100
00000000
00000010
00010000
00001000
00000000
00000000
00000000
,
10010000
00000000
00100000
01000000
00010000
00000000
00000000
00000000
,
00011000
00000000
00000100
00000010
00000001
00000000
00000000
00000000
,
00001001
00000000
00000100
00000010
00001000
00000000
00000000
00000000
,
00011000
00000000
00100000
01000000
10000000
00000000
00000000
00000000
,
10000000
00010000
01000000
00000000
00011000
00000000
00000000
00000000
,
00000100
00000010
00000001
00000000
00001100
00000000
00000000
00000000
,
00010000
00001000
00100000
00000000
01010000
00000000
00000000
00000000
,
10000000
00100000
01000000
00000000
10010000
00000000
00000000
00000000
,
00100000
00001000
00010000
00000000
00001100
00000000
00000000
00000000
,
00000010
00000001
00000100
00000000
00001010
00000000
00000000
00000000
,
00010000
00001000
01000000
00000000
10010000
00000000
00000000
00000000
,
01100000
00000000
00000000
00000000
00001000
00010000
00001000
00000000
,
00001100
00000011
00000101
00000000
,
00001000
00000100
00010000
00001000
01000000
00000000
00000000
00000000
,
00110000
11000000
01010000
00000000
,
00100000
00001000
00010000
00000000
00000100
00001000
00000001
00000000
,
00001100
00000011
00000101
00000000
,
00001000
00000100
00010000
00001000
01000000
00000000
00000000
00000000
,
00110000
11000000
01010000
00000000
,
00100000
00001000
00010000
00000000
00000100
00001000
00000001
00000000
,
00000110
00000000
00000000
00001000
00000100
00000000
00000000
00000000
00011000
00000000
00000000
01000000
00010000
00000000
00000000
00000000
,
10010000
00000000
00000000
01000000
00100000
00000000
00000000
00000000
00110000
00000000
00011000
00000000
00001010
00000000
00000000
00000000
,
00001001
00000000
00000000
00000100
00000010
00000000
00000000
00000000
00011000
00000000
00000000
01000000
00100000
00000000
00000000
00000000
,
10010000
00000000
00000000
01000000
00001000
00000000
00000000
00000000
00010000
00001000
00010000
00000000
00000100
00001000
00000100
00000000
,
00000001
00000001
00000100
00000100
00000010
00000010
00001000
00000000
,
00001100
00011000
00110000
00000000
,
10000000
10000000
00100000
00100000
01000000
01000000
00010000
00000000
,
00011000
00001100
00000011
00000101
,
00000010
00000010
00001000
00001000
00000100
00000100
00010000
00000000
,
00011000
00110000
11000000
00000000
,
00010000
00010000
01000000
01000000
00001000
00001000
00010000
00000000
,
00001010
00000101
00001100
00011000
,
10010000
00010000
00100000
01000000
10000000
11000000
11000000
00000000
;

//---------------dance-double - ----------------
#NOTEDATA:;
#CHARTNAME:;
#STEPSTYPE:dance-double;
#DESCRIPTION:;
#CHARTSTYLE:;
#DIFFICULTY:Hard;
#METER:12;
#RADARVALUES:0.462011,0.625380,0.720973,0.010300,0.128745,314.000000,244.000000,70.000000,1.000000,0.000000,0.000000,0.000000,0.000000,0.000000,0.462011,0.625380,0.720973,0.010300,0.128745,314.000000,244.000000,70.000000,1.000000,0.000000,0.000000,0.000000,0.000000,0.000000;
#CREDIT:;
#NOTES:
00000000
00000000
00000000
00000000
,
00000000
00000000
00000000
00000000
,
00000000
00000000
00000000
00000000
,
00000000
00000000
00000000
00000000
,
00000000
00000000
00000000
00000000
,
10000000
01000000
10000000
01000000
00000000
00000000
00000000
00000000
,
00010000
01000000
00010000
01000000
00000000
00000000
00000000
00000000
,
00001000
00010000
00001000
00010000
00000000
00000000
00000000
00000000
,
00000100
00001000
00000100
00001000
00000000
00000000
00000000
00000000
,
00000001
00000100
00000010
00001000
00000000
00000000
00000000
00000000
,
00000100
00010000
00001000
00100000
00000000
00000000
00000000
00000000
,
00010000
01000000
00100000
10000000
00000000
00000000
00000000
00000000
,
01000000
00100000
00001000
00010000
00000000
00000000
00000000
00000000
,
00000010
00001000
00000100
00000010
00000000
00001001
00001001
00000000
,
00000100
00010000
00001000
00100000
00000000
10010000
10010000
00000000
,
01000000
00100000
00010000
01000000
00000000
00011000
00011000
00000000
,
00000100
00000010
00000001
00000100
00000000
00001010
00001010
00000000
,
00010000
00001000
00010000
00001000
00000000
00110000
00110000
00000000
,
10000000
00100000
01000000
00010000
00000000
00011000
00011000
00000000
,
00000100
00000010
00000001
00001000
00000000
00000110
00000110
00000000
,
00001000
00000100
00010000
00001000
00000000
00110000
00110000
00110000
,
10000000
01000000
00100000
00010000
01000000
00001000
00010000
00000000
,
00001100
00000000
00010010
00010010
00000000
01001000
01001000
00000000
,
10000000
01000000
00100000
00010000
01000000
00001000
00010000
00000000
,
00001010
00000000
00010100
00010100
00000000
00101000
00101000
00000000
,
01000000
00100000
10000000
01000000
00100000
00010000
01000000
00000000
,
00011000
00000000
00001010
00001010
00000000
00001100
00001100
00000000
,
00010000
00001000
01000000
00010000
00100000
01000000
10000000
00000000
,
01010000
00000000
00011000
00011000
00000000
00001010
00001010
00000000
,
00010000
00000100
00010000
00000100
00010000
00000100
00010000
00000000
00001000
00100000
00001000
00100000
00001000
00100000
00001000
00000000
,
01000000
00010000
01000000
00010000
01000000
00010000
01000000
00000000
00001000
00100000
00001000
00100000
00001000
00100000
00001000
00000000
,
00010000
00000100
00010000
00000100
00010000
00000100
00010000
00000000
00000010
00000100
00000010
00000100
00000010
00000100
00000010
00000000
,
00001000
00000100
00001000
00000100
00001000
00000100
00001000
00000000
00000010
00010000
00000010
00010000
00000010
00010000
00000010
00000000
,
00010000
00001000
00010000
00000000
00100000
00010000
00100000
00000000
,
11000000
11000000
01100000
01100000
00110000
00110000
01010000
00000000
,
00001000
00010000
00001000
00000000
00000010
00001000
00000010
00000000
,
00000101
00000101
00000110
00000110
00001010
00001010
00001100
00000000
,
00010000
00001000
00100000
00000000
00010000
01000000
00100000
00000000
,
10010000
10010000
01010000
01010000
00011000
00011000
00001010
00000000
,
00000100
00000010
00000001
00000000
00000100
00000010
00001000
00000000
,
00010100
00010100
00011000
00011000
00101000
00101000
10010000
00000000
,
00011000
00000000
00101000
00000000
00110000
00000000
01100000
00000000
11000000
00000000
10000000
02000000
00000000
00000000
03000000
00000000
;

//---------------dance-single - ----------------
#NOTEDATA:;
#CHARTNAME:;
#STEPSTYPE:dance-single;
#DESCRIPTION:;
#CHARTSTYLE:;
#DIFFICULTY:Challenge;
#METER:14;
#RADARVALUES:0.659175,1.164500,1.380149,0.164794,0.401685,448.000000,314.000000,134.000000,16.000000,0.000000,0.000000,0.000000,0.000000,0.000000,0.659175,1.164500,1.380149,0.164794,0.401685,448.000000,314.000000,134.000000,16.000000,0.000000,0.000000,0.000000,0.000000,0.000000;
#CREDIT:;
#NOTES:
0000
0000
0000
0000
,
0000
0000
0000
0000
,
0000
0000
0000
0000
,
0000
0000
0000
0000
,
0000
0000
0000
0000
,
0001
0000
0000
0010
0100
0000
1000
0000
0100
0000
1000
0100
1000
0000
0110
0000
,
0000
0000
1000
0000
0100
0000
0010
0000
1000
0000
0100
1000
0000
0000
0110
0000
,
0000
0000
0010
0000
0100
0000
0001
0000
0010
0000
1000
0100
0000
0000
0011
0000
,
0000
0000
0001
0000
0010
0000
0100
0000
1000
0000
0001
0100
0000
0000
0001
0010
,
0001
0000
0000
0000
0101
0000
1000
0000
0100
0000
0010
0001
0000
0000
1001
0000
,
0000
0000
0101
0000
0001
0000
1000
0000
0100
0000
1000
0100
0010
0000
0011
0000
,
0000
0000
0010
0000
0100
0000
1000
0000
0010
0000
0100
0010
0000
0000
0110
0000
,
0000
0000
1001
0000
1000
0000
0100
0000
0010
0000
0001
0010
0001
0000
0100
0000
,
0101
0000
0000
0000
0010
0000
1000
0000
0001
0000
0100
0001
1000
0000
1010
0000
,
0000
0000
1000
0000
0100
0000
0010
0000
0001
0000
0010
0001
0010
0000
0011
0000
,
0000
0000
0100
0000
0010
0000
1000
0000
0100
0000
1000
0100
0000
0000
1100
0000
,
0000
0110
0000
0011
0000
0101
1001
1100
,
0110
0000
0011
0011
1100
1100
1010
0101
,
0000
1001
0000
1100
0000
0110
0011
0110
,
1100
0000
0000
0000
1010
0000
1001
0000
1100
0000
1000
0010
0100
0000
0101
0000
,
0011
0000
0110
0000
1100
1100
1001
1001
,
0012
0000
0103
0000
2010
0000
3100
0000
0011
0000
0001
0010
0000
0000
0110
0000
,
0000
0000
1100
0000
0110
0000
0011
0000
1001
0000
0001
0100
0000
0000
0000
0000
,
2010
0000
3100
0000
0012
0000
0103
0000
1001
0000
0001
0010
0000
0000
0110
0000
,
0000
1100
1000
0010
0100
0101
0001
0011
,
0120
0000
1030
0000
0210
0000
0301
0000
0110
0000
0100
0010
0000
0000
0110
0000
,
0000
0000
1100
0000
0110
0000
0011
0000
1001
0000
0001
0100
0000
0000
0000
0000
,
1020
0000
0130
0000
0201
0000
0310
0000
1010
0000
0100
0001
0000
0000
1001
0000
,
0000
1000
0001
0000
0010
0000
0100
0000
2000
0000
0000
3001
1000
0000
0001
0000
,
0100
0000
0000
0010
0100
0000
0110
0000
0000
0000
1010
0000
0000
0000
0101
0000
0000
0000
0001
0010
0001
0000
1000
0000
0200
0000
1300
0000
0020
0000
0130
0000
,
0000
0000
0000
0000
1010
0000
1010
0000
0110
0000
0110
0000
0101
0000
0101
0000
0000
0000
0011
0000
0000
0000
0110
0000
0000
0000
1100
0000
1000
0100
1000
0000
,
1100
0000
1100
0000
0010
0001
0010
0000
0011
0000
0011
0000
0001
0100
0001
0000
0101
0000
0101
0000
0100
0010
0100
0000
0110
0000
0110
0000
0010
1000
0010
0000
,
1010
0000
1010
0000
1000
0001
1000
0000
1001
0000
1000
0001
0010
0100
2000
0000
0000
0000
3200
0000
0000
0000
0320
0000
0000
0000
0031
0010
0001
0010
0001
0010
,
0001
0000
0011
0000
0101
0000
1100
0000
1010
0000
0010
1000
0000
0000
0101
0000
,
0000
1000
0100
0000
1100
0000
0110
0000
0011
0000
0001
0010
0100
0000
0110
0000
,
1010
0000
0101
0000
0011
0000
1100
0000
1001
0000
1000
0100
0000
0000
1100
0000
,
0000
1000
0010
0000
0110
0000
0101
0000
0011
0000
0011
0000
0110
0000
0110
0000
,
1100
0000
1010
0000
0101
0000
0011
0000
1001
0000
0001
0100
0000
0000
0110
0000
,
0000
0010
1000
0000
1100
0000
0110
0000
0011
0000
0001
0010
0001
0000
1000
0000
,
1001
0000
0101
0000
1001
0000
1100
0000
1010
0000
0010
0100
0000
0000
0101
0000
,
0000
0100
0010
0000
1010
0000
1100
0000
1010
0000
0110
0000
0101
0000
0101
0000
,
1000
0100
0001
0000
0001
0100
1000
0000
1100
0000
2000
0200
0000
0000
3300
0000
;

//---------------dance-single - ----------------
#NOTEDATA:;
#CHARTNAME:;
#STEPSTYPE:dance-single;
#DESCRIPTION:;
#CHARTSTYLE:;
#DIFFICULTY:Beginner;
#METER:5;
#RADARVALUES:0.238363,0.387008,0.834269,0.020599,0.000000,162.000000,81.000000,81.000000,2.000000,0.000000,0.000000,0.000000,0.000000,0.000000,0.238363,0.387008,0.834269,0.020599,0.000000,162.000000,81.000000,81.000000,2.000000,0.000000,0.000000,0.000000,0.000000,0.000000;
#CREDIT:;
#NOTES:
0000
0000
0000
0000
,
0000
0000
0000
0000
,
0000
0000
0000
0000
,
0000
0000
0000
0000
,
0000
0000
0000
0000
,
1100
0000
1100
0000
,
0011
0000
0011
0000
,
1001
0000
1001
0000
,
0101
0000
0101
0000
,
1010
0000
1010
0000
,
1100
0000
1100
0000
,
0101
0000
0101
0000
,
0011
0000
0011
0000
,
1100
0000
1100
0000
,
1010
0000
1010
0000
,
0101
0000
0101
0000
,
1100
0000
0101
0000
,
1100
0000
0101
0000
,
0011
0000
1010
0000
,
0011
0000
1010
0000
,
1001
0000
0110
0000
,
1001
0000
0110
0000
,
1100
0000
0101
0000
,
0011
0000
1010
0000
,
1001
0000
0110
0000
,
1001
0000
0110
0000
,
1010
0000
0101
0000
,
1100
0000
0011
0000
,
1001
0000
0110
0000
,
1010
0101
0011
1100
,
1001
0110
1100
0101
,
0011
1010
1010
0011
,
0101
1100
1001
0110
,
1001
0000
1100
0000
,
1010
0000
0101
0000
,
0011
0000
0110
0000
,
1100
0000
1010
0000
,
0101
0000
0011
0000
,
0110
0000
1100
0000
,
1001
0000
0110
0000
,
1001
0000
0101
0000
,
2200
0000
0000
3300
;
