#TITLE:GALAXY SUPERNOVA;
#SUBTITLE:;
#ARTIST:Girls' Generation;
#TITLETRANSLIT:;
#SUBTITLETRANSLIT:;
#ARTISTTRANSLIT:;
#GENRE:;
#CREDIT:;
#BANNER:;
#BACKGROUND:GALAXY SUPERNOVA-bg.png;
#LYRICSPATH:;
#CDTITLE:;
#MUSIC:GALAXY SUPERNOVA-mp3.mp3;
#OFFSET:0.510000;
#SAMPLESTART:103.699997;
#SAMPLELENGTH:12.000000;
#SELECTABLE:YES;
#DISPLAYBPM:60.000000:120.000000;
#BPMS:0.000000=122.000000
,4.000000=120.000000
,282.000000=60.000000
,290.000000=90.000000
,302.000000=120.000000
;
#STOPS:
;
#BGCHANGES:0.000=GALAXY SUPERNOVA-bg.png=1.000=0=0=0=StretchNoLoop====,
2.000=GALAXY SUPERNOVA.mp4=1.000=0=0=1=====,
99999=-nosongbg-=1.000=0=0=0 // don't automatically add -songbackground-
;
#KEYSOUNDS:;
#ATTACKS:;

//---------------dance-single - ----------------
#NOTES:
     dance-single:
     :
     Hard:
     15:
     0.514211,0.827068,0.310300,0.300752,0.417711,754.000000,689.000000,65.000000,63.000000,0.000000,0.000000,0.514211,0.827068,0.310300,0.300752,0.417711,754.000000,689.000000,65.000000,63.000000,0.000000,0.000000:
0000
0000
0000
0000
,
0000
0000
0000
0000
,
0000
0000
0000
0000
,
0000
0000
0000
0000
,
0000
0000
0000
0000
,
0000
0000
0000
0000
,
0000
0000
0000
0000
,
0000
0000
0000
0000
,
0000
0000
1000
1100
,
0101
0000
0000
0000
0001
0010
0100
0000
1000
0000
0010
0000
0100
0010
0000
0001
,
0100
0000
0110
0000
2000
3010
0200
0301
,
0020
0130
0002
1003
0100
0010
0001
0100
,
1000
0000
0010
0000
0100
0000
0010
0000
0001
0010
0001
0000
0101
0000
0100
0000
,
0010
1000
0010
0000
1010
0000
1000
0000
0001
1000
0001
0000
1001
0000
1000
0000
,
1000
0100
1000
0000
1100
0000
1000
0000
0200
0000
0000
0000
0310
0001
0000
0010
,
0000
0100
0000
1000
0010
0000
0100
0000
0002
0000
0000
0000
0103
0000
0010
0000
,
1000
0000
0000
0000
1100
0000
1000
0000
0001
0000
0100
0001
0000
0010
1000
0000
,
0010
0000
0100
0010
0000
0000
0002
0000
1000
0000
0000
1003
0000
0000
0001
0000
,
0100
0000
0010
0100
0000
0000
0200
0000
1000
0000
0000
1300
0000
0000
0001
0000
,
0010
0000
0100
1000
0000
0000
0020
0000
0200
0000
0000
0000
0330
0000
0000
0000
,
0000
0100
0010
1000
0001
0000
1001
1000
,
0010
0000
0100
0000
0001
0000
1000
0000
0100
0000
0000
0010
0000
0000
0110
0000
,
0000
0010
0001
0100
0010
0000
1010
0000
,
1001
0000
0000
0000
1000
0000
0100
0000
0010
0000
0000
0002
0000
0000
0200
0000
,
0303
0000
0001
0000
0100
0000
0010
0000
1000
0000
0100
0000
0010
0001
0000
0100
,
0000
0010
1000
0000
0002
0000
0103
0000
0010
0000
1000
0000
0001
0010
0000
0100
,
0000
1000
0100
0000
0020
0000
0031
0000
0100
0000
0010
0000
1000
0010
0000
0100
,
0000
0001
0010
0000
0100
0000
1000
0000
0010
0000
0200
0000
0301
0000
0020
0000
,
0130
0000
1000
0000
0001
0000
0000
0000
1001
0000
0000
1010
0000
0000
1100
0000
,
0100
0001
0011
0010
0002
0103
0020
1030
,
0200
0000
0310
0000
2000
0000
3001
0000
0110
0000
0000
0011
0000
0000
0101
0000
,
0100
1000
1100
1000
0002
0013
0200
0310
,
1000
0000
0100
0010
0000
0001
0000
0010
0200
0000
1300
0000
0010
1000
0000
0100
,
0000
0010
0001
0000
0010
0000
1010
0000
1000
0000
1001
0000
0001
0100
0000
0010
,
0000
1000
0010
0000
0100
0000
0101
0000
0001
0000
1001
0000
1000
0010
0000
0100
,
0000
0001
0010
0000
1000
0000
0100
0000
0020
0000
0031
0000
0200
0000
0310
0000
,
2000
3001
1001
0000
0200
0000
0000
1000
,
1300
0000
0000
0000
1001
0000
0000
0000
1000
0000
0010
0100
0000
0001
0010
0100
,
1000
0002
0000
0000
2003
0000
0000
0100
,
0000
0000
3100
0000
0000
0000
1010
0000
0010
0000
0001
0010
0000
0010
0100
1000
,
0010
0100
0001
0010
0100
1000
0010
0000
0100
0000
0010
0000
1000
0000
0001
0000
,
0010
0100
0001
1000
0100
0010
0001
0010
,
0110
0000
1001
0000
1000
0010
0100
0001
,
1000
0100
0001
0100
1000
0010
0001
0010
,
1000
0000
0000
0001
1000
0000
0010
0000
0100
0010
0001
0000
0100
0000
1100
0000
,
1000
0001
0100
0000
0010
0000
0110
0000
0100
0001
1000
0000
0010
0000
0011
0000
,
0001
0100
0010
0000
1000
0000
1020
0000
0000
0000
0000
0000
0130
0001
0000
0100
,
0000
0010
0000
1000
0010
0000
0100
0000
0001
0000
0000
0010
0100
0000
1000
0000
,
0020
0000
0000
0130
0010
0000
0001
0000
1000
0000
0001
1000
0000
0001
1000
0000
,
0010
0000
0100
0010
0000
0100
0010
0000
1000
0000
0100
1000
0000
0100
1000
0000
,
0001
0000
0100
0001
0000
0100
0001
0000
0010
0000
1000
0010
0000
1000
0010
0000
,
0001
0000
0010
0001
0000
0010
0001
0000
0200
0000
0000
0000
0300
0000
0010
0100
,
0010
0000
1000
0000
0001
0000
0100
0000
0010
0000
1000
0010
1000
0000
0100
0000
,
0010
0000
0001
0100
0001
0000
0010
0000
1000
0000
0001
1000
0000
0000
1001
0000
,
0000
0000
1000
0010
0100
0000
0001
0000
1000
0000
0100
0010
1000
0000
0010
0100
,
0002
0000
0000
0000
0103
0000
0010
0000
1000
0000
0010
0100
0000
0000
0110
0000
,
0000
0000
1000
0000
0100
0000
0001
0000
0100
0000
0001
0000
1000
0010
0000
0001
,
0000
0010
0100
0000
0010
0000
1000
0000
0100
0000
0001
0000
0100
1000
0000
0010
,
0000
0001
0100
0000
0010
0000
1000
0000
0100
0000
0010
0000
0001
0010
0000
1000
,
0000
0100
0010
0000
0001
0000
0100
0000
0010
1000
0100
0000
0010
0000
0001
0010
,
0100
0000
1000
0000
1001
0000
0000
0000
1010
0000
0000
0101
0000
0000
0011
0000
,
0010
0100
1000
0001
0100
0001
0100
1000
,
0100
0000
0010
0000
0110
0000
0000
0000
0011
0000
0000
1001
0000
0000
1100
0000
,
1000
0100
0001
0100
1000
0010
0100
0001
,
1000
0000
0100
0000
0010
0000
0001
0000
0100
0000
0010
0000
1000
0010
0000
0100
,
0000
0010
0001
0000
0100
0000
0110
0000
0001
0000
0010
0000
1000
0010
0000
0001
,
0000
0100
0010
0000
1000
0000
1100
0000
0100
0000
0001
0000
1000
0100
0000
0001
,
0000
0100
1000
0000
0100
0000
0010
0000
1000
0010
0001
0000
0101
0000
0001
0010
,
1000
1001
0110
0000
0200
0000
0010
0000
,
0010
0010
0010
0010
,
0010
0000
0310
0000
2000
3200
0320
0032
,
0203
0320
2030
3200
0302
0203
2300
3020
,
0230
0000
0000
0000
0302
0000
0000
0000
2003
0000
0000
0000
3200
0000
0000
0000
0310
0000
0000
0000
0000
0010
0001
0000
0000
0000
0000
0001
0010
0000
0000
0000
,
0000
0010
0100
0000
0000
0000
0000
0100
1000
0000
0000
0000
0000
1000
0100
0000
0000
0000
0000
0100
0001
0000
0000
0000
0000
0001
0010
0000
0000
0000
0000
0010
,
0100
0000
0000
0000
0000
0000
0000
0000
0000
0000
0000
0000
0000
0000
0000
1000
0000
0000
0000
0000
0000
0000
0000
0000
0000
0000
0000
0100
0000
0000
0000
0000
0000
0000
0000
0000
0000
0000
0000
1000
0000
0000
0000
0000
0000
0000
0000
0000
0000
0000
0000
0100
0000
0000
0000
0000
0000
0000
0000
0000
0000
0000
0000
0010
0000
0000
0000
0000
0000
0000
0000
0000
0000
0000
0000
0001
0000
0000
0000
0000
0000
0000
0000
0000
0000
0000
0000
0000
0000
0000
1000
0000
0000
0000
0000
0000
0000
0000
0000
0001
0000
0000
0000
0000
0000
0000
0000
0000
0000
0000
0000
0010
0000
0000
0000
0000
0000
0000
0000
0000
0000
0000
0000
0100
0000
0000
0000
0000
0000
0000
0000
0000
0000
0000
0000
1000
0000
0000
0000
0000
0000
0000
0000
0000
0001
0000
0000
0000
0000
0000
0000
0000
0010
0000
0000
0000
0000
0000
0000
0000
0100
0000
0000
0000
0000
0000
0000
0000
1000
0000
0000
0000
0000
0000
0000
0000
0100
0000
0000
0000
0000
0000
0000
0000
0010
0000
0000
0000
0000
0000
0000
0000
,
0001
0100
0010
1000
0100
0010
0001
1000
0010
0100
0001
2000
0002
0000
0000
0000
0000
0000
3003
0000
0000
0000
0000
0000
,
0000
0000
0010
1000
0001
0000
0100
0000
0010
0000
0000
0000
1100
0000
1000
0001
,
0100
0000
0010
0000
1000
0000
0100
0000
0010
0000
0000
1001
0000
0000
0110
0000
,
0000
0000
0010
0001
1000
0000
0010
0000
1000
0000
0010
1000
0001
0000
0010
0001
,
1000
0000
0100
0000
0010
0000
0001
0000
0100
0000
0000
1001
0000
0000
0110
0000
,
0000
0000
1000
0001
0100
0000
0010
0000
1000
0000
0001
0000
0100
0010
0000
1000
,
0000
0100
0010
0000
0001
0000
1000
0000
0010
0000
0001
0000
1000
0010
0000
0001
,
0000
0010
0100
0000
0010
0000
1000
0000
0100
0000
0001
0000
1000
0100
0000
0001
,
0000
0100
1000
0000
0100
0000
0010
0000
1000
0001
0100
0000
0110
0000
0001
1000
,
0100
0000
0110
0000
0020
0000
0030
0000
1010
0000
0000
1001
0000
0000
1100
0000
,
0100
0001
1000
0010
2000
3100
0002
0103
,
0020
0000
0130
0000
0200
0000
0301
0000
0020
0000
0000
2030
0000
0000
3200
0000
,
0010
0010
0310
0001
0101
0100
0110
0010
,
1010
0000
1000
0010
0001
0000
0100
0000
1000
0000
0100
0000
0001
0100
0000
1000
,
0000
0100
0010
0000
0001
0000
1001
0000
1000
0000
0100
0000
0001
0100
0000
1000
,
0000
0010
0001
0000
0100
0000
0110
0000
0010
0000
1000
0000
0100
0001
0000
1000
,
0000
0010
0100
0000
0010
0000
2000
0000
3010
0001
0100
0000
0010
0000
1000
0100
,
0001
1001
0220
0000
0000
0000
0000
0000
,
0000
0000
0000
0000
,
0000
0000
0000
0000
,
0000
0000
0000
0000
,
0000
0330
0000
0000
;

//---------------dance-single - ----------------
#NOTES:
     dance-single:
     :
     Challenge:
     13:
     0.392137,0.597327,0.338943,0.133667,0.214823,575.000000,504.000000,71.000000,28.000000,192.000000,0.000000,0.392137,0.597327,0.338943,0.133667,0.214823,575.000000,504.000000,71.000000,28.000000,192.000000,0.000000:
// measure 0
0000
0000
0000
0000
,  // measure 1
0000
0000
0000
0000
,  // measure 2
0000
0000
0000
0000
,  // measure 3
0000
0000
0000
0000
,  // measure 4
0000
0000
MMMM
MMMM
,  // measure 5
MMMM
MMMM
MMMM
MMMM
,  // measure 6
MMMM
MMMM
MMMM
MMMM
,  // measure 7
MMMM
MMMM
MMMM
MMMM
,  // measure 8
MMMM
MMMM
1000
MMMM
,  // measure 9
0001
0000
MMMM
0000
0010
0100
0010
0100
,  // measure 10
0010
0000
MMMM
0000
1000
0100
0010
0000
,  // measure 11
0001
0100
0010
0000
1000
0001
1000
0001
,  // measure 12
1000
0000
MMMM
0000
0010
0100
1000
0000
,  // measure 13
0001
0100
0010
0000
1000
0010
0001
0000
,  // measure 14
0001
0100
1000
0000
MMMM
0000
1000
0001
,  // measure 15
0010
0100
1000
0010
0100
0000
MMMM
0000
,  // measure 16
0110
0000
0000
0000
MMMM
0000
0000
0000
1000
0000
0000
0010
0000
0000
0001
0000
,  // measure 17
0001
0000
0000
0100
0000
0000
1000
0000
0200
0000
0000
0010
0000
0000
0310
0000
,  // measure 18
0020
0000
0000
0100
0000
0000
0130
0000
0002
0000
0000
1000
0000
0000
1003
0000
,  // measure 19
2000
0000
0000
0001
0000
0000
3002
0000
2000
0000
0000
0000
3003
0000
0000
0000
,  // measure 20
MMMM
MMMM
1100
1010
,  // measure 21
1000
0000
0010
0000
0100
0000
0001
0000
1000
0000
0000
0001
0000
0000
1001
0000
,  // measure 22
0000
MMMM
0011
0101
,  // measure 23
1010
0000
0000
0000
1000
0000
0001
0000
0100
0000
0000
0010
0000
0000
0110
0000
,  // measure 24
0000
0000
0000
0000
MMMM
0000
0000
0000
0010
0000
0100
0000
0010
0100
0000
0010
,  // measure 25
0000
0100
0010
0000
0010
0000
0100
0000
0010
0000
0100
0000
0010
0100
0000
0010
,  // measure 26
0000
0100
0010
0000
0010
0000
0010
0000
0100
0000
0100
0000
0100
0010
0000
0100
,  // measure 27
0000
0010
0100
0000
0010
0000
1000
0000
0001
0000
1000
0000
0001
0000
1000
0000
,  // measure 28
0001
0000
0000
0000
MMMM
0000
0000
0000
0100
0000
0000
0100
0000
0000
0100
0000
,  // measure 29
0100
0100
0100
0100
1000
0010
0001
0100
,  // measure 30
1000
0000
0000
0000
MMMM
0000
0000
0000
0010
0000
0000
0010
0000
0000
0010
0000
,  // measure 31
0010
0010
0010
0010
0001
1000
0001
1000
,  // measure 32
0001
0000
0000
0000
MMMM
0000
0000
0000
0001
0000
1000
0000
0001
1000
0000
0001
,  // measure 33
0000
1000
0001
0000
1000
0000
0100
0000
0010
0000
0100
0000
0010
0100
0000
0010
,  // measure 34
0000
0100
0010
0000
0100
0000
0010
0000
0001
0000
1000
0000
0001
1000
0000
0001
,  // measure 35
0000
1000
0001
0000
1000
0000
0010
0000
0100
0000
0002
0000
0103
0000
0002
0000
,  // measure 36
0103
0000
MMMM
0000
0200
0000
0000
0010
,  // measure 37
0310
0000
0000
0000
MMMM
0000
0000
0000
0010
0000
1000
0010
0000
0010
0001
0000
,  // measure 38
0100
0010
1000
0010
0002
0000
0000
0100
,  // measure 39
0000
0000
0103
0000
0000
0000
1000
0000
0010
0000
0100
0010
0000
0100
0010
0000
,  // measure 40
0110
0000
MMMM
0000
0001
0001
0001
0001
,  // measure 41
0001
0001
0001
0001
0001
0010
1000
0100
,  // measure 42
0001
0000
MMMM
0000
0001
0001
0001
0001
,  // measure 43
1000
1000
1000
1000
0010
0010
0100
0100
,  // measure 44
0010
0000
MMMM
0000
0001
0010
1000
0110
,  // measure 45
1000
0010
0001
0110
0001
0100
1000
0110
,  // measure 46
1000
0100
0001
0110
0000
MMMM
0010
1000
,  // measure 47
0100
0000
0010
0001
0100
0000
0110
0000
,  // measure 48
1001
0000
0000
0000
MMMM
0000
0000
0000
2000
0000
0000
0001
0000
0000
3001
0000
,  // measure 49
0200
0000
0000
0010
0000
0000
0310
0000
0002
0000
0000
1000
0000
0000
1003
0000
,  // measure 50
0020
0000
0000
0100
0000
0000
0130
0000
2000
0000
0000
0001
0000
0000
3001
0000
,  // measure 51
0200
0000
0000
1000
0000
0000
1300
0000
0020
0000
0000
0000
0030
0000
0000
0000
,  // measure 52
MMMM
MMMM
0101
1100
,  // measure 53
1000
0000
0010
0000
0001
0000
0000
0000
0110
0000
0000
0110
0000
0000
0110
0000
,  // measure 54
0000
MMMM
1010
0011
,  // measure 55
0101
0000
0000
0000
1100
0000
0000
0000
0101
0000
0000
1100
0000
0000
0101
0000
,  // measure 56
0000
0000
0000
0000
MMMM
0000
0000
0000
1000
0000
0001
0000
1000
0001
0000
1000
,  // measure 57
0000
0001
1000
0000
0001
0000
0010
0000
0100
0000
0010
0000
0100
0010
0000
0100
,  // measure 58
0000
0010
0100
0000
0010
0000
1000
0000
0010
0000
0100
0000
0010
0100
0000
0010
,  // measure 59
0000
0100
0010
0000
1000
0000
0001
0000
0100
0000
0020
0000
1030
0000
0020
0000
,  // measure 60
0031
0000
0000
0000
MMMM
0000
0000
0000
1000
0000
0000
1000
0000
0000
1000
0000
,  // measure 61
1000
1000
1000
1000
1000
0010
0001
0100
,  // measure 62
1000
0000
0000
0000
MMMM
0000
0000
0000
0001
0000
0000
0001
0000
0000
0001
0000
,  // measure 63
0001
0001
0001
0001
0001
0010
1000
0100
,  // measure 64
0001
0000
0100
0000
1000
0000
0010
0000
0100
0000
1000
0000
0100
0001
0000
0100
,  // measure 65
0000
1000
0100
0000
0001
0000
0010
0000
0100
0000
0001
0000
0100
1000
0000
0100
,  // measure 66
0000
0001
0100
0000
1000
0000
0100
0000
0001
0000
0010
0000
1000
0010
0000
0001
,  // measure 67
0000
0010
1000
0000
0010
0000
0001
0000
0100
0000
0020
0000
1030
0000
0020
0000
,  // measure 68
0130
0010
0110
0000
0200
0000
0000
0000
,  // measure 69
0000
0000
0000
0000
,  // measure 70
0000
0000
0300
0000
1010
1000
1100
0100
,  // measure 71
0101
0001
0011
0010
1010
1000
1100
0100
,  // measure 72
0101
0000
0001
0000
0011
0000
0010
0000
1010
0000
0000
1100
0000
0000
0101
0000
,  // measure 73
0000
0011
0000
0000
1010
0000
0000
1100
0000
0000
0110
0000
0000
0011
0000
0000
,  // measure 74
0101
0000
0000
1100
0000
0000
1010
0000
0000
0011
0000
0000
0101
0000
0000
1100
,  // measure 75
0000
0000
1010
0000
0000
0011
0000
0000
0220
0000
0000
0000
0330
0000
0000
0000
,  // measure 76
MMMM
MMMM
1000
1001
,  // measure 77
1000
0000
0010
0000
0001
0000
0100
0000
0110
0000
0000
0110
0000
0000
0110
0000
,  // measure 78
0000
MMMM
0011
0101
,  // measure 79
1100
0000
0000
0000
0010
0000
1000
0000
1010
0000
0000
0110
0000
0000
0101
0000
,  // measure 80
0000
0000
0000
0000
MMMM
0000
0000
0000
1000
0000
0001
0000
1000
0001
0000
1000
,  // measure 81
0000
0001
1000
0000
0001
0000
0010
0000
0100
0000
0010
0000
0100
0010
0000
0100
,  // measure 82
0000
0010
0100
0000
0010
0000
0100
0000
0010
0000
0100
0000
0010
0100
0000
0010
,  // measure 83
0000
0100
0010
0000
0100
0000
0010
0000
1000
0000
0001
0000
1000
0000
0001
0000
,  // measure 84
1000
0000
0000
0000
MMMM
0000
0000
0000
0101
0000
0000
0101
0000
0000
1000
0000
,  // measure 85
0100
0010
0001
0000
1000
0100
0001
0100
,  // measure 86
1000
0000
0100
0000
0101
0000
0000
0000
1010
0000
0000
0110
0000
0000
0011
0000
,  // measure 87
0001
0100
0010
0000
0010
1000
0010
0001
,  // measure 88
0010
0000
1000
0000
1010
0000
0000
0000
1000
0000
0001
0000
1000
0001
0000
1000
,  // measure 89
0000
0001
1000
0000
0001
0000
0100
0000
0010
0000
0100
0000
0010
0100
0000
0010
,  // measure 90
0000
0100
0010
0000
0100
0000
0010
0000
0001
0000
1000
0000
0001
1000
0000
0001
,  // measure 91
0000
1000
0001
0000
1000
0000
0010
0000
0001
0000
0200
0000
0310
0000
0200
0000
,  // measure 92
1300
0001
2002
0000
0000
0000
0000
0000
,  // measure 93
0000
0000
0000
0000
,  // measure 94
0000
0000
0000
0000
,  // measure 95
0000
0000
0000
0000
,  // measure 96
0000
3003
0000
0000
;

//---------------dance-single - ----------------
#NOTES:
     dance-single:
     :
     Medium:
     12:
     0.384635,0.413534,0.229144,0.233918,0.097864,564.000000,516.000000,48.000000,49.000000,0.000000,0.000000,0.384635,0.413534,0.229144,0.233918,0.097864,564.000000,516.000000,48.000000,49.000000,0.000000,0.000000:
0000
0000
0000
0000
,
0000
0000
0000
0000
,
0000
0000
0000
0000
,
0000
0000
0000
0000
,
0000
0000
0000
0000
,
0000
0000
0000
0000
,
0000
0000
0000
0000
,
0000
0000
0000
0000
,
0000
0000
0100
0010
,
0110
0000
1000
0001
0100
0000
1010
0000
,
1001
0000
1100
0000
1000
0001
0100
0001
,
1000
0001
0100
0001
0010
0000
0110
0000
,
1001
0000
0110
0000
1000
0010
0001
0000
,
0001
0100
1000
0000
1000
0100
0001
0000
,
0001
0010
1000
0000
1001
0000
1000
0001
,
0100
0010
0000
0010
2000
0000
3020
0000
,
0130
0000
0000
0000
1000
0000
0001
0000
0200
0000
0000
0301
0000
0000
0100
0000
,
2000
0000
0000
3100
0000
0000
1000
0000
0020
0000
0000
1030
0000
0000
0010
0000
,
0002
0000
0000
0013
0000
0000
0001
0000
0200
0000
0000
0301
0000
0000
0100
0000
,
0002
0000
0000
0013
0000
0000
0002
0000
2000
0000
0000
0000
3003
0000
0000
0000
,
0000
0001
0100
0010
1000
0000
1100
0000
,
1000
0000
0001
0000
0100
0000
0000
0000
0110
0000
0000
1001
0000
0000
0110
0000
,
0000
0100
0010
1000
0001
0000
1001
0000
,
0110
0000
0000
0000
1000
0000
0010
0000
0100
0000
0000
1001
0000
0000
0110
0000
,
0000
0000
0010
0000
0001
0000
0100
0000
0010
0000
1000
0000
0020
0000
0000
0100
,
0000
0000
0130
0000
0010
0000
1000
0000
0100
0000
0001
0000
0200
0000
0000
0010
,
0000
0000
0310
0000
0100
0000
1000
0000
0001
0000
0010
0000
0002
0000
0000
0100
,
0000
0103
0001
1000
0100
0010
0001
0010
,
1000
0000
0100
0000
0001
0000
0000
0000
1001
0000
0000
1010
0000
0000
1000
0000
,
0100
0010
0001
0000
1000
0010
0100
0001
,
1000
0000
0100
0000
0001
0000
0000
0000
0011
0000
0000
1001
0000
0000
0001
0000
,
0100
0010
1000
0000
0010
1000
0001
0100
,
0010
0000
1000
0000
0001
0000
0000
0000
1000
0000
0010
0000
2000
0000
0000
3001
,
0000
0000
1000
0000
0001
0000
0010
0000
0100
0000
1000
0000
0200
0000
0000
1300
,
0000
0000
0100
0000
0100
0000
0001
0000
0010
0000
1000
0000
0020
0000
0000
0130
,
0000
0010
0100
0001
0100
0010
1000
0100
,
0001
0010
1000
0000
0200
0000
0000
0000
,
0310
0000
1000
0001
0100
0010
1000
0100
,
0010
0001
0010
0100
0002
0000
0000
1000
,
0000
1003
0001
0100
0010
1000
0100
0001
,
0100
1000
0010
0000
1000
0010
1000
0010
,
0100
0001
0100
0001
1000
0100
1000
0100
,
0001
0000
0101
0000
0001
0010
0001
0010
,
1000
0010
1000
0010
0100
0010
0100
0010
,
1000
0000
1010
0000
1000
0100
0001
0000
,
0001
0010
1000
0000
1000
0010
0001
0000
,
0001
0100
1000
0000
1001
0000
1000
0001
,
0100
0010
1000
0010
0200
0000
0320
0000
,
1030
0000
0001
0000
0100
0000
0000
0000
2000
0000
0000
3100
0000
0000
0200
0000
,
0001
0300
0000
0002
0000
0000
0013
0000
0020
0000
0000
1030
0000
0000
2000
0000
,
0010
3000
0000
0020
0000
0000
0031
0000
0002
0000
0000
0203
0000
0000
1300
0000
,
2000
0000
0000
3010
0000
0000
0020
0000
0200
0000
0000
0000
0330
0000
0000
0000
,
0000
0010
1000
0001
0100
0000
0110
0000
,
0010
0000
0001
0000
0100
0000
0010
0000
1000
0000
0000
0001
0000
0000
1001
0000
,
0000
1000
0001
0000
1001
0000
0100
0001
,
0010
0000
0000
0000
0010
0000
1000
0000
0100
0000
0000
0010
0000
0000
0110
0000
,
0000
0100
0010
1000
0001
0100
1000
0100
,
0001
0100
0010
0010
1000
0100
0001
0100
,
1000
0001
0010
0010
1000
0010
0001
0010
,
1000
0010
0001
0100
0010
1000
0100
0010
,
0001
0000
0100
0000
0110
0000
0000
0000
1010
0000
0000
1100
0000
0000
1000
0000
,
0001
0100
0010
0000
1000
0001
0100
0001
,
1000
0000
0001
0000
0100
0000
0000
0000
0011
0000
0000
0101
0000
0000
0100
0000
,
0010
1000
0001
0010
0100
1000
0100
0001
,
0100
1000
0100
0010
0001
0100
0010
1000
,
0001
0010
0100
1000
0010
0001
0100
0010
,
1000
0100
0010
0001
1000
0010
0100
0001
,
1000
0100
0010
0001
0100
0010
1000
0010
,
0100
0001
1001
0000
0220
0000
0000
0000
,
0000
0000
0000
0000
,
0000
0000
0330
0000
0010
0010
0100
0100
,
0001
0001
1000
1000
0001
0010
0100
1000
,
0100
0000
0010
0000
0001
0000
1000
0000
0010
0000
0000
1000
0000
0000
0100
0000
,
0000
0001
0000
0000
0010
0000
0000
0001
0000
0000
0100
0000
0000
1000
0000
0000
,
0010
0000
0000
0000
0000
0000
0000
0000
0000
0010
0000
0000
0000
0000
0000
0000
0000
0000
0100
0000
0000
0000
0000
0000
0000
0000
0000
0100
0000
0000
0000
0000
0000
0000
0000
0000
1000
0000
0000
0000
0001
0000
0000
0000
1000
0000
0000
0000
,
0000
0000
0000
0000
0000
0000
0001
0000
0000
0000
1000
0000
0000
0000
0000
0001
0000
0000
0000
0000
0000
0000
0000
0000
2002
0000
0000
0000
0000
0000
0000
0000
0000
0000
0000
0000
3003
0000
0000
0000
0000
0000
0000
0000
0000
0000
0000
0000
,
0000
0010
1000
0001
0100
0000
0110
1000
,
0001
0100
0010
1000
0200
0000
0010
0000
,
0310
0000
0001
0100
0010
0000
2000
0000
,
3200
0000
0310
0001
2000
0000
0010
0000
,
3010
0000
0000
0000
0001
0000
0010
0000
0100
0000
1000
0000
0200
0000
0000
0310
,
0000
0000
0100
0000
0010
0000
1000
0000
0001
0000
0100
0000
0002
0000
0000
0013
,
0000
0000
0100
0000
1000
0000
0010
0000
0100
0000
0001
0000
2000
0000
0000
3100
,
0000
0010
0001
0100
0010
1000
0001
0010
,
0001
0000
1000
0000
1001
0000
0000
0000
0200
0000
0000
0010
0000
0000
0310
0000
,
1000
0100
0001
0000
0011
0000
0101
0000
,
1100
0000
0000
0000
1010
0000
0000
0000
0020
0000
0000
0100
0000
0000
0130
0000
,
0001
0010
1000
0000
1010
0000
1100
0000
,
0101
0000
0011
0000
0010
0001
0100
0000
,
1010
0000
1000
0001
0100
0000
0110
0000
,
0010
1000
0002
0000
0013
0100
0010
1000
,
0100
0010
0001
0100
0020
1030
0100
0020
,
0031
1000
2002
0000
0000
0000
0000
0000
,
0000
0000
0000
0000
,
0000
0000
0000
0000
,
0000
0000
0000
0000
,
0000
3003
0000
0000
;

//---------------dance-single - ----------------
#NOTES:
     dance-single:
     :
     Easy:
     5:
     0.129576,0.229741,0.071608,0.310300,0.000000,190.000000,175.000000,15.000000,65.000000,0.000000,0.000000,0.129576,0.229741,0.071608,0.310300,0.000000,190.000000,175.000000,15.000000,65.000000,0.000000,0.000000:
0000
0000
0000
0000
,
0000
0000
0000
0000
,
0000
0000
0000
0000
,
0000
0000
0000
0000
,
0000
0000
0000
0000
,
0000
0000
0000
0000
,
0000
0000
0000
0000
,
0000
0000
0000
0000
,
0000
0000
0010
0000
,
0100
0000
0010
0000
,
1000
0000
0001
0000
,
1000
0000
0100
0000
,
0010
0000
0200
0300
,
2000
3000
0020
0030
,
0002
0003
0010
0000
,
0100
0000
1000
0000
,
0010
0000
0200
0300
,
0002
0003
2000
3000
,
0020
0030
0200
0300
,
0020
0000
0030
0000
,
0000
0000
1000
0000
,
0001
0000
0100
0000
,
0110
0000
0010
0000
,
1001
0000
1000
0000
,
1001
0000
0002
0000
,
0003
0000
2000
0000
,
3000
0000
0020
0000
,
0030
0000
0200
0000
,
0000
0300
2000
3000
,
0002
0003
0010
0010
,
0100
0100
0200
0300
,
0020
0030
0010
1000
,
0100
0001
2000
0000
,
3000
0000
0002
0000
,
0003
0000
0200
0000
,
0300
0000
0020
0000
,
0000
0030
0200
0000
,
0300
0000
0020
0000
,
0030
0000
0002
0000
,
0003
0000
2000
0000
,
3000
0000
0010
0010
,
0100
0100
1000
0001
,
1000
0000
0001
0001
,
1000
1000
0010
0100
,
0010
0000
0200
0300
,
0020
0030
2000
3000
,
0002
0003
0000
0010
,
0001
0100
2000
0000
,
3000
0000
0020
0030
,
0200
0300
0002
0003
,
2000
3000
0020
0030
,
0200
0300
2002
0000
,
3003
0000
0010
0000
,
1001
0000
0100
0100
,
0100
0000
1000
0000
,
1001
0000
0010
0010
,
0010
0000
0200
0000
,
0300
0000
0020
0000
,
0030
0000
2000
0000
,
3000
0000
0010
0100
,
0001
1000
1001
0000
,
0110
0000
1000
0010
,
0001
0100
0110
0000
,
1001
0000
1000
0100
,
0001
0010
0200
0000
,
0300
0000
0020
0000
,
0030
0000
0002
0000
,
0003
0010
0100
1000
,
0001
1001
2200
0000
,
0000
0000
0000
0000
,
0000
3300
2000
3000
,
0200
0300
0020
0030
,
0002
0000
0003
0000
0200
0000
0300
0020
,
0000
0030
2000
0000
3000
0002
0000
0003
,
0200
0000
0000
0020
,
0000
0000
0330
0000
,
0000
0000
1001
0000
,
0110
0000
0200
0010
,
0310
0000
1000
0010
,
0100
0000
0002
0010
,
0013
0000
0200
0000
,
0000
0300
0020
0000
,
0000
0030
2000
0000
,
0000
3000
0001
1000
,
0100
0110
0020
0000
,
0000
0030
0100
0100
,
0010
0010
2000
0000
,
0000
3000
1000
1000
,
0001
0001
0010
0010
,
0100
0100
1000
0001
,
1000
0001
0010
0010
,
0100
0100
1000
0001
,
1000
0002
0000
0000
,
0000
0000
0000
0000
,
0000
0000
0000
0000
,
0000
0000
0000
0000
,
0000
0003
0000
0000
;
