#VERSION:0.83;
#TITLE:가까이;
#SUBTITLE:;
#ARTIST:(s#arp);
#TITLETRANSLIT:GAGGAI;
#SUBTITLETRANSLIT:;
#ARTISTTRANSLIT:;
#GENRE:;
#ORIGIN:;
#CREDIT:;
#BANNER:GAGGAI.png;
#BACKGROUND:GAGGAI-bg.png;
#PREVIEWVID:;
#JACKET:GAGGAI-jacket.png;
#CDIMAGE:;
#DISCIMAGE:;
#LYRICSPATH:;
#CDTITLE:;
#MUSIC:GAGGAI.mp3;
#OFFSET:1.531000;
#SAMPLESTART:68.036003;
#SAMPLELENGTH:15.000000;
#SELECTABLE:YES;
#BPMS:0.000=134.030;
#STOPS:;
#DELAYS:;
#WARPS:;
#TIMESIGNATURES:0.000=4=4;
#TICKCOUNTS:0.000=4;
#COMBOS:0.000=1;
#SPEEDS:0.000=1.000=0.000=0;
#SCROLLS:0.000=1.000;
#FAKES:;
#LABELS:0.000=Song Start;
#BGCHANGES:;
#KEYSOUNDS:;
#ATTACKS:
;

//---------------dance-single - ----------------
#NOTEDATA:;
#CHARTNAME:;
#STEPSTYPE:dance-single;
#DESCRIPTION:;
#CHARTSTYLE:;
#DIFFICULTY:Easy;
#METER:5;
#RADARVALUES:0.339203,0.391081,0.448945,0.019953,0.000000,238.000000,193.000000,45.000000,2.000000,0.000000,0.000000,0.000000,0.000000,0.000000,0.339203,0.391081,0.448945,0.019953,0.000000,238.000000,193.000000,45.000000,2.000000,0.000000,0.000000,0.000000,0.000000,0.000000;
#CREDIT:;
#NOTES:
0000
0000
0000
0000
,
0000
0000
0000
0000
,
0000
0000
0000
0000
,
0000
0000
0000
0000
,
0000
0000
0000
0000
,
1000
0000
0110
0000
,
0001
0000
0110
0000
,
1000
0000
0110
0000
,
1000
0000
0110
0000
,
0010
0010
0100
0110
,
0010
0010
0100
0110
,
0001
0001
1000
1001
,
0001
0001
1000
1001
,
0010
0001
0010
0001
,
1000
0100
1000
0100
,
1000
0001
1000
0110
,
1000
0001
1000
0110
,
0001
1000
0001
0110
,
0001
1000
0001
0110
,
0001
0001
1000
0110
,
0001
0001
1000
0110
,
1000
1000
0001
0110
,
1000
1000
0001
0110
,
1000
0100
0010
0110
,
1000
0100
0010
0110
,
0001
0100
0010
0110
,
0001
0100
0010
0110
,
1000
1000
0001
0110
,
1000
1000
0001
0110
,
0001
0001
1000
0110
,
0001
0001
1000
0110
,
1000
1100
0010
0110
,
0001
0001
1000
1000
,
0001
0101
0010
0110
,
1000
1000
0001
0001
,
1000
1100
0010
0110
,
0001
0001
1000
1000
,
0001
0101
0010
0110
,
1000
1010
0010
0110
,
1000
1000
0010
0100
,
1001
1001
0110
1001
,
0001
0001
1000
1000
,
0001
0001
1000
1000
,
0001
0001
0010
0100
,
1001
1001
0110
1001
,
0001
0001
1000
1000
,
0001
0001
1000
1000
,
0010
0100
0010
0110
,
0010
0100
0010
0110
,
0001
0010
0100
1000
,
0001
0010
0100
1000
,
1000
0100
0010
0001
,
1000
0100
0010
0001
,
0010
0001
0010
0001
,
1000
0100
1000
0100
,
2002
0000
0000
0000
,
3003
0000
0000
0000
;

//---------------dance-single - ----------------
#NOTEDATA:;
#CHARTNAME:;
#STEPSTYPE:dance-single;
#DESCRIPTION:;
#CHARTSTYLE:;
#DIFFICULTY:Medium;
#METER:8;
#RADARVALUES:0.417590,0.502818,0.389086,0.019953,0.000000,293.000000,254.000000,39.000000,2.000000,0.000000,0.000000,0.000000,0.000000,0.000000,0.417590,0.502818,0.389086,0.019953,0.000000,293.000000,254.000000,39.000000,2.000000,0.000000,0.000000,0.000000,0.000000,0.000000;
#CREDIT:;
#NOTES:
0000
0000
0000
0000
,
0000
0000
0000
0000
,
0000
0000
0000
0000
,
0000
0000
0000
0000
,
0000
0000
0000
0000
,
0001
0001
1000
0100
,
1000
1000
0001
0100
,
0001
0001
1000
1000
,
0001
0001
1000
0100
,
0010
0100
0001
0100
,
0010
0100
1000
0100
,
0010
0010
0001
0100
,
1000
1000
0001
0100
,
0001
1000
0001
0000
0100
0000
0100
0000
,
1000
0001
1000
0000
0100
1000
0100
0000
,
0010
0000
0010
0000
1000
0001
1000
0000
,
0010
0000
0010
0000
0100
0001
0100
0000
,
0001
0000
0001
0000
0010
1000
0010
0000
,
0100
0000
0100
0000
0001
1000
0001
0000
,
1000
0100
1000
0000
0010
0000
0100
0000
,
0001
0100
0001
0000
1000
0000
0001
0000
,
0010
0100
0010
0000
0001
0000
0100
0000
,
1000
0100
1000
0000
0010
0100
0010
0000
,
1000
0001
1000
0000
0010
0000
0010
0000
,
0100
0001
0100
0000
0010
0000
0010
0000
,
1000
0100
1000
0000
0010
0000
0010
0000
,
0100
0001
0100
0000
1000
0000
1000
0000
,
0100
0000
0010
0000
0001
1000
0100
0000
,
1000
0000
0001
0000
0010
0100
0001
0000
,
0001
0010
0001
0000
0010
0100
1000
0000
,
0011
0101
1010
0101
,
0010
1000
1010
0000
0100
0001
0101
0000
,
0010
1000
1010
0000
0100
0001
0101
0000
,
0010
1000
0100
1000
0001
0100
0101
0000
,
0010
0100
1000
0001
1000
0100
1100
0000
,
0010
0001
0011
0000
1000
0100
1100
0000
,
0010
0100
0101
0000
1000
0100
1100
0000
,
0001
0100
1000
0100
0010
0100
0001
0000
,
1001
0110
1001
0110
,
0010
0001
0010
0000
1000
0100
1000
0000
,
0011
1001
1010
1001
,
0010
1000
0010
0000
0001
0100
0001
0000
,
0011
1001
1010
1001
,
0010
0100
0010
0000
0100
0010
0100
0000
,
1100
0110
0101
0110
,
0100
0010
0100
0000
0010
0100
0010
0000
,
1100
0110
0101
0110
,
1000
0001
1000
0000
0001
1000
0001
0000
,
1100
0110
0101
0110
,
1000
0000
1000
0000
1000
0100
0001
0000
,
0001
0000
0001
0000
0001
0100
1000
0000
,
1000
0000
1000
0000
1000
0100
0001
0000
,
0001
0000
0001
0000
1000
0100
0001
0000
,
0001
1000
0001
0000
0001
0000
0001
0000
,
1000
0001
1000
0000
1000
0000
1000
0000
,
0220
0000
0000
0000
,
0330
0000
0000
0000
;

//---------------dance-single - ----------------
#NOTEDATA:;
#CHARTNAME:;
#STEPSTYPE:dance-single;
#DESCRIPTION:;
#CHARTSTYLE:;
#DIFFICULTY:Hard;
#METER:10;
#RADARVALUES:0.510230,0.726293,0.748242,0.019953,0.000000,358.000000,283.000000,75.000000,2.000000,0.000000,0.000000,0.000000,0.000000,0.000000,0.510230,0.726293,0.748242,0.019953,0.000000,358.000000,283.000000,75.000000,2.000000,0.000000,0.000000,0.000000,0.000000,0.000000;
#CREDIT:;
#NOTES:
0000
0000
0000
0000
,
0000
0000
0000
0000
,
0000
0000
0000
0000
,
0000
0000
0000
0000
,
0000
0000
0000
0000
,
1000
0100
0001
0000
0001
0000
0101
0000
,
1000
0100
0001
0000
1000
0000
1100
0000
,
0001
0010
0001
0000
0100
0000
0110
0000
,
1000
0001
0010
0000
0100
0000
0110
0000
,
1000
0001
1000
0000
0001
1000
0001
0000
,
0010
0100
0010
0000
0001
0100
1000
0000
,
1000
0100
1000
0000
0100
0001
0100
0000
,
0010
0100
0010
0000
0100
0010
0100
0000
,
0001
0100
0101
0000
0010
1000
1010
0000
,
1000
0010
0100
0001
1000
0010
1010
0000
,
0001
1000
0100
0000
0010
0000
1001
0000
,
0010
0100
0010
0000
1000
0000
1001
0000
,
0001
1000
0001
0000
1000
0000
0101
0000
,
0001
1000
0100
0000
1000
0000
0110
0000
,
0001
1000
0001
0000
0100
0010
0100
0000
,
1000
0100
1000
0000
0100
0001
0100
0000
,
0010
1000
0100
0010
0001
1000
1100
0000
,
0010
1000
0001
0100
0010
1000
1001
0000
,
0001
1000
0100
0000
0010
0000
0110
0000
,
1000
0001
0100
0000
0010
0000
0110
0000
,
0010
1000
0010
0000
0100
0000
0101
0000
,
0001
1000
0001
0000
0010
0000
0110
0000
,
0010
0001
0010
0000
0100
1000
0100
0000
,
0010
0001
0100
0000
0010
1000
0001
0000
,
0100
0001
1000
0100
0010
0001
0010
0100
,
1000
0010
0100
0001
1000
0010
1010
0000
,
0100
1100
0100
0110
,
1000
0000
1100
0000
1000
0001
1100
0000
,
0100
0000
0110
0000
0010
0100
0110
0000
,
0011
0110
1100
0110
,
1000
0001
1100
0000
1000
0001
1100
0000
,
0001
1000
0101
0000
0001
1000
0101
0000
,
0100
0010
0110
0000
0010
0100
0110
0000
,
1010
0110
0101
0110
,
0011
0011
0011
0000
0101
0101
0101
0000
,
1100
1100
1100
0000
0110
0110
0110
0000
,
0010
0001
0010
0000
0100
1000
0100
0000
,
0110
1001
0110
1001
,
1010
1010
1010
0000
1100
1100
1100
0000
,
0101
0101
0101
0000
0110
0110
0110
0000
,
0010
1000
0010
0000
0100
0001
0100
0000
,
1010
0101
0011
1100
,
1000
0100
0001
0000
0001
0100
1000
0000
,
1000
0010
0001
0000
0001
0010
1000
0000
,
1000
0001
1000
0000
0001
1000
0001
0000
,
0010
0100
0010
0000
0100
0010
0100
0000
,
1000
0100
1000
0000
0001
0100
0001
0000
,
0010
1000
0010
0000
0100
0001
0100
0000
,
0001
0100
0101
0000
0010
1000
1010
0000
,
0100
0001
0101
0000
0010
1000
1010
0000
,
0220
0000
0000
0000
,
0330
0000
0000
0000
;

//---------------dance-double - ----------------
#NOTEDATA:;
#CHARTNAME:;
#STEPSTYPE:dance-double;
#DESCRIPTION:;
#CHARTSTYLE:;
#DIFFICULTY:Easy;
#METER:5;
#RADARVALUES:0.322100,0.391081,0.329226,0.019953,0.000000,226.000000,193.000000,33.000000,2.000000,0.000000,0.000000,0.000000,0.000000,0.000000,0.322100,0.391081,0.329226,0.019953,0.000000,226.000000,193.000000,33.000000,2.000000,0.000000,0.000000,0.000000,0.000000,0.000000;
#CREDIT:;
#NOTES:
00000000
00000000
00000000
00000000
,
00000000
00000000
00000000
00000000
,
00000000
00000000
00000000
00000000
,
00000000
00000000
00000000
00000000
,
00000000
00000000
00000000
00000000
,
00001000
00000000
00011000
00000000
,
00010000
00000000
00011000
00000000
,
00001000
00000000
00011000
00000000
,
00010000
00000000
00011000
00000000
,
00001000
00000010
00000100
00000001
,
00001000
00000010
00000100
00000001
,
00000010
00000010
00000001
00000001
,
00000010
00000010
00000001
00000001
,
00000100
00000100
00001000
00001000
,
00010000
00010000
00100000
00100000
,
00010000
00010000
00100000
01100000
,
10000000
10000000
00100000
01100000
,
00010000
00010000
00100000
01100000
,
00010000
00010000
00001000
00001000
,
00000010
00000010
00000100
00000110
,
00000001
00000001
00000100
00000110
,
00001000
00001000
00000010
00000110
,
00001000
00001000
00010000
00010000
,
00100000
00100000
10000000
01100000
,
01000000
01000000
10000000
01100000
,
00010000
00010000
00100000
01100000
,
00010000
00010000
00001000
00001000
,
00000010
00000010
00000100
00000110
,
00000001
00000001
00000100
00000110
,
00001000
00001000
00000010
00000110
,
00001000
00001000
00010000
00010000
,
00100000
00100000
10000000
11000000
,
00100000
00100000
00010000
00110000
,
01000000
01000000
10000000
11000000
,
01000000
01000000
00010000
01010000
,
01000000
01000000
00010000
00010000
,
00001000
00001000
00000010
00000010
,
00000001
00000001
00001000
00001000
,
00000010
00000010
00000100
00000100
,
00000010
00000011
00000010
00000011
,
00001000
00001010
00001000
00001010
,
00000001
00000011
00000010
00000011
,
00000100
00001000
00010000
00100000
,
00100000
00110000
00100000
00110000
,
10000000
10100000
10000000
10100000
,
01000000
01000000
00010000
00010000
,
01000000
11000000
01000000
11000000
,
00010000
00010000
00001000
00001000
,
00000010
00000010
00000001
00000001
,
00000010
00000010
00000100
00000100
,
00000001
00000001
00000100
00000100
,
00000001
00000001
00000100
00000100
,
00001000
00001000
00010000
00010000
,
00100000
00100000
10000000
10000000
,
01000000
01000000
00010000
00010000
,
02200000
00000000
00000000
00000000
,
03300000
00000000
00000000
00000000
;

//---------------dance-double - ----------------
#NOTEDATA:;
#CHARTNAME:;
#STEPSTYPE:dance-double;
#DESCRIPTION:;
#CHARTSTYLE:;
#DIFFICULTY:Medium;
#METER:7;
#RADARVALUES:0.389086,0.474884,0.438968,0.019953,0.000000,273.000000,229.000000,44.000000,2.000000,0.000000,0.000000,0.000000,0.000000,0.000000,0.389086,0.474884,0.438968,0.019953,0.000000,273.000000,229.000000,44.000000,2.000000,0.000000,0.000000,0.000000,0.000000,0.000000;
#CREDIT:;
#NOTES:
00000000
00000000
00000000
00000000
,
00000000
00000000
00000000
00000000
,
00000000
00000000
00000000
00000000
,
00000000
00000000
00000000
00000000
,
00000000
00000000
00000000
00000000
,
10000000
01000000
00010000
00001000
,
00001000
00000010
00000001
00000100
,
00000100
00001000
00010000
00001000
,
00010000
00100000
10000000
10000000
,
00100000
01000000
00100000
00000000
00010000
01000000
00010000
00000000
,
10000000
01000000
10000000
00000000
00100000
01000000
00100000
00000000
,
01000000
01000000
10000000
10000000
,
10000000
01000000
00010000
00000000
00010000
00001000
00010000
00000000
,
00001000
00001000
00000010
00000010
,
00000001
00000001
00000010
00000010
,
00000010
00000001
00000010
00000000
00000001
00000000
00000101
00000000
,
00000001
00000100
00000001
00000000
00000100
00000000
00000101
00000000
,
00000100
00001000
00000100
00000000
00001000
00000000
00001100
00000000
,
00001000
00010000
00001000
00000000
00010000
00000000
00011000
00000000
,
00010000
00100000
10000000
00000000
00100000
00000000
10100000
00000000
,
10000000
01000000
10000000
00000000
01000000
00000000
11000000
00000000
,
01000000
00010000
01000000
00000000
00010000
00000000
01010000
00000000
,
00010000
00001000
00010000
00000000
00001000
00000000
00011000
00000000
,
00001000
00000010
00000001
00000000
00001000
00000000
00001001
00000000
,
00000010
00000100
00000010
00000000
00001000
00000000
00001001
00000000
,
00000001
00000100
00001000
00000000
00010000
00000000
00011000
00000000
,
00001000
00010000
00001000
00000000
00010000
00000000
00011000
00000000
,
00010000
00100000
10000000
00000000
00010000
00000000
10010000
00000000
,
00100000
01000000
00100000
00000000
00010000
00000000
10010000
00000000
,
10000000
01000000
00010000
00000000
00001000
00000000
00011000
00000000
,
00001000
00000010
00000001
00000000
00000010
00000000
00000011
00000000
,
00000001
00000100
00000010
00000110
,
00000001
00000100
00001000
00001100
,
00001000
00010000
00100000
00110000
,
10000000
01000000
00010000
01010000
,
00010000
00001000
00000010
00001010
,
00000001
00000100
00001000
00001100
,
00001000
00010000
00100000
00110000
,
00100000
10000000
00010000
01000000
,
10100000
10100000
10010000
01010000
,
01010000
10010000
01010000
10010000
,
00100000
00100000
01000000
01000000
,
00010000
00010000
00001000
00000010
,
00000011
00000011
00001001
00001100
,
00001100
00001001
00001100
00001001
,
00000010
00000010
00000100
00000100
,
00001000
00001000
00010000
00010000
,
00100000
00100000
10000000
10000000
,
01100000
10010000
01100000
10010000
,
00100000
01000000
00100000
00000000
00010000
01000000
00010000
00000000
,
00100000
01000000
00100000
00000000
10000000
01000000
10000000
00000000
,
01000000
01000000
10000000
10000000
,
10000000
01000000
00010000
00000000
00010000
00001000
00010000
00000000
,
00001000
00001000
00010000
00010000
,
00001000
00000010
00000001
00001000
,
00000220
00000000
00000000
00000000
,
00000330
00000000
00000000
00000000
;

//---------------dance-double - ----------------
#NOTEDATA:;
#CHARTNAME:;
#STEPSTYPE:dance-double;
#DESCRIPTION:;
#CHARTSTYLE:;
#DIFFICULTY:Hard;
#METER:11;
#RADARVALUES:0.471749,0.670425,0.887913,0.019953,0.000000,331.000000,242.000000,89.000000,2.000000,0.000000,0.000000,0.000000,0.000000,0.000000,0.471749,0.670425,0.887913,0.019953,0.000000,331.000000,242.000000,89.000000,2.000000,0.000000,0.000000,0.000000,0.000000,0.000000;
#CREDIT:;
#NOTES:
00000000
00000000
00000000
00000000
,
00000000
00000000
00000000
00000000
,
00000000
00000000
00000000
00000000
,
00000000
00000000
00000000
00000000
,
00000000
00000000
00000000
00000000
,
00000010
00000001
00001000
00000000
00000010
00000000
00001010
00000000
,
00001000
00010000
00001000
00000000
00010000
00000000
00110000
00000000
,
00100000
00010000
10000000
00000000
01000000
00000000
11000000
00000000
,
01000000
00010000
01000000
00000000
00010000
00000000
00011000
00000000
,
00100000
00001000
00010000
00000000
00000010
00010000
00001000
00000000
,
01000000
00001000
00010000
00000000
00000100
00010000
00001000
00000000
,
00100000
00001000
00011000
00000000
00000010
00010000
00011000
00000000
,
01000000
00001000
00011000
00000000
00000100
00010000
00011000
00000000
,
00001000
00000010
00000001
00000101
,
00000001
00001000
00010000
10010000
,
00100000
10100000
10000000
11000000
,
01000000
01010000
00010000
00011000
,
00001000
00001010
00000010
00000011
,
00000001
00000101
00000100
00001100
,
00001000
00010000
00100000
00110000
,
00100000
10000000
01000000
11000000
,
10000000
01000000
10000000
00000000
00010000
00100000
00010000
00000000
,
00100000
01000000
00100000
00000000
10010000
00000000
10010000
00000000
,
10000000
00100000
10100000
00000000
10000000
01000000
11000000
00000000
,
01000000
00010000
01010000
00000000
00010000
00001000
00011000
00000000
,
00001000
00000010
00001010
00000000
00000010
00000001
00000011
00000000
,
00000001
00000100
00000101
00000000
00000100
00001000
00011000
00000000
,
00010000
00100000
10000000
10010000
,
10000000
00010000
01000000
01010000
,
00010000
00001000
00000010
00000010
,
00000001
00000100
00001000
00000000
00001000
00000100
00000001
00000000
,
00000001
00001000
00010000
10010000
,
10000000
00010000
00001000
00001001
,
00000010
00000100
00000001
00000101
,
00001000
00010000
00100000
10100000
,
10000000
00010000
00001000
00001001
,
00000001
00001000
00010000
10010000
,
00100000
10000000
01000000
11000000
,
00010000
00001000
00000010
00000011
,
00000011
00000011
00000011
00000000
00000101
00000101
00000101
00000000
,
00001100
00001100
00001100
00000000
00011000
00000000
00011000
00000000
,
10100000
10100000
10100000
00000000
11000000
11000000
11000000
00000000
,
01010000
01010000
01010000
00000000
00011000
00000000
00011000
00000000
,
00001001
00001001
00001001
00000000
00011000
00000000
00011000
00000000
,
10010000
10010000
10010000
00000000
00011000
00000000
00011000
00000000
,
00110000
00110000
00011000
00011000
,
00001010
00001010
00011000
00011000
,
01010000
01010000
00011000
00011000
,
00001100
00001100
00011000
00011000
,
00000010
00010000
00001000
00000000
01000000
00001000
00010000
00000000
,
00100000
00001000
00010000
00000000
00000100
00010000
00001000
00000000
,
00100000
00001000
00010000
00000000
00000010
00010000
00001000
00000000
,
01000000
00010000
00001000
00000000
00000100
00010000
00001000
00000000
,
10000000
00010000
00000001
00001000
,
10000000
00010000
00000001
00001000
,
00022000
00000000
00000000
00000000
,
00033000
00000000
00000000
00000000
;

//---------------dance-single - ----------------
#NOTEDATA:;
#CHARTNAME:;
#STEPSTYPE:dance-single;
#DESCRIPTION:;
#CHARTSTYLE:;
#DIFFICULTY:Challenge;
#METER:13;
#RADARVALUES:0.548711,0.586621,0.369133,0.139672,0.129695,385.000000,348.000000,37.000000,14.000000,0.000000,0.000000,0.000000,0.000000,0.000000,0.548711,0.586621,0.369133,0.139672,0.129695,385.000000,348.000000,37.000000,14.000000,0.000000,0.000000,0.000000,0.000000,0.000000;
#CREDIT:;
#NOTES:
// measure 0
0000
0000
0000
0000
,  // measure 1
0000
0000
0000
0000
,  // measure 2
0000
0000
0000
0000
,  // measure 3
0000
0000
0000
0000
,  // measure 4
0000
0000
0000
0000
,  // measure 5
0001
1000
0100
0000
0010
0100
1000
0000
,  // measure 6
0001
0000
0000
1000
0000
0000
0010
0000
0000
0000
0000
0000
1000
0000
0010
0000
0100
0000
0001
0000
0100
0000
0001
0000
,  // measure 7
0020
0001
0100
1000
,  // measure 8
0200
0000
0000
0330
,  // measure 9
1000
0000
0001
0100
0010
0000
0100
0000
0010
0000
1000
0001
0010
0000
0100
0000
,  // measure 10
1000
0000
0100
0000
1000
0000
0010
0000
1000
0000
0100
0000
1100
0000
1000
0010
,  // measure 11
0100
0001
0010
0100
1000
0010
0100
0001
,  // measure 12
0100
0001
1000
0100
0010
0001
0101
0000
,  // measure 13
1010
0101
1010
0101
,  // measure 14
1100
0000
0011
0000
1000
0100
0010
0001
,  // measure 15
0100
0100
0010
1000
0010
0100
0001
0010
,  // measure 16
0002
0000
0010
0000
0103
0001
1000
0100
,  // measure 17
0010
0001
0101
0000
0001
1000
1100
1000
,  // measure 18
0010
1000
1001
0000
0010
0001
1001
1000
,  // measure 19
0100
1000
0010
0000
0010
0100
0001
0000
,  // measure 20
0001
0010
0100
1000
0100
0010
0001
1000
,  // measure 21
1001
0000
1100
0000
1001
0001
0100
0010
,  // measure 22
1000
0000
0000
0000
0001
0000
1000
0000
0100
0000
0010
0001
0010
0000
0100
0000
,  // measure 23
1000
0001
0100
0010
1000
0100
0010
0010
,  // measure 24
0200
0000
0000
0000
1000
0000
0000
0000
1300
0000
0010
0000
0110
0000
0010
0100
,  // measure 25
0010
0000
0100
0000
0001
0000
0001
0000
0100
0000
0010
0000
1000
0000
0010
0100
,  // measure 26
0001
0010
0010
0100
1000
1000
0100
0010
,  // measure 27
0002
0010
0103
0100
0010
1000
0100
1000
,  // measure 28
0020
0000
1000
0000
1030
0000
0100
0000
0010
0000
0010
0000
0100
0000
0010
1000
,  // measure 29
0001
0010
0001
0100
0010
0010
0100
0100
,  // measure 30
0101
1100
1010
0101
,  // measure 31
2001
0000
0100
0010
0100
0000
3010
1000
,  // measure 32
1002
0000
0010
0100
0010
0000
0103
0010
,  // measure 33
0210
0000
1000
0010
1000
0000
0310
0000
,  // measure 34
0120
0000
0001
0100
0001
0000
0130
0001
,  // measure 35
0010
0000
0110
0000
0100
1000
0010
0000
,  // measure 36
0110
0000
0100
0001
1000
0000
1001
0000
,  // measure 37
1001
1100
1001
0101
,  // measure 38
0110
0000
0000
0100
0010
0000
0000
0100
0010
0000
0000
0100
0010
0000
0000
1000
,  // measure 39
0100
0000
0010
0000
0001
0000
0000
1000
0100
0000
0010
0000
0001
0000
1000
0000
,  // measure 40
0000
0000
0001
0000
0010
0000
0100
0000
1000
0100
1000
0000
1100
0000
0000
0000
,  // measure 41
1010
0000
0000
0001
0100
0000
0010
0000
1000
0000
0000
0001
0100
0000
0010
0000
,  // measure 42
1000
0000
0100
0000
0010
0000
0001
0000
0000
0000
1001
0000
1000
0000
0001
1000
,  // measure 43
0010
0000
0001
0000
0100
0000
0000
1000
0010
0000
0001
0000
0100
0000
0010
0000
,  // measure 44
1000
0000
0001
0000
0100
0000
0010
0000
0000
0000
0100
0010
0100
0000
1000
0000
,  // measure 45
0100
0010
0001
0100
0010
1000
0100
0100
,  // measure 46
0010
0000
0101
0000
1001
0001
1000
0100
,  // measure 47
0020
0000
0000
0000
0001
0000
0000
0000
1000
0000
0000
0000
0031
0010
0200
0000
,  // measure 48
0000
1000
0001
0000
0010
0000
1000
1000
,  // measure 49
0310
0001
0100
0010
0001
0100
0010
0001
,  // measure 50
0100
0000
1000
0000
0010
0000
0100
0000
1000
0000
0010
0000
0100
0000
1000
0010
,  // measure 51
0100
1000
0100
0010
1000
0010
0100
1000
,  // measure 52
0100
0001
0100
1000
0010
0100
0001
1000
,  // measure 53
0100
1000
0010
0100
0001
0010
0100
1000
,  // measure 54
0010
0000
0000
0010
0100
0000
0000
0100
0001
0000
0010
0000
1000
0000
0200
0000
,  // measure 55
0002
0000
0000
0000
,  // measure 56
0303
0000
0000
0000
;

//---------------dance-single - ----------------
#NOTEDATA:;
#CHARTNAME:;
#STEPSTYPE:dance-single;
#DESCRIPTION:;
#CHARTSTYLE:;
#DIFFICULTY:Beginner;
#METER:3;
#RADARVALUES:0.145373,0.219484,0.019953,0.109742,0.000000,102.000000,100.000000,2.000000,11.000000,0.000000,0.000000,0.000000,0.000000,0.000000,0.145373,0.219484,0.019953,0.109742,0.000000,102.000000,100.000000,2.000000,11.000000,0.000000,0.000000,0.000000,0.000000,0.000000;
#CREDIT:;
#NOTES:
0000
0000
0000
0000
,
0000
0000
0000
0000
,
0000
0000
0000
0000
,
0000
0000
0000
0000
,
0000
0000
0000
0000
,
1000
0000
0001
0000
,
0010
0000
0100
0000
,
1000
0000
0010
0100
,
0002
0000
0000
0003
,
0100
0000
1000
0000
,
0010
0000
0100
0000
,
0001
0000
0010
0000
,
0100
0000
1000
0000
,
0100
0000
0010
0000
,
0001
0000
0100
0000
,
0010
0000
1000
0000
,
0020
0000
0000
0030
,
1000
0000
0001
0000
,
0020
0000
0000
0030
,
0001
0000
1000
0000
,
0200
0000
0000
0300
,
1000
0000
0001
0000
,
0200
0000
0300
0000
,
0010
0000
0010
0000
,
1000
0000
1000
0000
,
0010
0000
0010
0000
,
0001
0000
0001
0000
,
0010
0000
1000
0000
,
0010
0000
0001
0000
,
0100
0000
1000
0000
,
0100
1000
0100
1000
,
0100
0000
1000
0000
,
0001
0000
0010
0000
,
0001
0000
0100
0000
,
0010
0000
1000
0000
,
0010
0000
0100
0000
,
0001
0000
0010
0000
,
0002
0000
0003
0001
,
2000
0000
0000
3000
,
1000
0000
0100
0000
,
0010
0000
0001
0000
,
0010
0000
0100
0000
,
1000
0000
0010
0000
,
0100
0000
0001
0000
,
0100
0000
0010
0000
,
1000
0000
0100
0000
,
0010
0001
0010
0002
,
0020
0000
0000
0033
,
2200
0000
0000
3300
,
1000
0000
1000
0000
,
0100
0000
0100
0000
,
0010
0000
0010
0000
,
0001
0000
0001
0000
,
1000
0000
0001
0000
,
0100
0100
0010
0010
,
0110
0000
0000
0000
;
