#TITLE:Freeway Shuffle;
#SUBTITLE:;
#ARTIST:dj TAKA;
#TITLETRANSLIT:;
#SUBTITLETRANSLIT:;
#ARTISTTRANSLIT:;
#GENRE:;
#CREDIT:;
#BANNER:Freeway Shuffle.png;
#BACKGROUND:Freeway Shuffle-bg.png;
#LYRICSPATH:;
#CDTITLE:;
#MUSIC:Freeway Shuffle.ogg;
#OFFSET:0.000000;
#SAMPLESTART:29.799999;
#SAMPLELENGTH:15.000000;
#SELECTABLE:YES;
#DISPLAYBPM:145.000000;
#BPMS:0.000000=145.160995
,4.000000=145.014999
;
#STOPS:
;
#BGCHANGES:0.000=Freeway Shuffle.avi=1.000=0=0=0=StretchNoLoop====,
99999=-nosongbg-=1.000=0=0=0 // don't automatically add -songbackground-
;
#KEYSOUNDS:;
#ATTACKS:;

//---------------dance-single - ----------------
#NOTES:
     dance-single:
     :
     Beginner:
     3:
     0.124811,0.167300,0.046472,0.037178,0.000000,94.000000,89.000000,5.000000,4.000000,0.000000,0.000000,0.124811,0.167300,0.046472,0.037178,0.000000,94.000000,89.000000,5.000000,4.000000,0.000000,0.000000:
0000
0000
0000
0000
,
0000
0000
0000
0000
,
0001
0000
0000
0000
,
1000
0000
0000
0000
,
0001
0000
0000
0000
,
1000
0000
0001
0000
,
0001
0000
0000
0000
,
1000
0000
0000
0000
,
0001
0000
0000
0000
,
1000
0000
0001
0000
,
1000
1000
0000
0001
,
0001
0001
0000
0100
,
0000
0010
0000
0001
,
0001
0000
1000
1000
,
1000
0000
0000
0000
,
0001
0000
0000
0000
,
1000
0000
0000
0000
,
0001
0000
1000
0000
,
0001
0000
0010
0000
,
0001
0001
0000
0000
,
1000
0000
0010
0000
,
1000
1000
0000
0000
,
0010
0000
0010
0000
,
0010
0000
0000
0000
,
0001
0000
1000
0000
,
0010
0000
0000
0000
,
1000
0000
0001
0000
,
0010
0010
0000
0000
,
0001
0000
1000
0000
,
0010
0010
0000
0000
,
0100
0000
0100
0000
,
0100
0000
0000
0000
,
1000
0000
0001
0000
,
0100
0000
0000
0000
,
0010
0000
1000
0000
,
0100
0000
0000
0000
,
0100
0000
0000
0000
,
0010
0000
0100
0000
,
0001
0001
0000
0000
,
1000
1000
0000
0000
,
0010
0000
0100
0000
,
0110
0000
0000
0000
,
2000
0000
0000
3000
,
0000
0000
0000
0000
,
0002
0000
0000
0003
,
0000
0000
0000
0000
,
0200
0000
0000
0300
,
0000
0000
0000
0000
,
0010
0000
1000
0000
,
0001
0000
0000
0001
,
0001
0000
0100
0000
,
1000
0000
0100
0000
,
0001
0000
0010
0000
,
1000
0000
0001
0000
,
1001
0000
0000
0000
,
1001
0000
0000
0000
,
0010
0000
0100
0000
,
0020
0000
0000
0030
,
0000
0000
0000
0000
,
1001
0000
0000
0000
,
0110
0000
0000
0000
,
0000
0000
0000
0000
;

//---------------dance-single - ----------------
#NOTES:
     dance-single:
     :
     Easy:
     4:
     0.252278,0.306717,0.074356,0.120828,0.000000,190.000000,182.000000,8.000000,13.000000,0.000000,0.000000,0.252278,0.306717,0.074356,0.120828,0.000000,190.000000,182.000000,8.000000,13.000000,0.000000,0.000000:
0000
0000
0000
0000
,
0000
0000
0000
0000
,
0010
1000
0100
0000
,
0010
0001
0100
0000
,
0001
1000
0001
0000
,
0001
0010
0100
0001
,
0010
0100
0001
0000
,
0010
0100
1000
0000
,
0001
1000
0001
0000
,
1000
0010
1000
0100
,
0010
0001
0010
0000
,
0100
1000
0100
0000
,
0010
1000
0010
0000
,
0100
0001
0010
0100
,
0010
0001
0010
0000
,
0100
1000
0100
0000
,
0010
0001
0100
0010
,
0100
0001
0000
1001
,
0001
0001
0010
1000
,
0100
0020
0000
0030
,
0010
0010
0001
0100
,
0010
0002
0000
0003
,
0100
0100
0010
0000
,
0001
0001
1000
0000
,
0010
0100
0010
0010
,
0010
1000
0001
0000
,
1000
1000
0100
0010
,
0001
2000
0000
3000
,
1000
1000
0010
0001
,
0100
0020
0000
0030
,
0100
0100
0001
0000
,
1000
1000
0001
0000
,
0100
0010
0100
0100
,
0100
0001
1000
1001
,
0110
0010
0000
0100
,
0001
0010
0000
0100
,
1000
0001
0100
1000
,
0010
0100
0000
0001
,
0010
0001
0010
0000
,
0100
1000
0100
0000
,
0010
0001
0010
0100
,
0010
1000
0010
0100
,
0002
0000
1003
0100
,
0002
0000
0013
1000
,
0002
0000
0103
0000
,
0010
1000
0100
0010
,
2000
0000
3010
0100
,
2000
0000
3001
0010
,
2000
0000
3002
0000
,
0013
0100
0000
1001
,
0100
0001
0010
0000
,
0100
1000
0010
0000
,
1000
0001
1000
0001
,
1000
0100
0010
0000
,
0100
0010
1000
0000
,
0100
0010
0001
0000
,
1000
0001
1000
0010
,
1001
0000
0010
0000
,
1001
0000
0100
0000
,
2002
0000
3003
0000
,
0110
0000
0000
0000
,
0000
0000
0000
0000
;

//---------------dance-single - ----------------
#NOTES:
     dance-single:
     :
     Medium:
     8:
     0.335928,0.362484,0.130122,0.102239,0.000000,253.000000,239.000000,14.000000,11.000000,0.000000,0.000000,0.335928,0.362484,0.130122,0.102239,0.000000,253.000000,239.000000,14.000000,11.000000,0.000000,0.000000:
0000
0000
0000
0000
,
0000
0000
0000
0000
,
0001
0000
0100
0000
1000
0000
0100
1000
,
0010
0100
0001
1000
,
0100
0000
0100
0000
0010
0000
0001
1000
,
0010
0100
0100
0001
,
0101
0000
0001
0000
1000
0000
0010
1000
,
0100
1000
0001
0010
,
1000
0000
0100
0000
0001
0000
0100
0010
,
1000
0000
0001
0000
1000
0000
0001
1000
,
0001
0000
0100
0000
0010
0000
1000
0100
,
0010
0000
1000
0100
0010
0000
0100
0000
,
0010
0000
1000
0000
0100
0000
0010
0001
,
0100
0000
0010
0001
0100
0000
0010
0000
,
0110
0000
0001
0000
1000
0000
0010
0100
,
1000
0000
0010
0100
0001
0000
0101
0000
,
0010
0000
0100
0000
1000
0000
0001
0100
,
0010
0000
0001
0100
0010
1000
0100
0000
,
0010
0001
0100
1000
,
0010
0100
1001
0000
,
0100
0001
0010
1000
,
0001
0100
1010
0000
,
0001
0000
1000
0000
0010
0001
0100
0000
,
0100
0001
0010
0000
0100
0000
1000
0000
,
1100
0000
0101
0000
,
0011
0100
0100
0100
,
0010
1000
0100
0001
,
0010
0100
0110
0000
,
0100
1000
0010
0001
,
1000
0100
0011
0000
,
0001
0000
0100
0000
0010
1000
0001
0000
,
0001
1000
0010
0000
0100
0000
0001
0000
,
0011
0000
1010
0000
,
0101
1000
2000
3010
,
0100
0001
1000
0100
,
0010
0000
1000
0000
0010
0000
0001
1000
,
0100
0010
0001
1000
,
0001
0100
1000
0000
1000
0100
0001
0000
,
0010
0000
0001
0000
0100
0000
0010
0100
,
1000
0000
0100
0000
0010
0000
0001
0010
,
1000
0100
0001
1000
,
0220
0000
0330
0000
,
1000
0001
1000
0010
,
2000
3000
0001
0100
,
2000
0000
3000
0000
,
1000
0100
0010
0001
,
0001
1000
0001
0100
,
0002
0003
1000
0100
,
0002
0003
0200
0300
,
0001
1000
0100
0100
,
0010
0000
0001
1000
0100
0000
0010
0001
,
1000
0001
0100
1000
,
0001
0000
0010
0001
0010
0000
0010
0001
,
0010
0000
1000
0000
0100
0000
0010
0100
,
0010
0001
1000
0100
,
0001
0100
0010
0000
1000
0000
0001
0000
,
0200
0300
0002
0003
,
1000
0100
0010
0001
,
0010
1000
0100
1000
,
0020
0000
0000
0000
,
0130
0000
0000
0000
,
0000
0000
0000
0000
;

//---------------dance-single - ----------------
#NOTES:
     dance-single:
     :
     Hard:
     10:
     0.443478,0.474017,0.371778,0.362484,0.000000,334.000000,294.000000,40.000000,39.000000,0.000000,0.000000,0.443478,0.474017,0.371778,0.362484,0.000000,334.000000,294.000000,40.000000,39.000000,0.000000,0.000000:
0000
0000
0000
0000
,
0000
0000
0000
0000
,
2000
0000
3001
0010
0100
0000
0001
0100
,
0020
0000
1030
0001
0010
0100
1000
0001
,
0200
0000
0301
1000
0010
0000
0100
0001
,
2000
0000
3100
1000
0010
0000
1010
0000
,
0011
0000
1000
0100
0020
0000
0130
0000
,
0001
0000
0010
0100
2000
0000
3010
0100
,
0001
0000
1000
0010
0200
0000
1300
0000
,
0001
0000
2000
0001
3020
0000
0130
0000
,
2000
3200
0302
0023
,
1030
0011
0110
1002
,
0000
0203
2300
3020
,
0031
1000
0100
0110
,
1001
0000
1000
0001
0001
0000
0010
0000
,
0100
0000
1000
1000
0010
0000
0001
0001
,
0100
0000
0010
0100
0100
0000
0001
0000
,
1000
0000
0010
0010
0100
0001
0010
0000
,
1000
0000
0001
0100
0010
0000
0110
0000
,
1000
0100
0010
0001
0000
0100
0010
0100
,
0001
0101
1000
1010
,
0100
0001
0010
0100
0000
0100
0010
0001
,
2000
3010
0002
0103
,
0001
0100
1000
0010
0001
0000
1001
0000
,
0100
0000
0001
1000
0001
0000
0001
1000
,
0001
0011
1001
1010
,
0001
0000
1000
0010
0100
0000
0110
0000
,
0001
0010
0100
1000
0000
0010
0100
0010
,
1000
1010
0001
0101
,
0010
1000
0100
0010
0000
0010
0100
1000
,
0002
0103
2000
3010
,
1000
0010
0001
0100
1000
0000
1001
0000
,
0010
0000
1000
0001
1001
0000
0001
1000
,
1001
1100
1001
0101
,
1000
0100
0010
0001
0010
0000
1001
0000
,
0100
0010
1000
0001
0000
0001
0100
0000
,
0010
1000
0100
0000
1000
0010
0100
0001
,
0010
0100
1000
0010
0100
0000
0110
0000
,
1000
0001
0100
0010
0000
0010
1000
0100
,
0001
0100
0010
0001
0000
0001
0100
0010
,
1000
0011
1010
1001
,
0220
0330
2002
3003
,
1000
0002
0000
0203
,
0000
0320
0000
2030
,
3001
0200
0000
0000
0000
0000
0000
0000
,
0301
0010
0100
1000
0001
0010
0100
1000
,
0001
0200
0000
0320
,
0000
2030
0000
3020
,
1030
0002
0000
0000
0103
0001
0000
0000
,
1000
0100
0010
0001
1000
0000
1001
0000
,
1000
0100
0010
0001
0010
0000
1001
0000
,
0100
0010
1000
0001
0000
0001
0100
0000
,
0010
1000
0100
0000
1000
0010
0100
0001
,
0010
0100
1000
0010
0100
0000
0110
0000
,
1000
0001
0100
0010
0000
0010
1000
0100
,
0001
0100
0010
0001
0000
0001
0100
0010
,
1000
0011
1010
1001
,
0120
0000
1000
0031
,
0102
0000
0010
1003
,
2200
0000
0000
3300
,
0011
0000
0000
0000
,
0000
0000
0000
0000
;

//---------------dance-single - ----------------
#NOTES:
     dance-single:
     :
     Challenge:
     12:
     0.507212,0.557667,0.092945,0.046472,0.083650,382.000000,372.000000,10.000000,5.000000,0.000000,0.000000,0.507212,0.557667,0.092945,0.046472,0.083650,382.000000,372.000000,10.000000,5.000000,0.000000,0.000000:
0000
0000
0000
0000
,
0000
0000
0000
0000
,
1000
0000
0001
0010
0100
0100
1000
0100
,
1000
0000
0001
0100
0010
0010
1000
0010
,
0001
0000
1000
0010
0100
0100
0001
0100
,
0001
0000
1000
0100
0010
0010
1001
0000
,
0100
0000
0001
0010
0100
0100
1000
0001
,
0010
0000
0001
0100
0010
0010
1000
0100
,
0001
0000
1000
0001
0100
0100
0001
1000
,
0010
0000
0100
0001
0010
0010
1001
0000
,
0100
0001
0010
0000
0001
0010
1000
0010
,
0100
1000
0010
0000
1000
0010
0001
0010
,
0000
1001
1001
0000
0100
0000
0010
0001
,
1000
0000
0010
1000
0100
0001
0100
0000
,
1000
0000
0001
0010
0100
2000
0000
0000
,
3001
0000
1000
0010
0100
0002
0000
0000
,
1003
0200
0000
1300
0001
0200
0000
0301
,
0010
0001
0001
0100
0010
1000
0100
0000
,
1000
0000
0001
0000
0100
0001
0010
0000
,
1000
0001
1000
0000
0100
0000
0010
0000
0000
0000
0001
0000
0010
0000
0100
0000
,
1000
0001
0010
0001
1000
0001
0010
0100
,
1000
0100
1000
0100
1000
0000
0001
0000
0000
0000
0100
0000
0001
0000
1000
0000
,
0001
0100
0010
1000
0000
0010
0100
0010
,
1000
0100
0010
0001
0010
0001
0010
0100
,
1000
0001
1000
0000
0001
0000
1000
0001
,
0010
0000
1010
0000
0011
0000
1000
0100
,
0001
0000
1000
0000
0100
1000
0010
0000
,
0001
1000
0001
0000
0100
0000
0010
0000
0000
0000
1000
0000
0010
0000
0100
0000
,
0001
1000
0010
1000
0001
1000
0010
0100
,
0001
0100
0001
0100
0001
0000
1000
0000
0000
0000
0100
0000
1000
0000
0001
0000
,
1000
0100
0010
0001
0000
0010
0100
0010
,
0001
0100
0010
1000
0010
1000
0010
0100
,
0001
1000
0001
0000
1000
0000
0001
1000
,
0100
0101
1100
0101
,
1000
0100
1000
0000
0001
0000
0100
0000
0010
0000
0001
0000
1000
0000
0100
0000
,
0001
1000
0100
1000
0000
0010
0010
0100
,
0001
0100
0001
0000
1000
0000
0100
0000
0010
0000
1000
0000
0001
0000
0100
0000
,
1000
0100
1000
0100
1000
0000
0001
0000
0100
0000
0100
0000
0010
0000
0000
0000
,
1000
0100
0010
0001
0000
0010
0100
1000
,
0001
0100
0010
1000
0000
0010
0100
0001
,
1000
0100
1000
0000
0001
0000
0100
0000
0010
1000
0010
0000
0100
0000
0001
0000
,
1000
0000
0010
0000
,
0110
0000
0000
0000
,
0001
0000
0010
0000
,
0100
0000
0000
0000
0000
0000
0000
0010
,
0001
1000
0010
0100
0001
0010
0100
1000
,
0001
0000
0000
0100
0000
0000
0000
0000
,
1000
0000
0000
0100
0000
0000
0000
0000
,
0001
0010
0000
0010
0100
1000
0000
1000
,
0001
0100
0001
0010
0000
0000
0000
0000
,
1000
0100
1000
0000
0001
0000
0100
0000
0010
0000
0001
0000
1000
0000
0100
0000
,
0001
1000
0100
1000
0000
0010
0010
0100
,
0001
0100
0001
0000
1000
0000
0100
0000
0010
0000
1000
0000
0001
0000
0100
0000
,
1000
0100
1000
0100
1000
0000
0001
0000
0100
0000
0100
0000
0010
0000
0000
0000
,
1000
0100
0010
0001
0000
0010
0100
1000
,
0001
0100
0010
1000
0000
0010
0100
0001
,
1000
0100
1000
0000
0001
0000
0100
0000
0010
1000
0010
0000
0100
0000
0001
0000
,
1000
0000
0000
0000
0000
0100
0100
0001
,
0010
0001
0100
1000
0100
0001
0010
0100
,
2000
0000
0000
3000
,
0001
0000
0000
0000
,
0000
0000
0000
0000
;

//---------------dance-double - ----------------
#NOTES:
     dance-double:
     :
     Easy:
     5:
     0.252278,0.306717,0.074356,0.120828,0.000000,190.000000,182.000000,8.000000,13.000000,0.000000,0.000000,0.252278,0.306717,0.074356,0.120828,0.000000,190.000000,182.000000,8.000000,13.000000,0.000000,0.000000:
00000000
00000000
00000000
00000000
,
00000000
00000000
00000000
00000000
,
00010000
00000100
00000010
00000000
,
00000001
00000010
00000100
00000000
,
00001000
00000001
00000100
00000000
,
00000010
00010000
00001000
00100000
,
00010000
01000000
00100000
00000000
,
00010000
10000000
01000000
00000000
,
10000000
00010000
00100000
00000000
,
00001000
00000100
00000010
00001000
,
00000001
00000010
00000100
00000000
,
00001000
00000010
00010000
00000000
,
00001000
00010000
00001000
00000000
,
01000000
00100000
10000000
00010000
,
00100000
01000000
00010000
00000000
,
10000000
01000000
00010000
00000000
,
00100000
00001000
00010000
00000010
,
00000100
00000001
00000000
00000110
,
00000100
00000100
00000010
00001000
,
00000100
00020000
00000000
00030000
,
00001000
00001000
00100000
00010000
,
01000000
00200000
00000000
00300000
,
10000000
10000000
01000000
00000000
,
10000000
10000000
00100000
00000000
,
01000000
00001000
00010000
00010000
,
00010000
00000100
00001000
00000000
,
00000010
00000010
00000001
00001000
,
00000100
00000002
00000000
00000003
,
00000100
00000100
00000010
00010000
,
00001000
00020000
00000000
00030000
,
00001000
00001000
01000000
00000000
,
00010000
00010000
10000000
00000000
,
00100000
00010000
01000000
01000000
,
01000000
00010000
00100000
00110000
,
00011000
00001000
00000000
00000100
,
00001000
00000001
00000000
00000100
,
00000010
00001000
00000001
00001000
,
00000100
00010000
00000000
00001000
,
00010000
00001000
00010000
00000000
,
01000000
00100000
01000000
00000000
,
10000000
00100000
00010000
01000000
,
00100000
01000000
00001000
00010000
,
00000020
00000000
00001030
00000001
,
00002000
00000000
00003010
00000100
,
00000020
00000000
00010030
00000000
,
00001000
01000000
00100000
10000000
,
00020000
00000000
01030000
00100000
,
00020000
00000000
10030000
01000000
,
00020000
00000000
00230000
00000000
,
00301000
00010000
00000000
00011000
,
00010000
00000100
00001000
00000000
,
00000010
00000100
00000001
00000000
,
00001000
00000001
00001000
00000010
,
00000100
00001000
00010000
00000000
,
00100000
01000000
00010000
00000000
,
10000000
01000000
00100000
00000000
,
00010000
01000000
00100000
01000000
,
01100000
00000000
00010000
00000000
,
00110000
00000000
00010000
00000000
,
00022000
00000000
00033000
00000000
,
00001010
00000000
00000000
00000000
,
00000000
00000000
00000000
00000000
;

//---------------dance-double - ----------------
#NOTES:
     dance-double:
     :
     Medium:
     7:
     0.337256,0.390367,0.139417,0.102239,0.000000,254.000000,239.000000,15.000000,11.000000,0.000000,0.000000,0.337256,0.390367,0.139417,0.102239,0.000000,254.000000,239.000000,15.000000,11.000000,0.000000,0.000000:
00000000
00000000
00000000
00000000
,
00000000
00000000
00000000
00000000
,
00100000
00000000
00010000
00000000
00100000
00000000
00010000
01000000
,
00001000
00010000
00001000
00000100
,
00000010
00000000
00000010
00000000
00001000
00000000
00000001
00000010
,
00001000
00000010
00000010
00010000
,
00010010
00000000
00010000
00000000
00001000
00000000
01000000
00100000
,
10000000
00010000
00100000
00010000
,
01000000
00000000
00100000
00000000
10000000
00000000
01000000
00100000
,
00010000
00000000
00100000
00000000
00001000
00000000
00010000
00001000
,
00010000
00000000
00000010
00000000
00000100
00000000
00000001
00000010
,
00000100
00000000
00001000
00000010
00000100
00000000
00000001
00000000
,
00000100
00000000
00010000
00000000
01000000
00000000
00100000
01000000
,
00010000
00000000
00100000
01000000
10000000
00000000
10100000
00000000
,
10010000
00000000
01000000
00000000
00010000
00000000
00100000
00001000
,
00010000
00000000
00001000
00010000
00000100
00000000
00010100
00000000
,
00010000
00000000
00000100
00000000
00000010
00000000
00000001
00001000
,
00000001
00000000
00000100
00000010
00010000
00001000
00000100
00000000
,
00000010
00010000
00001000
01000000
,
00100000
00010000
11000000
00000000
,
00100000
00010000
01000000
10000000
,
00100000
00010000
00110000
00000000
,
10000000
00000000
00010000
00000000
00100000
00001000
00010000
00000000
,
00000100
00010000
00000100
00000000
00001000
00000000
00000010
00000000
,
00000110
00000000
00001010
00000000
,
00000101
00000100
00000100
00000100
,
00000010
00001000
00000001
00000100
,
00000010
00010000
00010010
00000000
,
00000100
00010000
00001000
00100000
,
00010000
01000000
01100000
00000000
,
10000000
00000000
00100000
00000000
10000000
00100000
00010000
00000000
,
00010000
01000000
10000000
00000000
00010000
00000000
00100000
00000000
,
00011000
00000000
00001100
00000000
,
00000110
00000001
00000200
00000310
,
00000001
00000010
00000100
00010000
,
00001000
00000000
01000000
00000000
00100000
00000000
10000000
00010000
,
00100000
01000000
10000000
00100000
,
01000000
00010000
00100000
00000000
00100000
00001000
00010000
00000000
,
00001000
00000000
00000100
00000000
00000001
00000000
00000010
00000001
,
00000100
00000000
00000010
00000000
00001000
00000000
00000100
00010000
,
00000100
00000010
00000001
00001000
,
00000220
00000000
00000330
00000000
,
00000001
00000100
00000010
00001000
,
00000200
00000300
00010000
00001000
,
00200000
00000000
00300000
00000000
,
00010000
01000000
00100000
10000000
,
10000000
00010000
00100000
01000000
,
20000000
30000000
00100000
00010000
,
00200000
00300000
00002000
00003000
,
00010000
00000010
00000100
00000100
,
00000001
00000000
00000010
00000001
00000100
00000000
00000010
00001000
,
00000100
00000010
00000001
00000100
,
00001000
00000000
00000010
00010000
00001000
00000000
00100000
00001000
,
01000000
00000000
00100000
00000000
10000000
00000000
00010000
01000000
,
10000000
00100000
10000000
00010000
,
00100000
00010000
01000000
00000000
00100000
00000000
10000000
00000000
,
00020000
00030000
00200000
00300000
,
00001000
00010000
00000100
00000010
,
00000001
00000100
00000010
00001000
,
00000002
00000000
00000000
00000000
,
00001003
00000000
00000000
00000000
,
00000000
00000000
00000000
00000000
;

//---------------dance-double - ----------------
#NOTES:
     dance-double:
     :
     Hard:
     9:
     0.442151,0.474017,0.362484,0.343895,0.000000,333.000000,294.000000,39.000000,37.000000,0.000000,0.000000,0.442151,0.474017,0.362484,0.343895,0.000000,333.000000,294.000000,39.000000,37.000000,0.000000,0.000000:
00000000
00000000
00000000
00000000
,
00000000
00000000
00000000
00000000
,
00000020
00000000
00001030
00000001
00000100
00000000
00000010
00010000
,
00002000
00000000
00013000
00001000
01000000
00010000
00100000
01000000
,
20000000
00000000
30100000
01000000
00010000
00000000
00100000
00010000
,
02000000
00000000
03100000
10000000
00010000
00000000
00110000
00000000
,
00011000
00000000
00001000
00000100
00000020
00000000
00001030
00000000
,
00000001
00000000
00000010
00000001
00000200
00000000
00000301
00000100
,
00000010
00000000
00001000
00000010
00000200
00000000
00000310
00000000
,
00001000
00000000
00000200
00010000
00002300
00000000
00003100
00000000
,
00020000
02030000
03200000
00310000
,
01000000
01100000
10100000
12000000
,
00000000
03100000
20000000
30200000
,
01300000
00001000
00010000
00011000
,
00001100
00000000
00001000
00000010
00000010
00000000
00000100
00000000
,
00000001
00000000
00000010
00000010
00000100
00000000
00001000
00001000
,
00000010
00000000
00010000
00001000
00001000
00000000
00100000
00000000
,
00010000
00000000
01000000
01000000
00100000
10000000
01000000
00000000
,
00100000
00000000
00010000
10000000
01000000
00000000
00110000
00000000
,
10000000
00100000
01000000
00010000
00000000
10000000
01000000
00100000
,
00010000
10010000
00010000
00110000
,
00100000
00001000
00010000
00000100
00000000
00001000
00000010
00000100
,
00000002
00001003
00000020
00000130
,
00000001
00000100
00001000
01000000
00100000
00000000
10100000
00000000
,
00100000
00000000
01000000
00010000
01000000
00000000
01000000
00010000
,
01000000
10010000
11000000
00110000
,
00100000
00000000
00001000
00010000
00000100
00000000
00011000
00000000
,
00010000
00001000
00000100
00000010
00000000
00000100
00000001
00000100
,
00000010
00001001
00000001
00001100
,
00000010
00001000
00000100
00000010
00000000
00000001
00000100
00001000
,
00020000
00031000
00200000
00310000
,
01000000
00100000
10000000
01000000
00010000
00000000
01100000
00000000
,
01000000
00000000
10000000
00100000
10100000
00000000
00010000
00100000
,
00110000
11000000
10010000
00011000
,
00010000
00001000
00010000
00000100
00000010
00000000
00000110
00000000
,
00000010
00000001
00000100
00000001
00000000
00000001
00000100
00000000
,
00000010
00000100
00000010
00000000
00000010
00000100
00000010
00010000
,
00001000
00100000
00010000
01000000
00010000
00000000
10010000
00000000
,
00010000
00100000
01000000
10000000
00000000
10000000
00100000
01000000
,
00010000
10000000
01000000
00100000
00000000
00001000
00010000
00000100
,
00001000
00001100
00000011
00001010
,
00002002
00003003
00000220
00000330
,
00000001
00000200
00000000
00000320
,
00000000
00002030
00000000
00003200
,
00010300
00002000
00000000
00000000
00000000
00000000
00000000
00000000
,
00103000
00010000
01000000
00100000
10000000
01000000
00100000
00010000
,
10000000
00020000
00000000
00230000
,
00000000
20300000
00000000
30200000
,
00310000
02000000
00000000
00000000
03001000
00010000
00000000
00000000
,
00001000
00000010
00000100
00000001
00001000
00000000
00000110
00000000
,
00000001
00000010
00000001
00001000
00000010
00000000
00001001
00000000
,
00000001
00000100
00000010
00001000
00000000
00000010
00001000
00000000
,
00000100
00010000
00001000
00000000
00010000
00001000
01000000
00100000
,
10000000
00010000
00100000
01000000
10000000
00000000
11000000
00000000
,
00100000
00010000
10000000
00010000
00000000
00100000
00010000
10000000
,
01000000
00010000
00100000
01000000
00000000
00100000
00001000
00010000
,
00001000
00011000
00001010
00001001
,
00000210
00000000
00000001
00000310
,
00002000
00000000
00010000
00103000
,
00220000
00000000
00000000
00330000
,
10010000
00000000
00000000
00000000
,
00000000
00000000
00000000
00000000
;

//---------------dance-double - ----------------
#NOTES:
     dance-double:
     :
     Challenge:
     12:
     0.500573,0.557667,0.083650,0.046472,0.065061,377.000000,368.000000,9.000000,5.000000,0.000000,0.000000,0.500573,0.557667,0.083650,0.046472,0.065061,377.000000,368.000000,9.000000,5.000000,0.000000,0.000000:
00000000
00000000
00000000
00000000
,
00000000
00000000
00000000
00000000
,
10000000
00000000
00010000
00100000
01000000
01000000
10000000
01000000
,
00010000
00000000
00001000
00000100
00000010
00000010
00001000
00000010
,
00000001
00000000
00001000
00000010
00000100
00000100
00000001
00000010
,
00001000
00000000
00010000
01000000
00100000
00100000
10010000
00000000
,
00100000
00000000
00010000
00001000
00000100
00000100
00001000
00010000
,
01000000
00000000
00010000
00001000
00000010
00000010
00000001
00000010
,
00001000
00000000
00010000
00001000
01000000
01000000
00100000
00010000
,
00001000
00000000
00000100
00001000
00010000
00010000
00011000
00000000
,
00000100
00000001
00000010
00000000
00000001
00000010
00001000
00010000
,
00000100
00001000
00000010
00000000
00000010
00001000
00010000
00001000
,
00000000
00011000
00011000
00000000
01000000
00000000
10000000
00100000
,
00010000
00000000
00001000
00010000
00100000
00010000
00001000
00000000
,
00000010
00000000
00001000
00010000
01000000
20000000
00000000
00000000
,
30100000
00000000
00010000
00001000
00000100
00000002
00000000
00000000
,
00000103
00002000
00000000
00013000
00100000
00020000
00000000
00031000
,
00000010
00001000
00001000
00010000
01000000
00100000
00010000
00000000
,
10000000
00000000
00010000
00000000
00100000
00010000
00001000
00000000
,
00010000
00001000
00010000
00000000
00000100
00000000
00000010
00000000
00000000
00000000
00001000
00000000
00010000
00000000
00100000
00000000
,
10000000
01000000
00010000
00001000
00010000
00001000
00000010
00000001
,
00001000
00000100
00001000
00000100
00001000
00000000
00000001
00000000
00000000
00000000
00000100
00000000
00000010
00000000
00000100
00000000
,
00001000
00010000
00100000
00010000
00000000
00000100
00000010
00000100
,
00010000
00001000
00000010
00001000
00000010
00001000
00010000
01000000
,
10000000
00010000
10000000
00000000
00010000
00000000
10000000
01000000
,
00010000
00000000
00011000
00000000
00001010
00000000
00001000
00000100
,
00000001
00000000
00001000
00000000
00000010
00001000
00010000
00000000
,
00001000
00010000
00001000
00000000
01000000
00000000
00100000
00000000
00000000
00000000
00010000
00000000
00001000
00000000
00000010
00000000
,
00000001
00000100
00001000
00010000
00001000
00010000
00100000
10000000
,
00010000
01000000
00010000
01000000
00010000
00000000
10000000
00000000
00000000
00000000
01000000
00000000
00100000
00000000
01000000
00000000
,
00010000
00001000
00000010
00001000
00000000
01000000
00100000
01000000
,
00001000
00010000
00100000
00010000
00100000
00010000
00001000
00000100
,
00000001
00001000
00000001
00000000
00001000
00000000
00000001
00000100
,
00001000
00011000
00110000
01000000
,
10000000
01000000
10000000
00000000
00010000
00000000
01000000
00000000
00100000
00000000
00010000
00000000
00001000
00000000
00010000
00000000
,
00000010
00001000
00100000
00010000
00000000
00001000
00001000
00000100
,
00000010
00000100
00000010
00000000
00001000
00000000
00000100
00000000
00000010
00000000
00001000
00000000
00010000
00000000
00000100
00000000
,
00001000
00000100
00001000
00000100
00001000
00000000
00000010
00000000
00000100
00000000
00000100
00000000
00001000
00000000
00000000
00000000
,
00010000
01000000
00100000
10000000
00000000
10000000
01000000
00010000
,
00001000
00000100
00000010
00000001
00000000
00000001
00000100
00001000
,
00010000
00000010
00001000
00010000
01000000
00100000
00010000
00001000
,
00000100
00000000
00000001
00000000
,
00000110
00000000
00000000
00000000
,
00001000
00000000
01000000
00000000
,
10000000
00000000
00000000
00000000
00000000
00000000
00000000
01000000
,
10000000
00100000
00010000
00001000
00010000
00001000
00000100
00000001
,
00001000
00000000
00000000
00000010
00000000
00000000
00000000
00000000
,
00010000
00000000
00000000
00100000
00000000
00000000
00000000
00000000
,
00000001
00000010
00000000
00000010
00000100
00001000
00000000
00001000
,
00010000
01000000
10000000
01000000
00000000
00000000
00000000
00000000
,
10000000
01000000
10000000
00000000
00010000
00000000
01000000
00000000
00100000
00000000
00010000
00000000
00001000
00000000
00010000
00000000
,
00000010
00001000
00100000
00010000
00000000
00001000
00001000
00000100
,
00000010
00000100
00000010
00000000
00001000
00000000
00000100
00000000
00000010
00000000
00001000
00000000
00010000
00000000
00000100
00000000
,
00001000
00000100
00001000
00000100
00001000
00000000
00000010
00000000
00000100
00000000
00000100
00000000
00001000
00000000
00000000
00000000
,
00010000
01000000
00100000
10000000
00000000
10000000
01000000
00010000
,
00001000
00000100
00000010
00000001
00000000
00000001
00000100
00001000
,
00010000
00000010
00001000
00010000
01000000
00100000
00010000
00001000
,
00000100
00000000
00000000
00000000
00000000
00010000
00010000
00001000
,
00000010
00000001
00000100
00001000
00010000
01000000
10000000
00100000
,
00020000
00000000
00000000
00030000
,
00000100
00000000
00000000
00000000
,
00000000
00000000
00000000
00000000
;

//---------------dance-single - Edit----------------
#NOTES:
     dance-single:
     :
     Edit:
     18:
     1.100729,1.059568,0.009294,0.074356,1.840303,829.000000,828.000000,1.000000,8.000000,0.000000,0.000000,1.100729,1.059568,0.009294,0.074356,1.840303,829.000000,828.000000,1.000000,8.000000,0.000000,0.000000:
// measure 0
0000
0000
0000
0000
,  // measure 1
0000
0000
0000
0000
,  // measure 2
1000
0100
0010
0001
1000
0100
0010
0001
0000
0001
0000
0001
0100
0001
1000
0100
,  // measure 3
0010
0100
0001
1000
0100
0010
0001
1000
0000
1000
0000
1000
0010
0100
0001
0010
,  // measure 4
0100
1000
0010
0100
0001
0010
0100
1000
0000
1000
0000
1000
0010
0100
0001
0100
,  // measure 5
0010
0001
1000
0100
0010
0001
0100
0001
0000
0001
0000
0001
0010
0001
0100
0001
,  // measure 6
1000
0010
0100
0001
0010
1000
0100
0001
0000
0001
0000
0001
0010
0100
1000
0010
,  // measure 7
0100
0010
0001
1000
0010
0100
0001
0100
0000
0100
0000
0100
0010
1000
0100
0010
,  // measure 8
0001
0010
0100
1000
0010
0100
0001
0010
0000
0010
0000
0010
0100
0010
1000
0001
,  // measure 9
0010
0100
0001
1000
0100
0010
0001
1000
0000
1000
0000
1000
0001
0100
0010
1000
,  // measure 10
0100
0010
0001
0010
0100
0010
1000
0010
0100
0001
0010
0001
0100
1000
0100
0001
,  // measure 11
0100
1000
0010
1000
0100
0010
0001
0010
0100
0001
0100
1000
0100
0000
0010
0000
,  // measure 12
0000
0000
0100
0000
0010
0001
0010
1000
0010
0001
0100
0001
0010
1000
0100
1000
,  // measure 13
0010
0100
0010
0001
0010
1000
0010
0001
0010
0100
0010
1000
0010
0001
0010
0100
,  // measure 14
0010
1000
0100
0010
0001
0100
0010
1000
0001
0010
0100
1000
0001
0100
0010
1000
,  // measure 15
0001
0010
0100
1000
0010
0001
0100
1000
0010
1000
0200
0000
0001
0000
0300
0000
,  // measure 16
0000
2000
0100
3000
0000
0020
1000
0030
,  // measure 17
0000
0000
0002
0000
0010
0000
0013
0000
0001
0010
0001
1000
0001
0000
0000
0000
,  // measure 18
0001
0010
0100
1000
0001
0010
0100
1000
0001
0010
0100
1000
0001
0010
0100
1000
,  // measure 19
0010
0001
0100
1000
0010
0001
0100
1000
0010
0001
0100
1000
0010
0001
0100
1000
,  // measure 20
0100
0001
0010
1000
0100
0001
0010
1000
0100
0001
0010
1000
0100
0001
0010
1000
,  // measure 21
0001
0010
1000
0100
0001
0010
1000
0100
0001
0010
1000
0100
0001
0010
1000
0100
,  // measure 22
0010
0001
0100
1000
0010
0001
0100
1000
0010
0001
0100
1000
0010
0001
0100
1000
,  // measure 23
0001
0100
0010
1000
0010
0100
0001
0100
0010
1000
0010
0100
0001
0100
0010
1000
,  // measure 24
0100
0010
1000
0001
0010
0001
0100
0010
1000
0100
0010
0001
0100
0010
1000
0001
,  // measure 25
0010
0100
0001
0100
1000
0010
0001
0100
0010
1000
0001
0100
0010
1000
0001
0100
,  // measure 26
0010
0001
0100
0010
1000
0001
0100
0010
1000
0100
0010
0001
0100
0010
1000
0001
,  // measure 27
0010
0100
1000
0001
0100
0010
1000
0100
0010
0001
0100
0010
1000
0001
0010
0100
,  // measure 28
0001
1000
0010
0100
0001
0010
1000
0100
0010
0001
0100
0010
1000
0001
0010
1000
,  // measure 29
0001
0100
0010
1000
0001
0010
0100
1000
0001
0100
0010
1000
0001
0010
0100
1000
,  // measure 30
0001
0010
0001
0100
0010
1000
0001
0010
0100
1000
0010
0001
0100
0010
1000
0100
,  // measure 31
0010
1000
0100
0010
0001
0100
0010
1000
0001
0010
0100
1000
0010
0100
0001
1000
,  // measure 32
0100
0010
0001
1000
0010
0100
0001
0010
1000
0100
0010
0001
0100
1000
0010
0001
,  // measure 33
0100
0010
1000
0001
0010
0100
0001
1000
0100
0010
0001
0100
0010
1000
0010
0001
,  // measure 34
0100
1000
0100
1000
0100
1000
0100
1000
0100
1000
0100
1000
0100
1000
0100
1000
,  // measure 35
0010
1000
0010
1000
0010
1000
0010
1000
0010
1000
0010
1000
0010
1000
0010
1000
,  // measure 36
0001
1000
0001
1000
0001
1000
0001
1000
0001
1000
0001
1000
0001
1000
0001
1000
,  // measure 37
0100
0010
0100
0010
0100
0010
0100
0010
0100
0010
0100
0010
0100
0010
0100
0010
,  // measure 38
0100
0001
0100
0001
0100
0001
0100
0001
0100
0001
0100
0001
0100
0001
0100
0001
,  // measure 39
1000
0001
1000
0001
1000
0001
1000
0001
1000
0001
1000
0001
1000
0001
1000
0001
,  // measure 40
0010
0001
0010
0001
0010
0001
0010
0001
0010
0001
0010
0001
0010
0001
0010
0001
,  // measure 41
0010
0100
1000
0010
0100
1000
0010
0100
0001
0010
0100
1000
0001
0100
0010
1000
,  // measure 42
0100
0010
0001
0010
1000
0010
0010
0001
,  // measure 43
1000
0100
0100
0001
0100
0010
0010
1000
,  // measure 44
0000
0000
0001
0010
1000
0000
0010
0000
0100
0000
0001
0000
0001
0000
1000
0100
,  // measure 45
0010
0000
0010
0000
0001
0000
0001
0000
0100
0000
0100
0000
0001
0100
0010
1000
,  // measure 46
0100
0000
0100
0000
1000
0000
1000
0000
0010
0000
0010
0000
0001
1000
0100
0010
,  // measure 47
0001
0000
0001
0000
0010
0000
0010
0000
0100
0000
1000
0100
0010
0001
0010
0000
,  // measure 48
0010
0001
0100
0000
0020
0000
0130
0000
0010
1000
0100
0000
0020
0000
0130
0000
,  // measure 49
0010
0000
1000
0000
0001
0000
0000
0000
0010
0000
0001
0000
1000
0000
0000
0000
0010
0100
0010
0100
0010
0100
0010
0100
0010
0000
0000
0000
0000
0000
0000
0000
,  // measure 50
1000
0010
0001
0100
1000
0100
0001
0010
1000
0010
0001
0100
1000
0100
0001
0010
,  // measure 51
0001
0100
1000
0010
0001
0010
1000
0010
0001
0100
1000
0100
0001
0010
1000
0010
,  // measure 52
0100
0001
1000
0001
0010
0001
1000
0001
0100
0001
0010
0001
1000
0001
0010
0001
,  // measure 53
0100
0010
1000
0010
0100
0010
1000
0010
0100
0010
1000
0010
0100
0010
1000
0010
,  // measure 54
0100
0010
0100
0000
0010
0000
0001
0000
1000
0000
0001
0000
0010
0000
0100
0000
1000
0000
0100
0000
0010
0000
0001
0000
1000
0000
0010
0000
0100
0000
0001
0000
,  // measure 55
1000
0001
1000
0000
0001
0000
0100
0000
0010
0000
1000
0000
0100
0000
0010
0000
0001
0000
1000
0000
0010
0000
0100
0000
0001
0000
0010
0000
0100
0000
1000
0000
,  // measure 56
0010
1000
0010
0000
1000
0000
0010
0000
1000
0010
1000
0000
0010
0000
1000
0000
0010
1000
0010
0000
1000
0000
0010
0000
1000
0010
1000
0000
0010
0000
1000
0000
,  // measure 57
0010
1000
0010
1000
0010
1000
0010
1000
0010
0001
0010
0001
0010
0001
0010
0001
,  // measure 58
1000
0000
0010
0000
0001
0000
0010
0000
1000
0000
0010
0000
0001
0000
0010
0000
0001
0000
0010
0000
1000
0000
0010
0000
0001
0100
0010
0000
1000
0000
0020
0000
,  // measure 59
0002
0000
0000
0033
,  // measure 60
1010
0000
0000
0000
;
