#VERSION:0.83;
#TITLE:Freedom;
#SUBTITLE:;
#ARTIST:BeForU;
#TITLETRANSLIT:;
#SUBTITLETRANSLIT:;
#ARTISTTRANSLIT:;
#GENRE:;
#ORIGIN:;
#CREDIT:;
#BANNER:Freedom.png;
#BACKGROUND:Freedom-bg.png;
#PREVIEWVID:;
#JACKET:Freedom-jacket.png;
#CDIMAGE:;
#DISCIMAGE:;
#LYRICSPATH:;
#CDTITLE:;
#MUSIC:Freedom.ogg;
#OFFSET:0.000000;
#SAMPLESTART:26.285000;
#SAMPLELENGTH:15.000000;
#SELECTABLE:YES;
#DISPLAYBPM:148.000000;
#BPMS:0.000=121.900,
4.000=148.000;
#STOPS:;
#DELAYS:;
#WARPS:;
#TIMESIGNATURES:0.000=4=4;
#TICKCOUNTS:0.000=4;
#COMBOS:0.000=1;
#SPEEDS:0.000=1.000=0.000=0;
#SCROLLS:0.000=1.000;
#FAKES:;
#LABELS:0.000=Song Start;
#BGCHANGES:;
#KEYSOUNDS:;
#ATTACKS:
;

//---------------dance-single - ----------------
#NOTEDATA:;
#CHARTNAME:;
#STEPSTYPE:dance-single;
#DESCRIPTION:;
#CHARTSTYLE:;
#DIFFICULTY:Beginner;
#METER:3;
#RADARVALUES:0.182104,0.207692,0.021978,0.000000,0.000000,116.000000,114.000000,2.000000,0.000000,0.000000,0.000000,0.000000,0.000000,0.000000,0.182104,0.207692,0.021978,0.000000,0.000000,116.000000,114.000000,2.000000,0.000000,0.000000,0.000000,0.000000,0.000000,0.000000;
#CREDIT:;
#DISPLAYBPM:148.000000;
#NOTES:
0000
0000
0000
0000
,
0000
0000
0000
0000
,
0000
0000
0000
0000
,
0000
0000
0000
0000
,
0001
0000
1000
0000
,
1000
0000
0001
0000
,
0001
0000
0010
0000
,
0100
0100
0100
0000
,
0001
0001
0001
0000
,
0010
0000
0010
0000
,
1000
1000
1000
0000
,
0100
0000
0100
0000
,
0000
0001
0000
0001
,
0000
1000
0000
1000
,
1000
1000
1000
0000
,
0100
0000
1001
0000
,
0010
0010
0010
0000
,
1000
0000
0001
0001
,
0001
0000
1000
1000
,
0000
0010
0010
0010
,
0000
1000
0000
0001
,
0000
1000
0000
0001
,
0001
0001
0001
0001
,
0001
0000
0010
0000
,
0001
0000
0000
0000
,
0100
0000
0000
0000
,
0010
0000
0000
0000
,
1000
0000
0000
0000
,
0100
0000
0000
0000
,
0010
0000
0000
0000
,
1000
0000
0001
0000
,
0100
0100
0100
0100
,
0000
0000
0000
0000
,
0010
0000
0010
0000
,
0001
0000
1000
0000
,
1000
0000
0001
0000
,
0000
0010
0010
0010
,
0000
0001
0000
1000
,
0000
0001
0000
1000
,
1000
1000
1000
1000
,
1000
0000
0010
0000
,
0010
0000
0010
0000
,
1000
0000
1000
0000
,
0001
0000
0001
0000
,
0000
0010
0010
0010
,
0000
1000
0000
0001
,
0000
1000
0000
0001
,
0001
0001
0001
0001
,
0001
0000
0010
0000
,
0001
0000
0010
0000
,
1000
1000
1000
1000
,
1000
0000
0010
0000
,
1000
0000
0001
0000
,
0100
0100
0100
0000
,
1001
0000
0000
0000
;

//---------------dance-single - ----------------
#NOTEDATA:;
#CHARTNAME:;
#STEPSTYPE:dance-single;
#DESCRIPTION:;
#CHARTSTYLE:;
#DIFFICULTY:Easy;
#METER:5;
#RADARVALUES:0.222920,0.267033,0.010989,0.296703,0.000000,142.000000,141.000000,1.000000,27.000000,0.000000,0.000000,0.000000,0.000000,0.000000,0.222920,0.267033,0.010989,0.296703,0.000000,142.000000,141.000000,1.000000,27.000000,0.000000,0.000000,0.000000,0.000000,0.000000;
#CREDIT:;
#DISPLAYBPM:148.000000;
#NOTES:
0000
0000
0000
0000
,
0000
0000
0000
0000
,
0000
0000
0000
0000
,
0000
0000
0000
0000
,
0001
0001
1000
0100
,
1000
1000
0001
0000
,
0001
0100
0001
0000
,
1000
1000
1000
0100
,
1000
0000
0000
0000
,
1000
1000
0001
0100
,
0001
0000
0000
0000
,
0001
0001
1000
0100
,
1000
0000
1000
1000
,
0001
0000
0001
0001
,
0010
0000
0100
0000
,
1000
0100
0002
0003
,
1000
0000
0000
0000
,
0001
0000
0100
0000
,
0001
0000
0010
0100
,
2000
3002
2003
3002
,
0023
0100
0100
0130
,
0010
0001
0100
1000
,
0002
0100
0003
0100
,
0010
1000
0100
0010
,
0001
0000
0000
0000
,
0100
0000
0000
0000
,
0010
0000
0000
0000
,
1000
0000
0000
0000
,
0100
0000
0000
0000
,
0010
0000
0000
0000
,
1000
0000
0001
0000
,
0200
0000
0000
0000
,
0300
0000
0000
0000
,
0001
0000
0000
0000
,
1000
0000
0100
0000
,
1000
0000
0010
0100
,
0002
2003
3002
2003
,
3020
0100
0100
0130
,
0010
1000
0100
0001
,
2000
0100
3000
0100
,
0000
0000
0000
1000
,
0010
1000
0001
0100
,
0001
1000
0100
0100
,
0010
0001
1000
0100
,
2000
3002
2003
3002
,
0023
0100
0130
0100
,
1000
0001
0100
0010
,
2000
0100
0000
3100
,
0002
2003
3002
2003
,
3020
0100
0100
0130
,
0001
0001
1000
1000
,
0200
1000
0000
1300
,
0020
0100
0000
0130
,
0001
1000
0100
0100
,
1001
0000
0000
0000
;

//---------------dance-single - ----------------
#NOTEDATA:;
#CHARTNAME:;
#STEPSTYPE:dance-single;
#DESCRIPTION:;
#CHARTSTYLE:;
#DIFFICULTY:Medium;
#METER:7;
#RADARVALUES:0.367347,0.445055,0.417582,0.065934,0.000000,234.000000,196.000000,38.000000,6.000000,0.000000,0.000000,0.000000,0.000000,0.000000,0.367347,0.445055,0.417582,0.065934,0.000000,234.000000,196.000000,38.000000,6.000000,0.000000,0.000000,0.000000,0.000000,0.000000;
#CREDIT:;
#DISPLAYBPM:148.000000;
#NOTES:
0000
0000
0000
0000
,
0000
0000
0000
0000
,
0000
0000
0000
0000
,
0000
0000
0000
1000
,
0001
0101
1000
0100
,
1000
1100
0001
0100
,
0010
1000
0100
0110
,
1000
1000
1000
0100
,
0001
0001
0010
0100
,
1100
1100
0001
0100
,
0001
0001
0010
0001
,
0101
0101
1000
0100
,
0010
0001
0100
1100
,
0010
1000
0100
0101
,
0010
1001
0100
1001
,
1000
0100
0002
0003
,
1000
0101
0001
1000
,
0010
0010
1000
0000
0100
0000
1000
0000
,
0010
0100
0001
0000
1000
0000
0100
0000
,
1100
0101
1100
0101
,
1000
1100
0001
0011
,
0100
1000
0010
0001
,
0200
0010
0310
0010
,
1000
0100
1000
0010
,
0100
0000
0000
0000
,
0001
0000
0000
0000
,
1000
0001
0000
0000
0000
0000
0000
0000
,
0010
1000
0000
0000
0000
0000
0000
0000
,
0100
0010
0000
0000
0000
0000
0000
0000
,
0001
1000
0000
0000
0000
0000
0000
0000
,
0101
0001
0110
1000
,
1001
1000
0100
0000
,
0000
0000
0000
0000
,
0001
1100
1000
0001
,
0010
0010
0001
0000
0100
0000
0001
0000
,
0010
0100
1000
0000
0001
0000
0100
0000
,
0101
1100
0101
1100
,
0001
0101
1000
1010
,
0100
0001
0010
1000
,
0200
0010
0310
0010
,
0001
0000
0100
0000
0001
0000
1000
0100
,
0001
0000
0010
0000
1000
0000
0001
0100
,
1000
0000
0010
0000
0001
0000
1000
0100
,
0001
0100
1000
0000
1000
0000
0001
0000
,
1100
0101
1100
0101
,
1000
1100
0001
0011
,
0010
0100
0110
1000
,
0002
0100
0103
0100
,
0010
0001
0010
0000
0100
1000
0100
0000
,
0001
0101
1000
1010
,
0010
0100
0110
0001
,
2000
0100
0100
3100
,
0002
0010
0010
0013
,
0001
0010
0001
0010
0001
0100
0001
0100
,
0010
0000
0000
0000
;

//---------------dance-single - ----------------
#NOTEDATA:;
#CHARTNAME:;
#STEPSTYPE:dance-single;
#DESCRIPTION:;
#CHARTSTYLE:;
#DIFFICULTY:Hard;
#METER:11;
#RADARVALUES:0.488226,0.534066,0.219780,0.076923,0.159341,311.000000,291.000000,20.000000,7.000000,0.000000,0.000000,0.000000,0.000000,0.000000,0.488226,0.534066,0.219780,0.076923,0.159341,311.000000,291.000000,20.000000,7.000000,0.000000,0.000000,0.000000,0.000000,0.000000;
#CREDIT:;
#DISPLAYBPM:148.000000;
#NOTES:
0000
0000
0000
0000
,
0000
0000
0000
0000
,
0000
0000
0000
0000
,
0000
0000
0000
1000
,
0001
0000
1000
0000
0101
0000
0000
0000
1000
0001
1000
0000
0100
0000
0000
0000
,
1000
0000
0001
0000
1100
0000
0000
0000
0001
1000
0001
0000
0100
0000
0000
0000
,
0001
0000
1000
0000
0100
0000
0000
0000
0001
0010
0001
0000
0110
0000
0000
0000
,
1000
0000
0001
0000
1000
0000
0100
0000
1000
0010
1000
0000
0100
0000
0000
0000
,
1000
0010
1000
0100
0010
0100
1000
0001
,
0000
0001
0000
0100
0001
1000
0100
0000
,
0001
0010
0001
0100
0010
0100
0001
1000
,
0000
1000
0000
0100
1000
0001
0100
0000
,
1000
0001
0010
0100
1000
0100
0100
0100
,
0001
1000
0010
0100
0001
0100
0100
0100
,
0010
1000
0001
0100
0010
1000
0100
0000
,
1000
0001
0100
0001
0002
0000
0003
0000
,
1000
0001
0101
0000
0001
0100
1000
0000
,
0001
0001
1000
0000
0100
1000
0001
0000
,
0010
0001
1000
0000
1000
0000
0001
0000
,
1100
0101
1100
0101
,
1000
0000
0100
0000
1000
0000
0000
0000
0001
0000
0100
0000
0001
0000
0000
1000
,
0010
0000
0000
1000
0100
0000
0000
0010
0001
0000
0000
1000
0100
0000
0000
0000
,
0002
0100
0103
0100
,
1000
0000
0010
0000
1000
0001
0010
0100
,
1000
0100
0000
0000
0000
0001
0000
1000
,
0100
1000
0000
0000
0000
0001
0000
0001
,
0100
0001
0000
0000
0000
0001
0000
1000
,
0100
0000
1000
0000
0000
0000
0000
0100
0000
0000
0001
0000
0000
0000
0001
0000
,
0100
0001
0000
0000
0000
1000
0000
1000
,
0100
1000
0000
0000
0000
1000
0000
1000
,
0101
0001
0110
1000
,
1002
0000
1000
0000
1000
0000
0000
0000
0000
0100
0000
0000
0000
0000
0000
0000
,
0003
0000
0000
0000
,
0001
1000
1100
0000
1000
0100
0001
0000
,
1000
1000
0001
0000
0100
0001
1000
0000
,
0010
1000
0001
0000
0001
0000
1000
0000
,
0101
1100
0101
1100
,
0001
0000
0100
0000
0001
0000
0000
0000
1000
0000
0100
0000
1000
0000
0000
0001
,
0010
0000
0000
0001
0100
0000
0000
0010
1000
0000
0000
0001
0100
0000
0000
0000
,
2000
0100
3100
0100
,
1000
0000
0010
0000
1000
0001
0010
0100
,
1000
0001
0010
0100
0000
0001
0010
0100
,
1000
0001
0010
0100
0000
0100
1000
0100
,
0001
1000
0010
0100
0001
0000
0001
0000
,
1100
0101
1100
0101
,
1000
0000
0100
0000
1000
0000
0000
0000
0001
0000
0100
0000
0001
0000
0000
1000
,
0010
0000
0000
1000
0100
0000
0000
0010
0001
0000
0000
1000
0100
0000
0000
0000
,
0002
0000
0000
0000
0100
0000
0000
0000
0103
0000
0000
0000
0100
0000
0000
0001
,
0010
0000
0000
0010
1000
0000
0000
1000
0100
0000
0000
0100
0001
0000
0000
0000
,
0001
0000
0100
0000
0001
0000
0000
0000
1000
0000
0100
0000
1000
0000
0000
0001
,
0010
0000
0000
0001
0100
0000
0000
0010
1000
0000
0000
0001
0100
0000
0000
0000
,
2000
0100
0100
3100
,
0002
0100
0100
0103
,
0100
0000
0010
0000
0100
0000
0010
0000
0100
0000
0001
1000
0100
1000
0100
1000
,
0100
0000
0000
0000
;

//---------------dance-double - ----------------
#NOTEDATA:;
#CHARTNAME:;
#STEPSTYPE:dance-double;
#DESCRIPTION:;
#CHARTSTYLE:;
#DIFFICULTY:Easy;
#METER:4;
#RADARVALUES:0.219780,0.267033,0.032967,0.197802,0.000000,140.000000,137.000000,3.000000,18.000000,0.000000,0.000000,0.000000,0.000000,0.000000,0.219780,0.267033,0.032967,0.197802,0.000000,140.000000,137.000000,3.000000,18.000000,0.000000,0.000000,0.000000,0.000000,0.000000;
#CREDIT:;
#DISPLAYBPM:148.000000;
#NOTES:
00000000
00000000
00000000
00000000
,
00000000
00000000
00000000
00000000
,
00000000
00000000
00000000
00000000
,
00000000
00000000
00000000
00000000
,
00010000
00010000
10000000
10000000
,
10000000
10000000
00010000
00010000
,
10000000
00000000
01000000
00000000
,
00001000
00000000
00000010
00000000
,
00001000
00001000
00000010
00000100
,
00000001
00000000
00001000
00000000
,
00010000
00010000
00100000
01000000
,
10000000
00000000
00010000
00000000
,
01000000
01000000
01000000
00000000
,
00001000
00001000
00001000
00000000
,
00010000
00000010
00000100
00000001
,
00001000
00000100
00000100
00000000
,
00010000
00000000
00000000
00000000
,
00100000
10000000
01000000
00000000
,
00010000
00000000
00000010
00000000
,
00002000
00003002
00002003
00003002
,
00001003
00000000
00010000
00000000
,
00100000
01000000
10000000
00010000
,
20000000
00000000
31000000
00000000
,
00100000
10000000
01000000
00010000
,
00001000
00000000
00000000
00000000
,
01000000
00000000
00000000
00000000
,
00100000
00000000
00000000
00000000
,
10000000
00000000
00000000
00000000
,
00001000
00000000
00000000
00000000
,
00000100
00000000
00000000
00000000
,
00001001
00000100
00000010
00001000
,
00000100
00000100
00000100
00000100
,
00000000
00000000
00000000
00000000
,
00001000
00000000
00000000
00000000
,
00000010
00000001
00000100
00000000
,
00001000
00000000
00100000
00000000
,
00020000
00000000
00000000
00000000
20030000
00000000
00000000
00000000
30020000
00000000
00000000
00000000
20030000
00000000
00000000
30000000
,
00010000
00000000
00001000
00000000
,
00000010
00000100
00000001
00001000
,
00000002
00000000
00000103
00000000
,
00000010
00000001
00000100
00001000
,
00010000
01000000
10000000
00000000
,
00010000
00100000
01000000
00000000
,
00010000
00000010
00000100
00000001
,
00002000
00000000
00000000
00003000
00000002
00000000
00000000
00000003
00002000
00000000
00000000
00003000
00000002
00000000
00000000
00000000
,
00001003
00000000
00010000
00000000
,
00100000
01000000
10000000
00010000
,
20000000
00000000
31000000
00000000
,
00100000
01000000
00001000
00000100
,
00000010
00000001
00000100
00000000
,
00001000
00010000
00011000
00000100
,
00000020
00000000
00000130
00000000
,
00020000
00000000
00031000
00000000
,
00200000
01000000
01000000
01300000
,
10010000
00000000
00000000
00000000
;

//---------------dance-double - ----------------
#NOTEDATA:;
#CHARTNAME:;
#STEPSTYPE:dance-double;
#DESCRIPTION:;
#CHARTSTYLE:;
#DIFFICULTY:Medium;
#METER:7;
#RADARVALUES:0.350078,0.445055,0.395604,0.054945,0.000000,223.000000,187.000000,36.000000,5.000000,0.000000,0.000000,0.000000,0.000000,0.000000,0.350078,0.445055,0.395604,0.054945,0.000000,223.000000,187.000000,36.000000,5.000000,0.000000,0.000000,0.000000,0.000000,0.000000;
#CREDIT:;
#DISPLAYBPM:148.000000;
#NOTES:
00000000
00000000
00000000
00000000
,
00000000
00000000
00000000
00000000
,
00000000
00000000
00000000
00000000
,
00000000
00000000
00000000
00001000
,
00010000
01010000
10000000
01000000
,
10000000
11000000
00010000
01000000
,
00010000
00100000
00010000
00011000
,
00001000
00000100
00000010
00000001
,
00001000
00001000
00000010
00001000
,
00000000
00001000
00000000
00001000
,
00010000
00010000
00100000
00010000
,
00000000
00010000
00000000
00010000
,
00010000
00100000
00010000
00000000
,
00001000
00000010
00001000
00000000
,
00001000
00000001
00000100
00001000
,
00100000
01000000
01000000
00000000
,
00010000
11000000
10000000
00010000
,
00100000
10000000
01000000
00010000
,
00000010
00000100
00000100
00000001
,
00000101
00001100
00000101
00001100
,
00001000
00001100
00010000
00110000
,
00100000
01000000
11000000
00010000
,
20000000
01000000
31000000
01000000
,
00010000
00000010
00001000
00000010
,
00000001
00000000
00000000
00000000
,
00000100
00000000
00000000
00000000
,
00001000
00010000
01000000
00000000
00000000
00000000
00000000
00000000
,
00100000
01000000
00100000
00000000
00000000
00000000
00000000
00000000
,
00010000
10000000
00010000
00000000
00000000
00000000
00000000
00000000
,
00001000
00000100
00001000
00000000
00000000
00000000
00000000
00000000
,
00011000
00000100
00000110
00001000
,
00000001
00000000
00000001
00000000
00000001
00000100
00000001
00000000
,
00000000
00000000
00000000
00000000
,
00001000
00000101
00000001
00001000
,
00000010
00000001
00000100
00001000
,
00100000
01000000
01000000
10000000
,
11000000
01010000
11000000
01010000
,
00010000
01010000
00001000
00001010
,
00000010
00000100
00000101
00001000
,
00000002
00000100
00000103
00000100
,
00001000
00100000
00010000
00100000
,
00010000
10000000
01000000
00000000
10000000
00000000
00100000
00000000
,
10000000
01000000
00010000
00000000
00001000
00000000
00010000
00000000
,
00001000
00000100
00000001
00000000
00000001
00000100
00000001
00000000
,
00000101
00001100
00000101
00001100
,
00001000
00001100
00010000
00110000
,
00100000
01000000
11000000
00010000
,
20000000
01000000
31000000
01000000
,
10100000
01100000
00011000
00001100
,
00010000
00001100
00000010
00000011
,
00001000
00000100
00000101
00001000
,
00000002
00000100
00000103
00000100
,
00002000
00010000
00013000
00010000
,
00100000
00000000
00100000
00000000
01000000
00100000
01000000
00000000
,
10010000
00000000
00000000
00000000
;

//---------------dance-double - ----------------
#NOTEDATA:;
#CHARTNAME:;
#STEPSTYPE:dance-double;
#DESCRIPTION:;
#CHARTSTYLE:;
#DIFFICULTY:Hard;
#METER:11;
#RADARVALUES:0.448980,0.474725,0.384615,0.054945,0.027473,286.000000,251.000000,35.000000,5.000000,0.000000,0.000000,0.000000,0.000000,0.000000,0.448980,0.474725,0.384615,0.054945,0.027473,286.000000,251.000000,35.000000,5.000000,0.000000,0.000000,0.000000,0.000000,0.000000;
#CREDIT:;
#DISPLAYBPM:148.000000;
#NOTES:
00000000
00000000
00000000
00000000
,
00000000
00000000
00000000
00000000
,
00000000
00000000
00000000
00000000
,
00000000
00000000
00000000
00001000
,
00010000
00001000
01010000
00000000
10000000
00000000
01000000
00000000
,
10000000
00010000
11000000
00000000
00010000
00000000
01000000
00000000
,
00010000
00001000
00100000
00000000
00010000
00000000
00011000
00000000
,
00001000
00010000
00000100
00001000
00000010
00000100
00000001
00000000
,
00001000
00000010
00001000
00000100
00000010
00000100
00001000
00000001
,
00000000
00000001
00000000
00000100
00000001
00001000
00000100
00000000
,
00010000
00001000
00010000
01000000
00100000
01000000
00010000
10000000
,
00000000
10000000
00000000
01000000
10000000
00010000
01000000
00000000
,
00100000
00010000
00100000
01000000
00100000
00010000
00000000
00010000
,
00000010
00000001
00000010
00000100
00000010
00000100
00000000
00000100
,
00010000
00000100
00001000
01000000
,
00001000
00010000
01000000
10000000
01000000
00000000
00000000
00000000
,
00010000
11000000
10000000
00010000
,
10000000
10000000
00010000
00000000
01000000
00010000
00001000
00000000
,
00000010
00001000
00000001
00000000
00000001
00000000
00001000
00000000
,
00000101
00001100
00000101
00001100
,
00001000
00001100
00010000
00110000
,
00100000
00010000
01000000
00000000
11000000
00000000
00010000
00000000
,
20000000
01000000
31000000
01000000
,
00010000
00000000
00000010
00000000
00000001
00001000
00000010
00000100
,
00000001
00000100
00000000
00000000
00000000
00001000
00000000
00000001
,
00000100
00000001
00000000
00000000
00000000
00000010
00000000
00000010
,
00001000
00010000
00000000
00000000
00000000
00001000
00000000
00010000
,
00000100
00000000
00010000
00000000
00000000
00000000
00000000
00000100
00000000
00000000
00001000
00000000
00000000
00000000
00010000
00000000
,
00001000
00010000
00000000
00000000
00000000
00001000
00000000
00001000
,
00000010
00000100
00000000
00000000
00000000
00000001
00000000
00000001
,
00001100
00001000
00000110
00001000
,
00100000
00000000
00100000
00000000
00100000
00000000
00000000
00000000
00000000
01000000
00000000
00000000
00000000
00000000
00000000
00000000
,
00000000
00000000
00000000
00000000
,
00001000
00000101
00000001
00001000
,
00000001
00000001
00001000
00000000
00000100
00001000
00010000
00000000
,
00100000
00010000
10000000
00000000
10000000
00000000
00010000
00000000
,
11000000
01010000
11000000
01010000
,
00010000
01010000
00001000
00001010
,
00000010
00001000
00000100
00000000
00000101
00000000
00001000
00000000
,
00000002
00000100
00000103
00000100
,
00001000
00000000
00000010
00000000
00001000
00000001
00000010
00000100
,
00001000
00100000
01000000
00100000
00000000
00010000
00100000
01000000
,
10000000
00010000
00100000
01000000
00000000
01000000
10000000
01000000
,
00010000
00001000
00000010
00000100
00000001
00000000
00000001
00000000
,
00000101
00001100
00000101
00001100
,
00001000
00001100
00010000
00110000
,
00100000
00010000
01000000
00000000
11000000
00000000
00010000
00000000
,
20000000
01000000
31000000
01000000
,
10100000
01100000
01010000
01100000
,
00010000
01010000
00001000
00001010
,
00000010
00001000
00000100
00000000
00000101
00000000
00001000
00000000
,
00000002
00000100
00000103
00000100
,
00002000
00010000
00013000
00010000
,
01000000
00000000
00100000
00000000
01000000
00000000
00100000
00000000
01000000
00000000
10000000
00010000
01000000
00010000
01000000
00010000
,
10000000
00000000
00000000
00000000
;

//---------------dance-single - ----------------
#NOTEDATA:;
#CHARTNAME:;
#STEPSTYPE:dance-single;
#DESCRIPTION:;
#CHARTSTYLE:;
#DIFFICULTY:Challenge;
#METER:14;
#RADARVALUES:0.770801,0.988187,0.417582,0.571429,0.659341,491.000000,453.000000,38.000000,52.000000,0.000000,0.000000,0.000000,0.000000,0.000000,0.770801,0.988187,0.417582,0.571429,0.659341,491.000000,453.000000,38.000000,52.000000,0.000000,0.000000,0.000000,0.000000,0.000000;
#CREDIT:;
#DISPLAYBPM:148.000000;
#NOTES:
// measure 0
0000
0000
0000
0000
,  // measure 1
0000
0000
0000
0000
,  // measure 2
0000
0000
0000
0000
,  // measure 3
0000
0000
0000
0000
0000
0000
0000
0000
0000
0000
0010
0100
0010
0000
0100
0000
,  // measure 4
0001
0000
1000
0001
0100
0000
0001
1000
0100
0010
0001
0100
0010
0000
0010
0100
,  // measure 5
0010
0000
1000
0010
0100
0000
0001
0100
0010
1000
0001
0100
0010
0000
0100
0010
,  // measure 6
0100
0000
1000
0000
0001
0000
1000
0001
1000
0000
0100
0010
1000
0001
0100
0000
,  // measure 7
0010
0001
0100
0010
1000
0100
0010
0100
0002
0000
0000
0000
1003
0001
1000
0001
,  // measure 8
1000
0010
0100
0001
1000
0100
0010
0001
,  // measure 9
0201
0000
0001
0000
1300
0001
1000
0100
,  // measure 10
0010
0010
0100
0001
1000
1000
0001
0100
,  // measure 11
0120
0000
0000
0000
0100
0000
0000
0000
1030
0000
0001
0000
1000
0000
0001
1000
,  // measure 12
0001
0001
0100
0010
1000
1000
0010
0100
,  // measure 13
0102
0000
0100
0000
1003
0001
0000
1001
,  // measure 14
0000
0000
0010
0000
0100
0000
0010
0000
0100
0000
0001
0000
1000
0000
0001
1000
,  // measure 15
0010
0100
0010
0100
0010
0100
0010
0100
0020
0000
0000
0000
0030
0000
0000
0000
,  // measure 16
0210
0000
0001
0001
0000
1000
1300
0100
,  // measure 17
0120
0000
0001
0001
0000
0100
0130
0010
,  // measure 18
2010
0000
0000
0000
3001
0000
1000
0001
0200
0000
0000
0000
0310
0000
1000
0010
,  // measure 19
0200
0000
0310
0001
2000
0000
3010
0100
0002
0000
0103
1000
0020
0000
0000
0000
,  // measure 20
0130
0000
0001
0000
0100
0000
1000
0000
0100
0000
0001
0000
1001
0000
0001
0100
,  // measure 21
0020
0000
1030
0001
0200
0000
0310
0001
2000
0000
3100
0010
0002
0000
0000
0000
,  // measure 22
2003
0000
0000
0001
0002
3003
1001
0000
,  // measure 23
1000
0100
1000
0100
0010
0001
0010
0001
1000
0100
0010
0001
1000
0100
0010
0001
,  // measure 24
1000
0000
0001
0100
0010
1000
0100
0000
0010
0000
0001
0100
0000
0010
1000
0000
,  // measure 25
0010
0000
0001
0100
0001
0010
1000
0000
0010
0000
1000
0010
0000
0001
1000
0000
,  // measure 26
0010
0000
0001
0010
0100
1000
0010
0000
0100
0000
0010
1000
0000
1000
0100
0000
,  // measure 27
0010
0000
0001
0100
0010
1000
0100
0000
0010
0000
0001
0010
0000
0010
0100
0000
,  // measure 28
1100
0000
1001
0000
1100
0000
1000
0100
0010
0000
0100
0001
0000
0100
0001
0000
,  // measure 29
0011
0000
0101
0000
0110
0000
0100
0010
1000
0000
0001
0100
0000
0010
1000
0000
,  // measure 30
0100
0010
0100
0000
1001
0000
0100
0000
0010
0100
0010
0000
1001
0000
0010
0000
,  // measure 31
0100
0100
0100
0100
,  // measure 32
2002
0000
0000
0000
3003
0000
0000
0000
0001
0010
0100
1000
0100
0010
0001
0000
,  // measure 33
0021
0000
0001
0001
0000
0100
0130
0010
,  // measure 34
2010
0000
0100
0100
0000
0001
3001
1000
,  // measure 35
1002
0000
0000
0000
0000
0000
0100
0000
0200
0000
0303
0000
0101
0000
0100
0001
,  // measure 36
1000
0000
0100
1000
0001
0000
0100
1000
0001
0000
0000
0000
1001
0000
0000
0000
,  // measure 37
1000
0000
0010
0000
0001
0000
0010
0000
1000
0000
0010
0000
1001
0000
0001
0010
,  // measure 38
2000
0000
0000
3100
0020
0000
0000
0031
0200
0000
0000
0310
0002
0000
0000
0000
,  // measure 39
2003
0000
0000
0010
0020
3030
1010
0000
,  // measure 40
1000
0010
0100
0000
0010
0001
0100
0000
0010
0100
0001
1000
0001
0100
0010
1000
,  // measure 41
0200
0000
1000
1300
0000
1001
0001
0101
,  // measure 42
0020
0000
0100
0130
0000
1010
1001
0011
,  // measure 43
1002
0000
0000
0000
0100
0000
0103
0000
0101
0000
0000
0000
1100
0000
1000
0001
,  // measure 44
0100
0000
0010
1000
0100
0000
0010
0001
0100
0000
0001
0000
1001
0000
0000
0000
,  // measure 45
1000
0010
1000
0010
0100
0001
0100
0001
1000
0100
0010
0001
0100
0000
0010
1000
,  // measure 46
0200
0000
0310
0001
0200
0000
0310
1000
0200
0000
0310
0001
0200
0000
0000
0000
,  // measure 47
0320
0000
0000
0000
0000
0000
0001
0000
0002
0000
0033
0000
0011
0000
0001
0100
,  // measure 48
0020
0000
1030
0001
0020
0000
0031
1000
0020
0000
1030
0001
0020
0000
0000
0000
,  // measure 49
0130
0000
0001
0000
0100
0000
1000
0000
0100
0000
0001
0000
1001
0000
0001
0010
,  // measure 50
0200
0000
1300
0010
0200
0000
0310
0001
2000
0000
3010
0100
0002
0000
0003
0000
,  // measure 51
0201
0000
0000
0010
0020
0330
0110
0000
,  // measure 52
1000
0010
1000
0010
0100
0001
0100
0001
1000
0100
0010
0001
1000
0100
0010
0001
,  // measure 53
1000
0100
0001
0100
1000
0100
0001
0100
1000
0010
0001
0010
1000
0010
0001
2000
,  // measure 54
0002
0000
3003
0000
;
