#TITLE:Fly away -mix del matador-;
#SUBTITLE:;
#ARTIST:Shawn the Horny Master feat. ChiyoTia;
#TITLETRANSLIT:;
#SUBTITLETRANSLIT:;
#ARTISTTRANSLIT:;
#GENRE:;
#CREDIT:;
#BANNER:Fly away -mix del matador-.png;
#BACKGROUND:Fly away -mix del matador--bg.png;
#LYRICSPATH:;
#CDTITLE:;
#MUSIC:Fly away -mix del matador-.ogg;
#OFFSET:0.000000;
#SAMPLESTART:46.150002;
#SAMPLELENGTH:15.000000;
#SELECTABLE:YES;
#DISPLAYBPM:130.000000;
#BPMS:0.000000=130.434998
,4.000000=129.990997
;
#STOPS:
;
#BGCHANGES:;
#KEYSOUNDS:;
#ATTACKS:;

//---------------dance-single - ----------------
#NOTES:
     dance-single:
     :
     Beginner:
     3:
     0.163287,0.203535,0.000000,0.020053,0.000000,114.000000,114.000000,0.000000,2.000000,0.000000,0.000000,0.163287,0.203535,0.000000,0.020053,0.000000,114.000000,114.000000,0.000000,2.000000,0.000000,0.000000:
0000
0000
0000
0000
,
0000
0000
0000
0000
,
1000
0000
0000
0000
,
0001
0000
0000
0000
,
0100
0000
0100
0100
,
0100
0000
0010
0000
,
1000
1000
1000
0000
,
0001
0000
0100
0000
,
0010
0010
0010
0000
,
1000
0000
1000
0000
,
0010
0000
0100
0000
,
0001
0001
0001
0000
,
1000
1000
1000
0000
,
0010
0000
0100
0000
,
0001
0000
1000
0000
,
0010
0010
0010
0000
,
1000
1000
1000
0000
,
1000
0000
0001
0000
,
1000
0000
0001
0000
,
0100
0000
0001
0000
,
0001
0001
0001
0000
,
1000
0000
0010
0000
,
1000
0000
0010
0000
,
1000
0000
0100
0000
,
2000
0000
0000
3000
,
1000
0000
0010
0000
,
0100
0000
0100
0000
,
0001
0001
0001
0000
,
1000
1000
1000
0000
,
0010
0000
0010
0000
,
0100
0000
0100
0000
,
0100
0100
0100
0000
,
0010
0010
0010
0010
,
0010
0000
1000
0000
,
0001
0000
0100
0000
,
0001
0001
0001
0000
,
1000
1000
1000
0000
,
0001
0000
0100
0000
,
0001
0000
1000
0000
,
0100
0100
0100
0000
,
0020
0000
0000
0030
,
0010
0000
0010
0000
,
0010
0000
0010
0000
,
0001
0000
1000
0000
,
0001
0000
1000
0000
,
0100
0000
0100
0000
,
0100
0000
0100
0000
,
1000
0000
0001
0000
,
0100
0100
0100
0000
,
1000
1000
1000
0000
,
0010
0010
0010
0010
,
0000
0000
0000
0000
;

//---------------dance-single - ----------------
#NOTES:
     dance-single:
     :
     Easy:
     5:
     0.246362,0.254419,0.060158,0.060158,0.000000,172.000000,166.000000,6.000000,6.000000,0.000000,0.000000,0.246362,0.254419,0.060158,0.060158,0.000000,172.000000,166.000000,6.000000,6.000000,0.000000,0.000000:
0000
0000
0000
0000
,
0000
0000
0000
0000
,
1000
1000
0000
0000
,
0001
0001
0000
0000
,
0100
0100
0010
0100
,
0010
0010
0010
0000
,
2000
3000
0002
0003
,
1000
1000
0100
0000
,
0010
0010
0001
0000
,
0001
0001
0001
0010
,
0100
0100
1000
0001
,
1000
1000
0001
1000
,
0001
0001
1000
0001
,
0100
0100
0100
0010
,
0100
0100
0001
1000
,
0100
0100
0010
0100
,
0010
0000
0000
0110
,
0100
1000
0100
1000
,
0001
0010
0001
0010
,
0100
1000
0100
1000
,
0010
1000
0010
0000
,
1000
0010
1000
0010
,
0100
0001
0100
0001
,
0010
0001
0010
0100
,
0110
0000
0000
0000
,
0001
0001
1000
0010
,
1000
1000
0001
0100
,
0001
0001
1000
1000
,
0001
0000
1001
0000
,
1000
1000
0010
1000
,
0100
0100
0010
0001
,
1000
1000
0001
0001
,
0011
0000
0000
0000
,
0100
0100
1000
0010
,
0100
0100
0001
1000
,
0001
0001
0100
0100
,
0101
0000
0000
0000
,
0010
0010
1000
0001
,
1000
1000
0001
0100
,
0010
0010
1000
1000
,
1001
0000
0000
0000
,
0100
0100
0001
0010
,
0001
0001
0010
0100
,
1000
1000
0001
0001
,
0010
0100
1000
1000
,
0010
0010
1000
0001
,
0100
0100
0001
0010
,
0200
0000
1300
0000
,
0020
0000
0130
0000
,
0002
0013
0200
1300
,
0001
0001
0100
0001
,
0000
0000
0000
0000
;

//---------------dance-single - ----------------
#NOTES:
     dance-single:
     :
     Medium:
     9:
     0.343761,0.330745,0.040105,0.060158,0.000000,240.000000,236.000000,4.000000,6.000000,0.000000,0.000000,0.343761,0.330745,0.040105,0.060158,0.000000,240.000000,236.000000,4.000000,6.000000,0.000000,0.000000:
0000
0000
0000
0000
,
0000
0000
0000
0000
,
1000
0100
0010
0001
,
0001
0010
0100
1000
,
1000
0000
0001
0000
0100
0000
0010
1000
,
0001
0000
0001
0000
0100
0000
0001
0010
,
1000
0000
0001
0000
0100
0000
0010
1000
,
0010
0000
1000
0000
0100
0000
0010
0001
,
0010
0100
0010
1001
,
1000
0000
0001
0000
1000
0000
0001
0100
,
0001
0010
0001
0000
1000
0010
1000
0100
,
0010
0000
0100
0000
1000
0000
0001
0100
,
0000
0010
1000
0100
0010
0001
0100
0000
,
0010
0000
0100
0000
0010
0000
0100
0001
,
0100
1000
0100
0000
0010
1000
0010
0100
,
0001
0000
1000
0000
0100
0000
0010
0001
,
0000
0100
0001
0010
0100
1000
0010
0000
,
2000
0010
0001
3010
,
0001
0100
0001
0000
1000
0100
1000
0010
,
0100
0001
1000
0010
,
0001
0010
1000
0010
,
2000
0100
0001
3100
,
0001
0010
0001
0000
1000
0010
1000
0001
,
0100
0010
0100
0001
,
2002
0000
0000
0000
0000
3003
0000
0000
,
0010
0000
1000
0100
0010
0000
0100
0000
,
0010
0000
0001
0100
0010
0000
0100
0000
,
0001
1000
0010
1000
,
0001
0000
1000
0000
0100
0010
0000
0000
,
0001
0000
1000
0001
0100
0000
0001
0000
,
1000
0000
0001
1000
0100
0000
0010
0000
,
0100
0000
1000
0000
0001
0010
0100
0000
,
1000
0000
0010
0000
0100
0000
0001
1000
,
0010
0000
1000
0100
0000
0000
0001
0100
,
0000
0000
1000
0100
0000
0001
0010
0100
,
1000
0010
1000
0001
,
0100
0001
0010
0001
,
1000
0000
0001
0010
0000
0000
1000
0010
,
0000
0000
0001
0010
0000
1000
0010
0100
,
0001
0000
1000
0000
0010
0100
0001
0000
,
2002
0000
0000
0000
0000
3003
0000
0000
,
0010
1000
0100
0001
,
0010
1000
0100
0001
,
0010
0001
0010
0000
0010
1000
0010
0000
,
0010
0001
0010
0000
0010
1000
0010
0000
,
0100
1000
0010
0001
,
0100
1000
0010
0001
,
0100
0001
0100
0000
0100
1000
0100
0000
,
0100
0001
0100
0000
0100
1000
0100
0000
,
1000
0100
0010
0000
0010
0100
1000
0000
,
0001
1000
0001
0000
1000
0000
1001
0000
,
0000
0000
0000
0000
;

//---------------dance-single - ----------------
#NOTES:
     dance-single:
     :
     Hard:
     13:
     0.605879,0.585164,0.511345,0.150396,0.195514,423.000000,372.000000,51.000000,15.000000,0.000000,0.000000,0.605879,0.585164,0.511345,0.150396,0.195514,423.000000,372.000000,51.000000,15.000000,0.000000,0.000000:
0000
0000
0000
0000
,
0000
0000
0000
0000
,
0001
2000
0100
0000
3010
0000
1000
0001
,
1000
0200
0010
0000
1300
0000
0001
1000
,
0001
0000
0200
0000
1000
0000
0000
0000
0301
0000
0000
1000
0001
0000
0100
0000
,
0010
1000
0001
1000
0100
1000
0001
1000
,
0010
0000
0100
0000
0001
0000
0100
0000
0010
0000
1000
0100
0010
0000
0002
0000
,
0000
1003
1000
0001
1000
0010
0100
0020
,
0000
0000
0130
0000
0001
0000
1000
0000
0010
0000
0000
1000
0001
0000
0100
0000
,
0001
0100
1000
0100
1001
0000
1000
0100
,
0001
0000
0100
0000
1001
0000
0000
0000
0010
0000
1000
0100
0010
0000
0100
0000
,
0110
0000
1100
0000
0011
0000
1001
0100
,
0000
0000
0010
0000
1000
0000
0010
0000
0100
0000
1000
0100
0010
0000
0100
0000
,
0001
0000
1000
0001
0100
0000
0001
1000
0001
0000
1000
0001
1000
0000
0001
1000
,
0100
0000
1000
0010
0100
0000
0100
0000
0001
0000
1000
0000
0100
0000
0010
0000
,
0011
0000
0101
0000
1010
0000
0110
0001
,
0000
0000
1000
0000
0010
0000
1000
0000
0001
0000
0100
0010
1000
0000
0001
0000
,
0200
0000
0000
0310
1000
0000
0100
0000
0020
0000
0000
0031
0100
0000
0001
0000
,
2000
0000
0000
3100
0010
0000
0001
0000
1000
0000
0100
0000
0010
0000
0010
0000
,
0100
1000
1100
0001
0101
0100
0010
1000
,
1000
0000
0100
0000
0110
0000
0000
0000
0001
0000
0000
1000
0010
0000
0100
0000
,
0020
0000
0000
0130
0001
0000
0010
0000
0200
0000
0000
1300
0010
0000
1000
0000
,
0002
0000
0000
0013
0100
0000
1000
0000
1000
0000
0100
0000
1000
0000
0001
0000
,
0110
0000
1001
0000
0100
0010
1000
0000
,
1001
0000
0000
1100
0000
0000
1001
0000
0011
0000
0000
0000
0000
0000
0000
0000
,
0001
1000
0100
0001
0100
1000
0010
0001
,
0010
1000
0100
1000
0001
0100
0010
0100
,
0110
0100
0101
0001
0010
0100
1100
0000
,
0000
0011
0101
0000
1100
1010
0000
0000
,
1000
0001
0010
1000
0010
0001
0100
1000
,
0100
0001
0010
0001
1000
0010
0100
0010
,
0110
0010
1010
1000
0100
0010
0011
0000
,
0000
1001
1010
0000
0011
1001
0000
1000
,
0001
0000
1000
0001
0100
0000
0001
0000
1000
0000
0010
1000
0100
0000
0001
0000
,
0100
0000
1000
0010
0001
0000
0010
0000
0100
0000
0001
1000
0010
0000
0100
0000
,
0101
0001
1001
1000
0100
0010
0110
0000
,
0000
1100
0101
0001
0011
1010
0000
0000
,
1000
0000
0001
1000
0010
0000
1000
0000
0001
0000
0100
0001
0010
0000
1000
0000
,
0010
0000
0001
0100
1000
0000
0100
0000
0001
0000
0010
0100
1000
0000
0010
0000
,
1010
1000
1001
0001
0010
0100
0110
0000
,
1001
0000
0000
1000
0000
0000
0000
0010
0000
0000
0100
0000
0110
0000
0000
0000
,
0010
0000
1000
0100
1000
0000
0010
0000
0100
0000
0001
0100
0010
0000
1000
0000
,
0010
0000
0100
0001
0100
0000
0001
0000
0010
0000
0100
1000
0100
0000
0020
0000
,
0000
0000
0031
0000
0001
0000
0100
0000
0010
0000
1000
0001
0100
0000
0020
0000
,
0000
0000
1030
0000
0010
0000
1000
0000
0001
0000
1000
0001
0100
0000
0001
0000
,
0100
0000
0001
0010
0001
0000
0100
0000
0010
0000
1000
0010
0100
0000
0001
0000
,
0100
0000
0010
1000
0010
0000
1000
0000
0100
0000
0010
0001
0010
0000
0200
0000
,
0000
1300
1000
0001
0010
0100
1000
0001
,
0101
1000
0100
0010
1100
0001
0100
0010
,
1001
0100
1001
1000
1001
0010
1001
0002
,
0000
0103
0010
1000
0100
0010
0001
0000
,
0000
0000
0000
0000
;

//---------------dance-double - ----------------
#NOTES:
     dance-double:
     :
     Easy:
     5:
     0.233471,0.254419,0.030079,0.220580,0.000000,163.000000,160.000000,3.000000,22.000000,0.000000,0.000000,0.233471,0.254419,0.030079,0.220580,0.000000,163.000000,160.000000,3.000000,22.000000,0.000000,0.000000:
00000000
00000000
00000000
00000000
,
00000000
00000000
00000000
00000000
,
00002000
00003000
00020000
00030000
,
00000020
00000030
00002000
00003000
,
00000001
00000100
00000010
00000100
,
00000001
00001000
00000100
00010000
,
00001000
01000000
00100000
00000000
,
10000000
10000000
00010000
00000000
,
00010000
00010000
10000000
01000000
,
00100000
00100000
00001000
00010000
,
00000100
00000100
00001000
00000010
,
00000100
00000001
00001000
00000010
,
00000100
00000001
00000100
00000010
,
00010000
00010000
00001000
00100000
,
00010000
00010000
01000000
10000000
,
01000000
00010000
00100000
00001000
,
00011000
00000000
00000000
00000000
,
00000100
00001000
00000010
00000100
,
00000020
00000030
00000200
00000300
,
00000001
00000010
00000100
00001000
,
00000010
00010000
00001000
01000000
,
00100000
00010000
01000000
00100000
,
02000000
03000000
00200000
00300000
,
10000000
01000000
00100000
00010000
,
00110000
00000000
00000000
00000000
,
00100000
00001000
00010000
00010000
,
00001000
00010000
00000100
00000000
,
00002000
00003000
00000020
00000030
,
00000100
00000001
00000010
00000000
,
00000001
00001000
00000100
00000100
,
00010000
00001000
00100000
00100000
,
00020000
00030000
20000000
30000000
,
00100000
01000000
00100000
10000000
,
00010000
01000000
00010000
00010000
,
00100000
00001000
00010000
00010000
,
00000200
00000300
00002000
00003000
,
00000010
00000100
00000001
00000010
,
00000100
00000010
00000001
00000001
,
00000100
00000010
00010000
00010000
,
00002000
00003000
00200000
00300000
,
00110000
00000000
00000000
00000000
,
10000000
01000000
00010000
00001000
,
00000010
00000001
00000100
00000010
,
00000200
00000300
00000002
00000003
,
00002000
00003000
00000002
00000003
,
00000001
00000100
00001000
00010000
,
00100000
10000000
00010000
00100000
,
00020000
00030000
02000000
03000000
,
00100000
01000000
00100000
00000000
,
10000000
00010000
00100000
00010000
,
00100000
00001000
00010000
00000100
,
00000000
00000000
00000000
00000000
;

//---------------dance-double - ----------------
#NOTES:
     dance-double:
     :
     Medium:
     9:
     0.370976,0.432513,0.220580,0.190501,0.000000,259.000000,237.000000,22.000000,19.000000,0.000000,0.000000,0.370976,0.432513,0.220580,0.190501,0.000000,259.000000,237.000000,22.000000,19.000000,0.000000,0.000000:
00000000
00000000
00000000
00000000
,
00000000
00000000
00000000
00000000
,
10000000
00000000
00100000
00000000
10000000
00000000
00100000
10000000
,
01000000
00000000
10000000
00000000
00100000
00000000
01000000
00100000
,
10000000
00010000
00100000
00110000
,
00011000
00000000
00000100
00000000
00001000
00000000
00000010
00001000
,
00000100
00000000
00001000
00000000
00000010
00000000
00000100
00000010
,
00000001
00000000
00000010
00000000
00000100
00000000
00001000
00010000
,
00100000
00000000
10000000
00000000
01000000
10000000
00010000
00000000
,
10010000
00000000
01010000
00000000
11000000
00000000
00100000
10000000
,
01000000
00100000
00010000
00000000
01000000
00001000
00010000
00000000
,
00011000
00000000
00010000
00001000
00010000
00000000
00000100
00001000
,
00000000
00000100
00000010
00000001
00000010
00000001
00000100
00000000
,
00001001
00000000
00000010
00001000
00000100
00000000
00000010
00000001
,
00000100
00000001
00001000
00000000
00000100
00010000
00001000
00100000
,
00020000
00000000
02030000
00000000
13000000
00000000
01000000
00010000
,
00000000
00100000
01000000
10000000
00100000
01000000
01100000
00000000
,
20000000
30100000
01000000
00010000
,
00100000
00000000
00001000
00010000
00000100
00001000
00000010
00000100
,
00000001
00001000
00000110
00001000
,
00000001
00000110
00000000
00000000
,
00000200
00000000
00010300
00000000
00001000
00000000
00100000
00010000
,
00000000
10000000
00100000
01000000
00010000
00100000
01000000
10000000
,
11000000
00000000
01010000
00000000
01000000
00010000
00100000
00001000
,
00022000
00000000
00033000
00000000
,
00020000
00000000
00030100
00000020
00000000
00000000
00000031
00002000
,
00000000
00000000
00003100
00000010
00000000
00000001
00000100
00001000
,
00010000
01000000
10000000
00010000
,
10010000
11000000
00110000
00000000
,
20000000
00000000
30100000
02000000
00000000
00000000
03010000
20000000
,
00000000
00000000
30100000
01000000
00000000
00010000
00100000
00001000
,
00010000
00000000
00000100
00000000
00001000
00000100
00000010
00000000
,
00000100
00000000
00001000
00000000
00000010
00000100
00000000
00000000
,
00000002
00000000
00001003
00000200
00000000
00000000
00010300
00002000
,
00000000
00000000
00103000
00010000
00000000
01000000
00100000
10000000
,
00010000
00000000
10000000
00000000
01000000
00100000
00010000
00000000
,
00110000
11000000
10010000
00000000
,
00200000
00000000
01300000
00020000
00000000
00000000
00130000
00002000
,
00000000
00000000
00013000
00000100
00000000
00001000
00000100
00000001
,
00000100
00000000
00000010
00000000
00000001
00000100
00000010
00000000
,
00020000
00000000
00000000
00031000
,
01000000
00000000
00010000
00000000
10000000
00000000
00100000
10000000
,
00100000
00000000
00010000
00000000
00100000
00000000
10000000
01000000
,
10000000
00000000
00010000
00000000
00100000
00000000
00001000
00010000
,
00001000
00010000
00000100
00001000
,
00000001
00000000
00000100
00000000
00000010
00000000
00001000
00000100
,
00000010
00000000
00001000
00000000
00000001
00000000
00000100
00001000
,
00010000
00000000
00100000
00000000
10000000
00000000
01000000
00100000
,
00010000
10000000
00100000
01000000
,
01100000
00000000
10010000
00000000
00110000
00000000
00100000
00001000
,
00000000
00010000
00001000
00010000
00000100
00001000
00000010
00000000
,
00000000
00000000
00000000
00000000
;

//---------------dance-double - ----------------
#NOTES:
     dance-double:
     :
     Hard:
     13:
     0.587259,0.585164,0.471239,0.040105,0.165435,410.000000,363.000000,47.000000,4.000000,0.000000,0.000000,0.587259,0.585164,0.471239,0.040105,0.165435,410.000000,363.000000,47.000000,4.000000,0.000000,0.000000:
00000000
00000000
00000000
00000000
,
00000000
00000000
00000000
00000000
,
00000010
00001000
00000100
00000000
00000010
00000000
00000001
00000100
,
00001000
00010000
00100000
00000000
01000000
00000000
00010000
10000000
,
01000000
00000000
00100000
00000000
01000000
00000000
00000000
00000000
10000000
00000000
00000000
00100000
01000000
00000000
00010000
00000000
,
00100000
00010000
00100000
01000000
00100000
00001000
00010000
00000100
,
00001000
00000000
00000100
00000000
00001000
00000000
00000010
00000000
00000100
00000000
00000001
00000010
00000100
00000000
00001000
00000000
,
00000000
00000010
00000100
00001000
01000000
00010000
00100000
01000000
,
00000000
00000000
10000000
00000000
00010000
00000000
00100000
00000000
01000000
00000000
00000000
00100000
10000000
00000000
00100000
00000000
,
00010000
01000000
00100000
10000000
10100000
00000000
01000000
00001000
,
00010000
00001000
00011000
00000000
00010000
00001000
00010000
00000100
,
00001100
00000000
00000101
00000000
00000011
00000000
00001010
00001000
,
00000000
00000000
00000100
00000000
00000010
00000000
00000001
00000000
00000010
00000000
00000001
00001000
00000100
00000000
00000010
00000000
,
00000001
00000100
00000110
00000100
00000010
00001000
00001010
00000010
,
00010000
00001000
00100000
00010000
01000000
00100000
10000000
00010000
,
01100000
00000000
10010000
00000000
00011000
00000000
10010000
01100000
,
00000000
00000000
00100000
00000000
01000000
00000000
00010000
00000000
00100000
00000000
00001000
00010000
00001000
00000000
00011000
00000000
,
00010000
00000000
00000000
00000100
00001000
00000000
00000100
00000000
00000010
00000000
00000000
00000001
00001000
00000000
00000100
00000000
,
00001000
00000000
00000000
00000010
00000100
00000000
00000001
00000000
00001000
00000000
00000010
00000000
00000100
00000000
00000010
00000000
,
00001000
00000100
00001100
00001000
00001001
00000001
00000100
00010000
,
01000000
00000000
00100000
00000000
01100000
00000000
00000000
00000000
10000000
00000000
00000000
00010000
00100000
00000000
01000000
00000000
,
10000000
00000000
00000000
01000000
00100000
00000000
01000000
00000000
10000000
00000000
00000000
00010000
00100000
00000000
00010000
00000000
,
00100000
00000000
00000000
00001000
00010000
00000000
00000100
00000000
00001000
00000000
00000001
00000000
00000100
00000000
00001000
00000000
,
00000110
00000000
00001001
00000000
00000001
00000010
00001000
00000000
,
00000110
00000000
00000000
00000010
00000000
00000000
00000001
00000000
00000101
00000000
00000000
00000000
00000000
00000000
00000000
00000000
,
00000001
00000100
00001000
00000100
00010000
01000000
00100000
10000000
,
01000000
00100000
00010000
10000000
01000000
00100000
00010000
10000000
,
10010000
00010000
00110000
00100000
01100000
01000000
11000000
00000000
,
00000000
20000000
31000000
00000000
00200000
00310000
00000000
00000000
,
10000000
01000000
00010000
01000000
00001000
00000100
00000010
00000001
,
00000100
00000010
00001000
00000001
00000100
00000010
00001000
00000100
,
00001100
00001000
00001001
00000001
00000010
00000100
00000110
00000000
,
00000000
00002000
00003001
00000000
00000200
00000310
00000000
00001000
,
00000100
00000000
00010000
00001000
00010000
00000000
00001000
00000000
01000000
00000000
00010000
00100000
01000000
00000000
10000000
00000000
,
00100000
00000000
10000000
00100000
01000000
00000000
00010000
00000000
10000000
00000000
00010000
10000000
00010000
00000000
01000000
00000000
,
01100000
10010000
00110000
00011000
,
00000000
00001000
00000100
00000001
00000010
00000100
00000000
00000000
,
00001000
00000000
00000100
00000010
00000001
00000000
00001000
00000000
00000010
00000000
00000100
00000001
00001000
00000000
00000100
00000000
,
00000010
00000000
00000100
00010000
00001000
00000000
00010000
00000000
00001000
00000000
00010000
00001000
00100000
00000000
00010000
00000000
,
00110000
00100000
01100000
01000000
11000000
10000000
10010000
00000000
,
01100000
00000000
00000000
00110000
00000000
00000000
00000000
00011000
00000000
00000000
00110000
00000000
01010000
00000000
00000000
00000000
,
00100000
00000000
01000000
00010000
01000000
00000000
00010000
00000000
00100000
00000000
00001000
00010000
00001000
00000000
00010000
00000000
,
00000100
00000000
00001000
00000100
00001000
00000000
00000100
00000000
00000010
00000000
00000001
00000010
00000001
00000000
00000011
00000000
,
00000000
00000000
00000001
00000000
00000100
00000000
00001000
00000000
00000100
00000000
00000010
00000100
00000010
00000000
00000110
00000000
,
00000000
00000000
00000010
00000000
00001000
00000000
00000100
00000000
00010000
00000000
00001000
00010000
00001000
00000000
00100000
00000000
,
00010000
00000000
10000000
00100000
10000000
00000000
01000000
00000000
00100000
00000000
01000000
10000000
01000000
00000000
00010000
00000000
,
01000000
00000000
00100000
00010000
00100000
00000000
00010000
00000000
01000000
00000000
00010000
10000000
00010000
00000000
10010000
00000000
,
00000000
00010000
00100000
00001000
00010000
00000100
00001000
00000010
,
00000110
00000001
00001000
00000100
00001001
00000100
00000010
00001000
,
00000001
00000100
00001000
00010000
00100000
10000000
00010000
10010000
,
00000000
01000000
00001000
00010000
00000100
00010000
00001000
00000000
,
00000000
00000000
00000000
00000000
;

//---------------dance-single - ----------------
#NOTES:
     dance-single:
     :
     Challenge:
     15:
     0.716169,1.048257,0.200527,0.200527,0.651714,500.000000,480.000000,20.000000,20.000000,0.000000,0.000000,0.716169,1.048257,0.200527,0.200527,0.651714,500.000000,480.000000,20.000000,20.000000,0.000000,0.000000:
// measure 0
0000
0000
0000
0000
,  // measure 1
0000
0000
0000
0000
,  // measure 2
1000
0200
0010
0000
1300
0100
0010
1000
,  // measure 3
0001
0020
1000
0000
0130
0010
0001
0010
,  // measure 4
1000
0000
0002
0000
0100
0000
0000
0000
1003
0000
0000
0001
0100
0000
1000
0000
,  // measure 5
0100
0000
0001
0100
0001
0000
1000
0000
0001
0000
1000
0100
1000
0000
0100
0000
,  // measure 6
0001
0000
1000
0100
1000
0000
0001
0000
0100
0000
1000
0010
1000
0000
0200
0000
,  // measure 7
0000
0000
1300
0010
0100
0000
0010
0000
0100
0000
0100
0000
0010
0000
0020
0000
,  // measure 8
0000
0000
0031
0100
0010
0000
0100
0000
0100
0000
0010
0100
0010
0000
0100
0000
,  // measure 9
1001
0000
1000
0100
1000
0000
0001
0100
0001
0000
0100
0000
0010
0001
0100
0010
,  // measure 10
1000
0000
0100
0000
0010
0000
0001
0100
0001
0000
0001
0000
0100
0000
0100
0000
,  // measure 11
1100
0000
0000
0100
1000
0000
0000
1000
0001
0000
0100
0001
0100
0000
0020
0000
,  // measure 12
0000
0000
1030
0010
1000
0000
0100
0000
0010
0000
0001
0000
1001
0000
0000
0000
,  // measure 13
1000
0000
0100
1000
0100
0000
0001
0100
0001
0000
1000
0100
1000
0000
0001
0010
,  // measure 14
0001
0000
1000
0010
1000
0000
0001
0100
0001
0000
0100
0000
1000
0000
0100
0000
,  // measure 15
0110
0000
1001
0000
0110
0000
0010
0001
,  // measure 16
0000
0000
0101
0000
0100
0000
1100
0000
0100
0000
0100
0010
0100
0000
0010
0000
,  // measure 17
1000
0000
0001
1000
0001
0000
0010
0000
0100
0000
0010
0100
0010
0000
1000
0000
,  // measure 18
0000
1000
0001
0100
0010
0010
0100
0100
,  // measure 19
1000
0000
0001
0000
0200
0000
0000
0000
0310
0000
0100
0010
0100
0000
0010
0000
,  // measure 20
0001
0000
1000
0000
0002
0000
0000
0000
0103
0000
0000
0100
0010
0000
1000
0000
,  // measure 21
0100
0000
1000
0100
1000
0000
0001
0000
0100
0000
0001
0100
0001
0000
1000
0000
,  // measure 22
0000
0000
0001
1000
0001
0000
0100
0000
0010
0000
1000
0000
0001
0000
0100
0000
,  // measure 23
2000
0000
3002
0000
0103
1000
0010
0001
,  // measure 24
0100
0000
0001
0100
0000
1000
0100
0000
1001
0000
0000
0000
0000
0000
0000
0000
,  // measure 25
1001
0000
0001
0100
0001
0000
0100
0000
0010
0000
1000
0100
1000
0000
0100
0000
,  // measure 26
1000
0000
0001
0010
0001
0000
0010
0000
1000
0000
0010
1000
0010
0000
0100
0000
,  // measure 27
0001
0000
0001
0000
0100
0000
0100
0000
1000
0100
0010
0001
0100
0000
0010
0000
,  // measure 28
1000
1001
0001
0000
0010
0110
0100
0000
,  // measure 29
1001
0000
0001
0100
0001
0000
1000
0000
0100
0000
0001
0100
0001
0000
1000
0000
,  // measure 30
0100
0000
0001
1000
0001
0000
0100
0000
0010
0000
1000
0001
1000
0000
0100
0000
,  // measure 31
0020
0000
0032
0000
0203
0010
0310
0100
,  // measure 32
1000
0000
0100
0010
0001
1000
0100
0000
0010
0000
0001
0010
0100
1000
0100
0000
,  // measure 33
0110
0000
0001
0100
0001
0000
0100
0000
0010
0000
1000
0100
1000
0000
0100
0000
,  // measure 34
0010
0000
0001
0100
0001
0000
1000
0000
0100
0000
1000
0100
1000
0000
0001
0000
,  // measure 35
1000
0000
0010
1000
0010
0000
0100
0000
0001
0000
0010
0001
0010
0000
0100
0000
,  // measure 36
1000
0000
0000
0000
0010
0000
0001
0000
0100
0000
0000
0000
0010
0000
0000
0000
0100
0010
0000
0000
0100
0010
0000
0000
0100
0000
0010
0000
1000
0000
0001
0000
,  // measure 37
0100
0000
0010
0001
0010
0000
0001
0000
0100
0000
1000
0100
1000
0000
0100
0000
,  // measure 38
0001
0000
1000
0001
1000
0000
0100
0000
0010
0000
0100
0010
0100
0000
0010
0000
,  // measure 39
2000
0000
3020
0000
0230
1000
1300
0000
,  // measure 40
0110
0000
0000
1010
0000
0000
0000
1100
0000
0000
0101
0000
1100
0000
0000
0000
,  // measure 41
1000
0000
0000
0000
0100
1000
0100
0000
1000
0000
0000
0000
0100
0000
0000
0000
0010
0000
0000
0000
0001
0010
0001
0000
0010
0000
0000
0000
1000
0000
0000
0000
,  // measure 42
0001
0000
0000
0000
0100
0001
0100
0000
0010
0000
0000
0000
1000
0000
0000
0000
0100
0000
0000
0000
0010
0001
0010
0000
0001
0000
0000
0000
0200
0000
0000
0000
,  // measure 43
0000
0000
0000
0000
0301
0100
0001
0000
0100
0000
0000
0000
0010
0000
0000
0000
1000
0000
0000
0000
0100
0000
0000
0000
0010
0000
0000
0000
0002
0000
0000
0000
,  // measure 44
0000
0000
0000
0000
1003
0001
1000
0000
0001
0000
0000
0000
0010
0000
0000
0000
0100
0000
0000
0000
0000
0000
1000
0000
0100
0000
0000
0000
0001
0000
0000
0000
,  // measure 45
0100
0000
1000
0000
0100
1000
0100
0000
1000
0000
0100
0000
0010
0000
0001
0000
0100
0000
0010
0000
0100
0010
0100
0000
0010
0000
0001
0000
0010
0000
0100
0000
,  // measure 46
1000
0000
0001
0000
1000
0001
1000
0000
0001
0000
0100
0000
0010
0000
1000
0000
0100
0000
0010
0000
0001
0010
0001
0000
0010
0000
0100
0000
1000
0000
0100
0000
,  // measure 47
0001
0000
0100
0000
0010
0100
0010
0000
0100
0000
0001
0000
0010
0000
0100
0000
1000
0000
0100
0000
1000
0100
1000
0000
0100
0000
0010
0000
0001
0000
0100
0000
,  // measure 48
0010
0100
0010
0000
0100
0010
0100
0000
0010
0000
0001
0000
1000
0000
0100
0000
0010
0001
0010
0000
0001
0010
0001
0000
0010
0000
0100
0000
1000
0000
0100
0000
,  // measure 49
0010
0100
0010
0000
0100
0010
0100
0000
0010
0000
0001
0000
0100
0000
0010
0000
1000
0010
1000
0000
1000
0010
1000
0000
0010
0000
0000
0000
0200
0000
0000
0000
,  // measure 50
0000
0000
0301
0010
0100
0000
1000
0000
0010
0000
0110
0000
0020
0000
0000
0000
,  // measure 51
0030
0000
0000
0000
;
