#TITLE:Flow (Jammin' Ragga Mix);
#SUBTITLE:;
#ARTIST:Scotty D. revisits U1;
#TITLETRANSLIT:;
#SUBTITLETRANSLIT:;
#ARTISTTRANSLIT:;
#GENRE:;
#CREDIT:;
#BANNER:Flow (Jammin' Ragga Mix).png;
#BACKGROUND:Flow (Jammin' Ragga Mix)-bg.png;
#LYRICSPATH:;
#CDTITLE:;
#MUSIC:Flow (Jammin' Ragga Mix).ogg;
#OFFSET:0.000000;
#SAMPLESTART:71.989998;
#SAMPLELENGTH:15.000000;
#SELECTABLE:YES;
#DISPLAYBPM:70.000000:140.000000;
#BPMS:0.000000=70.039001
,4.000000=69.971001
,12.000000=140.009995
,44.000000=139.987000
,68.000000=70.039001
,70.000000=140.005005
,130.000000=70.039001
,132.000000=140.000000
;
#STOPS:44.000000=1.713000
;
#BGCHANGES:;
#KEYSOUNDS:;
#ATTACKS:;

//---------------dance-single - ----------------
#NOTES:
     dance-single:
     :
     Beginner:
     4:
     0.118047,0.150926,0.009721,0.000000,0.000000,85.000000,84.000000,1.000000,0.000000,0.000000,0.000000,0.118047,0.150926,0.009721,0.000000,0.000000,85.000000,84.000000,1.000000,0.000000,0.000000,0.000000:
0000
0000
0000
0000
,
0000
0000
0000
0000
,
0000
0000
0000
0000
,
1000
0000
1000
0000
,
1000
0000
0000
0000
,
0001
0000
0001
0000
,
0001
0000
0000
0000
,
1001
0000
0000
0100
,
0000
0000
0000
0100
,
0000
0010
0000
0001
,
0000
1000
0000
0001
,
0001
0000
0000
0000
,
1000
0000
0000
0000
,
0010
0000
0000
0000
,
0000
0100
0000
0100
,
0000
0100
0000
0001
,
0000
1000
0000
1000
,
1000
0000
0000
0001
,
0000
0001
0000
0010
,
0000
0010
0010
0000
,
0100
0000
1000
0000
,
0001
0000
1000
0000
,
0000
0000
0100
0100
,
0000
0000
0010
0000
,
0000
0000
1000
1000
,
0000
0000
0001
0000
,
0000
0000
0010
0010
,
0000
0000
0100
0000
,
0100
0000
0100
0000
,
0100
0000
0000
1000
,
0000
0000
0000
0001
,
0000
1000
0000
0001
,
0000
0100
0100
0000
,
0000
1000
0000
0001
,
0000
1000
0000
0001
,
0001
0000
0010
0000
,
0100
0000
0010
0000
,
0100
0000
0000
0000
,
0001
0001
0000
0000
,
0100
0000
0000
0000
,
0010
0010
0000
0000
,
1000
0000
0000
0000
,
0001
0001
0000
0000
,
0010
0000
0000
0000
,
0100
0100
0100
0000
,
1000
0000
0001
0000
,
1000
1000
0000
0010
,
0000
0100
0000
0001
,
0001
0001
0000
1000
,
0000
0000
0000
0000
,
0010
0000
0000
0000
,
0000
0100
0000
0100
,
0000
0000
0000
0000
;

//---------------dance-single - ----------------
#NOTES:
     dance-single:
     :
     Easy:
     5:
     0.186097,0.251543,0.077772,0.262480,0.000000,134.000000,126.000000,8.000000,27.000000,0.000000,0.000000,0.186097,0.251543,0.077772,0.262480,0.000000,134.000000,126.000000,8.000000,27.000000,0.000000,0.000000:
0000
0000
0000
0000
,
0000
0000
0000
0000
,
0000
0000
0000
0000
,
1000
0000
1001
0000
,
0001
1000
2002
3003
,
1000
0000
0001
0000
,
0100
0020
0000
0030
,
0210
0000
0001
0000
,
0000
0000
1300
0000
,
0001
0010
0100
0000
,
1000
0010
0100
0000
,
0110
0000
1000
0000
,
0001
0001
1000
0000
,
0100
0000
0010
0100
,
0010
0001
0000
1000
,
0000
0010
0010
1000
,
0000
0001
0000
0100
,
0101
1100
0100
1000
,
0100
0000
0010
0001
,
0010
0000
0001
0001
,
0100
0100
0010
0010
,
1000
0001
2000
3000
,
0002
0003
0020
0030
,
0200
0300
1000
0000
,
0100
0000
1000
1000
,
0100
0000
2000
3000
,
0020
0030
0200
0300
,
0002
0003
0010
0000
,
0001
0000
0010
0010
,
0001
0000
2001
0000
,
0100
0000
0000
0000
,
3010
0000
1000
0001
,
0100
0000
0000
0000
0220
0000
0000
0330
,
1000
0000
0001
0000
,
0010
0010
0100
0000
,
1000
1000
0100
0100
,
0010
0010
0001
1000
,
0002
0003
0200
0300
,
1000
1000
0100
0000
,
0002
0003
2000
3000
,
0100
0100
0001
0000
,
0200
0300
0020
0030
,
0001
0001
1000
1000
,
0002
0003
0200
0300
,
0010
0010
1000
1000
,
0001
0000
1000
0000
,
0001
1000
0001
0000
,
0100
0100
0020
0030
,
1000
1000
0002
0003
,
2000
0000
0000
3000
,
0200
0000
0000
0300
,
0001
0001
0000
0001
,
0000
0000
0000
0000
;

//---------------dance-single - ----------------
#NOTES:
     dance-single:
     :
     Medium:
     8:
     0.334697,0.377315,0.184708,0.068050,0.048607,241.000000,222.000000,19.000000,7.000000,0.000000,0.000000,0.334697,0.377315,0.184708,0.068050,0.048607,241.000000,222.000000,19.000000,7.000000,0.000000,0.000000:
0000
0000
0000
0000
,
0000
0000
0000
0000
,
0000
0000
0000
0000
0000
0000
0010
0001
0001
1000
0100
0100
,
1000
0000
1000
0000
0001
0000
0100
0010
,
0000
0100
0001
0000
1000
0000
1000
0000
,
0100
0000
0010
0010
,
0001
1001
0000
0110
,
0002
0000
1000
0000
,
0000
0100
1000
0103
,
1000
0100
0001
0100
,
1000
0001
1000
0000
0010
0100
0010
0000
,
0110
0100
0010
0100
,
0000
0001
1000
0001
,
0000
1000
0010
0001
,
0010
1000
0100
0000
1000
0000
0100
1000
,
0000
0001
0100
0000
0101
0000
1000
0000
,
0010
1000
0100
0000
0010
0000
0001
0000
,
1000
1000
0000
0001
0001
0000
1000
0000
0000
1000
0000
0000
,
0100
0000
0010
0001
0000
0010
0100
0000
,
1000
0001
0100
0001
1000
0000
0101
0000
,
0001
1100
0010
1001
,
0110
1001
0110
0001
,
1000
0001
1000
0000
0100
0010
0100
0000
,
1000
0000
0010
1000
,
0001
1000
0001
0000
0010
0000
0100
1000
,
0000
1000
0100
0000
0010
0000
0001
0000
,
1000
0001
1000
0000
0010
0100
0010
0000
,
0100
0000
0001
0010
,
0100
1000
0100
0000
0010
0000
0001
0100
,
0000
0100
0001
0000
2000
0000
0000
0000
,
0001
0000
0000
0001
,
0100
3001
0100
1000
,
0100
0000
0000
0001
0000
0000
0010
0000
0000
0000
0000
0000
0001
0000
1000
0000
0001
0000
1000
0000
0001
0000
1000
0000
,
0001
1000
0001
0000
1000
0000
0100
1000
,
0000
0001
0100
0000
0001
1000
0100
1000
,
0001
0011
1000
1100
,
0001
0101
1001
0110
,
1001
0000
1000
0000
0001
1000
0001
0000
,
0010
0100
0010
0000
0001
0000
0000
0000
,
0100
0000
0001
0000
1000
0001
1000
0000
,
0100
0000
0010
0001
0000
0001
0010
0000
,
0100
0000
1000
0000
0001
1000
0001
0000
,
0100
0010
0100
0000
0010
0000
0000
0000
,
1000
0000
0100
0000
0010
0001
0010
0000
,
0100
0000
1000
0010
0000
0010
1000
0000
,
0102
0203
0301
0020
,
0031
2000
3100
1000
,
0001
0000
0001
0000
0100
0000
0010
1000
,
0000
0001
0100
0000
0001
0000
1000
0000
,
1001
0000
0000
0000
0010
0000
0001
1000
,
0000
0100
0020
0000
0000
0000
0030
0000
,
0001
1000
0000
1001
,
0000
0000
0000
0000
;

//---------------dance-single - ----------------
#NOTES:
     dance-single:
     :
     Hard:
     13:
     0.513850,0.628858,0.593010,0.252758,0.087493,370.000000,309.000000,61.000000,26.000000,0.000000,0.000000,0.513850,0.628858,0.593010,0.252758,0.087493,370.000000,309.000000,61.000000,26.000000,0.000000,0.000000:
0000
0000
0000
0000
,
0000
0000
0000
0000
,
0000
0000
0000
0000
0000
0000
1000
0010
1000
0001
0100
0001
,
1000
1000
1000
0001
0010
0010
0010
0001
,
0100
0100
0001
0011
0000
1000
1100
0000
,
0001
0010
0100
1000
0001
0010
0100
1000
,
0001
0010
0100
1000
0001
0010
0100
1000
,
0001
0001
0002
0100
0000
0100
0203
0010
,
0000
0010
0320
1000
0000
1000
1030
0000
,
0100
0001
0100
1000
0010
0000
0001
0010
,
0000
1000
0010
0000
0200
0000
0000
0300
,
2002
3003
1100
0000
0001
0000
0101
0000
,
0100
1000
0100
0001
0010
0000
1000
0010
,
0000
0001
0010
0000
0200
0000
0300
0000
,
1000
1000
2000
0010
0000
0010
3020
0100
,
0000
0100
0230
0001
0000
0001
0301
0000
,
0000
0000
0000
0000
1001
0000
0000
0000
0000
1000
0010
1000
0001
0100
0001
1000
,
1010
0000
1100
0000
0000
0000
0101
0000
0011
0000
0000
0000
0010
0000
0000
1000
0000
0000
0010
0000
0000
0001
0000
0000
,
0100
0000
1000
0100
0000
0001
0100
0000
,
0020
0000
0030
0000
1010
1000
1001
0001
,
0011
0000
1100
1000
0001
0100
0101
0000
,
1001
0000
0110
0000
1001
0100
0100
1000
,
0001
0010
0010
0100
1000
1000
0001
0101
,
0000
0101
0120
0000
1030
0001
0011
0010
,
0001
0000
1001
0010
0000
0100
1001
0000
,
0200
0000
0300
0000
0001
0010
0010
0001
,
1000
0100
0100
0010
0001
0001
1000
1010
,
0000
1010
0120
0000
1030
0010
0100
0001
,
1000
0010
0100
0001
1000
0010
0100
0001
,
1000
0010
0100
0001
0000
0000
0011
0000
,
0000
1010
0000
1100
,
0001
0101
0010
0110
,
0000
0000
0000
0001
0000
0000
0010
0000
0000
0001
0000
0000
1000
0000
0000
0100
0000
0000
1000
0000
0000
0001
0000
0000
0100
0000
0000
0000
0001
0000
0000
0000
0100
0000
0000
0000
0010
0000
0000
0000
1000
0000
0000
0000
0010
0000
0000
0000
,
1000
0100
0001
0100
0020
0000
0031
0200
,
0000
0310
2000
0000
3001
0000
0000
0000
,
1010
0100
0101
0010
1010
0100
0101
1000
,
1100
0001
0101
0010
0110
1000
1001
0001
,
1000
1000
0010
0100
0010
0010
0100
0001
,
1000
1000
0001
0011
0000
0011
0210
0000
,
1300
1000
0100
0010
0100
0100
0010
0001
,
1000
1000
0001
0101
0000
0101
0210
0000
,
0310
0010
1000
0001
1000
1000
0100
0010
,
0001
0001
1000
0010
1000
0001
0102
0000
,
0013
0010
0001
1000
0001
0001
0100
0010
,
1000
1000
0001
0011
0000
0011
1100
0000
,
1010
0100
1100
0010
0011
0100
0101
0010
,
0110
1000
1001
0100
1100
0001
0101
0000
,
0011
0100
1000
0100
0020
0000
0031
0200
,
0000
0310
2000
0000
3001
0000
1001
0000
,
0000
0000
0000
0000
0200
0000
1300
0020
,
0000
0130
0002
0000
0003
0000
0000
0000
,
1000
1001
0000
0001
,
0000
0000
0000
0000
;

//---------------dance-double - ----------------
#NOTES:
     dance-double:
     :
     Easy:
     4:
     0.176375,0.226389,0.058329,0.243037,0.000000,127.000000,121.000000,6.000000,25.000000,0.000000,0.000000,0.176375,0.226389,0.058329,0.243037,0.000000,127.000000,121.000000,6.000000,25.000000,0.000000,0.000000:
00000000
00000000
00000000
00000000
,
00000000
00000000
00000000
00000000
,
00000000
00000000
00000000
00000000
,
00000001
00000000
00000100
00000000
,
00000001
00000001
00000200
00000300
,
00001000
00000000
00010000
00000000
,
00001000
00020000
00000000
00031000
,
00012000
00000000
00100000
00000000
,
00000000
00000000
00103000
00000000
,
00010000
10000000
01000000
00000000
,
10000000
00000000
01100000
00000000
,
10010000
00000000
01000000
00000000
,
00010000
00000000
00100000
00100000
,
00001000
00000000
00010000
00001000
,
00010000
00000100
00000000
00001000
,
00000000
00000010
00000010
00000100
,
00000000
00000001
00000000
00000010
,
00000002
00000003
00002000
00003000
00000100
00000000
00001000
00000000
,
00000100
00000000
00010000
00001000
,
00010000
00000000
00001000
00001000
,
00010000
00010000
00100000
00100000
,
01000000
00100000
02000000
03000000
,
00020000
00030000
20000000
30000000
,
02000000
03000000
10000000
00000000
,
00010000
00000000
01000000
00000000
,
00100000
00000000
00020000
00030000
,
00002000
00003000
00000200
00000300
,
00000002
00000003
00001000
00000000
,
00000100
00000000
00000010
00000000
,
00000001
00000000
00001002
00000000
,
00000010
00000000
00000000
00000000
,
00000103
00000000
00001000
00000100
,
00010000
00000000
00000000
00000000
00002000
00000000
00000000
00003000
,
00010000
00000000
01100000
00000000
,
10000000
10000000
00100000
00000000
,
01000000
01000000
00010000
00010000
,
00100000
00100000
00001000
00010000
,
00002000
00003000
00000200
00000300
,
00000001
00000000
00000010
00000000
,
00002000
00003000
00020000
00030000
,
01000000
00000000
10000000
00000000
,
00200000
00300000
02000000
03000000
,
00010000
00010000
10000000
10000000
,
02000000
03000000
00020000
00030000
,
00001000
00001000
00010000
00010000
,
00000100
00000000
00001001
00000000
,
00000100
00000000
00001000
00000000
,
00000010
00000010
00001000
00000000
,
00000100
00000100
00000010
00000000
,
00000002
00000000
00000000
00000003
,
00002000
00000000
00000000
00003000
,
00000100
00000100
00000000
00000100
,
00000000
00000000
00000000
00000000
;

//---------------dance-double - ----------------
#NOTES:
     dance-double:
     :
     Medium:
     7:
     0.340252,0.377315,0.213873,0.136101,0.048607,245.000000,223.000000,22.000000,14.000000,0.000000,0.000000,0.340252,0.377315,0.213873,0.136101,0.048607,245.000000,223.000000,22.000000,14.000000,0.000000,0.000000:
00000000
00000000
00000000
00000000
,
00000000
00000000
00000000
00000000
,
00000000
00000000
00000000
00000000
00000000
00000000
00001000
00000100
00010000
00001000
00100000
00010000
,
01000000
00000000
01000000
00000000
00010000
00000000
00100000
00010000
,
00000000
10000000
01000000
00000000
10000000
00010000
10000000
00000000
,
00010000
00000000
00100000
00100000
,
00001000
00011000
00000000
00012000
,
00000000
00003200
00000000
00000302
,
00000000
00002003
00000100
00003100
,
00000010
00000001
00000010
00000000
00000001
00000000
00000100
00000001
,
00000000
00001000
00000010
00000000
00000100
00000001
00001000
00000000
,
00001001
00010000
01000000
00010000
,
00000000
10000000
01000000
10000000
,
00100000
00000000
01000000
10000000
,
01000000
00010000
00100000
00000000
01000000
00000000
10000000
01000000
,
00000000
00100000
00010000
00000000
10000000
00000000
10010000
00000000
,
00100000
01000000
00100000
00000000
00010000
00000000
00011000
00000000
,
00010000
00000000
00010000
00000000
00000000
00000000
00001000
00000000
00001000
00000000
00000000
00000000
00000100
00000000
00000000
00000001
00000000
00000000
00000100
00000000
00000000
00000000
00000000
00000000
,
00000001
00000000
00000010
00000001
00000000
00001000
00000100
00000000
,
00001000
00000001
00000100
00000000
00000010
00000000
00000110
00000000
,
00000001
00001001
00001000
00001100
,
00010100
00011000
01001000
01000000
,
00100000
01000000
00010000
00000000
10000000
00000000
00010000
00000000
,
10010000
00000000
00000000
00000000
10000000
01000000
00010000
00000000
,
00001000
00010000
00001000
00000000
00010000
00000000
00001000
00000100
,
00000000
00000100
00000001
00000000
00000010
00000000
00000100
00000000
,
00001000
00000001
00001000
00000000
00000010
00000000
00000100
00000000
,
00000110
00000000
00000010
00001000
,
00000100
00010000
00000100
00000000
00001000
00000000
00000100
00010000
,
00000000
00010000
00001000
00000000
00001000
00000000
00020000
00000000
,
00000000
02030000
00000000
23000000
,
00100000
00000000
30100000
00000000
01000000
00010000
01000000
00000000
,
00010000
00000000
00000000
00100000
00000000
00000000
01000000
10000000
00010000
01000000
00010000
10000000
,
01000000
00000000
00010000
00000000
00001000
00000000
00010000
00001000
,
00000000
00001000
00000100
00000000
00000001
00000100
00000001
00000000
,
00000010
00000011
00000100
00001100
,
00010000
00011000
00010100
00011000
,
01001000
00000000
01000000
00000000
00010000
00100000
01000000
00000000
,
10000000
00010000
10010000
00000000
,
00100000
10000000
01000000
00000000
00100000
00010000
01000000
00000000
,
00100000
00000000
10000000
01000000
00000000
01000000
00010000
00000000
,
00001000
00000000
00010000
00000000
00001000
00000100
00001000
00000000
,
00000100
00000010
00000110
00000000
,
00001000
00000001
00001000
00000000
00000100
00000010
00000100
00000000
,
00001000
00000000
00000010
00000100
00000000
00000100
00000001
00000000
,
00000200
00002300
00023000
00230000
,
20300000
30020000
10030000
00100000
,
01000000
10000000
01000000
00000000
00010000
00000000
00100000
00001000
,
00000000
00001000
00010000
00000000
00001000
00000000
00000100
00000000
,
00000110
00000000
00000000
00000000
00000001
00000000
00001000
00000100
,
00000000
00000100
00020000
00000000
00000000
00000000
00030000
00000000
,
00100000
01000000
00000000
01000000
,
00000000
00000000
00000000
00000000
;

//---------------dance-double - ----------------
#NOTES:
     dance-double:
     :
     Hard:
     13:
     0.480519,0.603704,0.544403,0.281923,0.068050,346.000000,290.000000,56.000000,29.000000,0.000000,0.000000,0.480519,0.603704,0.544403,0.281923,0.068050,346.000000,290.000000,56.000000,29.000000,0.000000,0.000000:
00000000
00000000
00000000
00000000
,
00000000
00000000
00000000
00000000
,
00000000
00000000
00000000
00000000
00000000
00000000
10000000
00100000
00010000
00001000
00000100
00000001
,
00001000
00000000
00000010
00002000
00000100
00000000
00003100
00000020
,
00000001
00000000
00000031
00001001
00000000
00001001
00001000
00000000
,
00000010
00000100
00001000
00000001
00000010
00000100
00001000
00010000
,
00100000
01000000
10000000
00010000
00100000
10000000
01000000
00100000
,
10020000
00000000
01000000
02030000
00000000
00100000
03100000
00200000
,
00000000
00010000
00310000
00002000
00000000
00000010
00003010
00000000
,
00000100
00001000
00000010
00000001
00000020
00000000
00000130
00002000
,
00000000
00003100
00000001
00000000
00000101
00000000
00001100
00000000
,
00002001
00013000
01000000
10000000
,
00100000
10000000
01000000
00010000
02000000
00000000
03100000
20000000
,
00000000
30100000
00010000
00000000
01010000
00000000
00110000
00000000
,
00100000
00001000
00001000
00020000
00000000
00000100
00030100
00000200
,
00000000
00001000
00001300
00000020
00000000
00000001
00000031
00000000
,
00000010
00000000
00000000
00000000
00000110
00000000
00000000
00000000
00000000
00000100
00001000
00000100
00001000
00000000
00010000
00000000
,
00011000
00000000
00010100
00000000
00000000
00000000
00011000
00000000
00101000
00000000
00000000
00000000
01000000
00000000
00000000
10000000
00000000
00000000
00100000
00000000
00000000
00010000
00000000
00000000
,
00200000
00000000
01300000
20000000
00000000
31000000
00020000
00000000
,
10030000
00010000
11000000
00110000
,
11000000
01010000
00011000
00001100
,
00000110
00000000
00001001
00000000
00000110
00000001
00001000
00000010
,
00000100
00000001
00001000
00001000
00000001
00000010
00001000
00020000
,
00000000
00130000
10000000
01010000
,
10000000
00000000
00110000
01000000
00000000
00100000
11000000
00000000
,
20000000
00000000
30000000
00000000
00100000
10000000
00010000
01000000
,
00100000
10000000
00010000
00010000
10000000
01000000
00010000
00002000
,
00000000
00000000
00013000
00000000
00001000
00000100
00000010
00000001
,
00000010
00000100
00001000
00010000
00100000
01000000
10000000
01000000
,
00100000
00010000
00001000
00010000
00000000
00000000
00011000
00000000
,
00000000
00001010
00000000
00000011
,
00000001
00000101
00000100
00000110
,
00000000
00000000
00000000
00000010
00000000
00000000
00001000
00000000
00000000
00000010
00000000
00000000
00001000
00000000
00000000
00000000
00000000
00000000
00000001
00000000
00000000
00000000
00000000
00000000
00000010
00000000
00000000
00000000
00000100
00000000
00000000
00000000
00010000
00000000
00000000
00000000
00001000
00000000
00000000
00000000
01000000
00000000
00000000
00000000
00100000
00000000
00000000
00000000
,
01000000
10000000
01000000
00010000
00200000
00000000
01300000
20000000
,
00000000
31000000
00020000
00000000
01030000
00000000
10000000
00000000
,
00110000
00100000
10100000
00000000
11000000
01000000
01010000
00000000
,
00011000
00001000
00001100
00000100
00000110
00000100
00000101
00000001
,
00001001
00000100
00000010
00000010
00001000
00000010
00000001
00000001
,
00001000
00000010
00000100
00000100
00001000
00010000
01000000
01000000
,
10000000
00100000
01000000
01000000
10000000
01000000
00010000
00010000
,
10010000
00000000
10000000
11000000
00000000
01000000
01010000
00000000
,
00010000
00001000
00010000
00010000
00000010
00000100
00000010
00000010
,
00001000
00000001
00001000
00001000
00000100
00010000
00001000
00001000
,
01000000
00100000
01000000
01000000
00010000
10000000
00010000
00010000
,
10010000
00000000
10000000
10100000
00000000
00100000
00110000
00000000
,
00011000
00001100
00000011
00001100
,
00011000
01010000
10100000
01010000
,
00011000
00001000
00010000
00010000
00002000
00000000
00003100
00000002
,
00000000
00000103
00002000
00000000
00003100
00000000
00000110
00000000
,
00000000
00000000
00000000
00000000
00020000
00000000
01030000
20000000
,
00000000
31000000
00020000
00000000
00030000
00000000
00000000
00000000
,
00001000
00011000
00000000
00010000
,
00000000
00000000
00000000
00000000
;

//---------------dance-single - ----------------
#NOTES:
     dance-single:
     :
     Challenge:
     15:
     0.706890,0.832098,0.174987,0.048607,0.695086,509.000000,491.000000,18.000000,5.000000,0.000000,0.000000,0.706890,0.832098,0.174987,0.048607,0.695086,509.000000,491.000000,18.000000,5.000000,0.000000,0.000000:
// measure 0
0000
0000
0000
0000
,  // measure 1
0000
0000
0000
0000
,  // measure 2
0000
0000
0000
0000
0000
0000
1000
1000
0100
0100
0010
0010
,  // measure 3
0001
0010
0100
1000
0001
0100
1000
0100
,  // measure 4
0001
1000
0100
0001
0010
0100
1000
0001
,  // measure 5
0100
0001
0100
0010
1000
0100
0010
0001
1000
0010
0100
0001
1000
0100
0010
0001
,  // measure 6
0100
0010
1000
0001
0100
0010
1000
0001
,  // measure 7
0200
0000
0000
0000
0300
0000
0001
1000
0001
0000
0100
0000
0010
0000
1000
0100
,  // measure 8
0000
1000
0100
0010
0001
0100
0010
1000
0001
0000
0100
0010
0100
0000
0010
0100
,  // measure 9
0000
0000
0110
0100
0001
1000
0100
0001
,  // measure 10
1000
0100
0001
0100
1000
0100
0010
0001
1000
0010
0100
0001
1000
0001
1000
0001
,  // measure 11
1001
0000
0000
0000
1100
0000
0000
0000
0000
0000
0000
0000
0101
0000
0100
0010
,  // measure 12
0100
0000
0000
0000
1000
0000
0010
1000
0010
0000
0001
0100
0000
0000
0100
0000
,  // measure 13
1000
0100
0010
0001
0100
0010
1000
0001
0010
0100
1000
0001
0100
0010
1000
0001
,  // measure 14
0100
0010
0000
0000
0100
0010
0000
0000
0100
0000
0000
0000
0010
0000
0000
0000
1000
0000
0000
0000
0001
0000
0000
0000
0100
0000
0000
0000
1000
0000
0100
0000
,  // measure 15
0000
0100
0010
0000
0001
0000
0100
0000
1000
0010
0100
0001
1000
0000
0001
1000
,  // measure 16
0000
0000
0000
0000
1001
0000
0000
0000
0000
0000
1000
0100
0010
0001
0100
1000
,  // measure 17
0001
0000
0000
0000
0002
0000
0000
0000
0000
0000
0000
0000
0103
0000
0000
0000
0200
0000
0000
0000
1000
0000
0000
0000
1300
0000
0000
0000
0000
0000
0000
0000
0000
0000
0000
0000
1100
0000
0000
0000
0000
0000
1000
0000
0000
0100
0000
0000
,  // measure 18
0010
0001
0100
0000
0010
0000
0110
0000
0000
0000
0010
0001
0100
0010
1000
0001
,  // measure 19
0100
0000
0010
0000
1000
0000
0001
0000
0100
0001
0000
0000
1000
0100
0000
0000
,  // measure 20
0010
1000
0000
0000
0001
0010
0000
0000
0100
0001
0000
0000
1000
0100
0000
0000
,  // measure 21
0010
0100
0000
0000
0001
1000
0000
0000
1001
0000
1000
0000
0100
0000
0001
0000
,  // measure 22
0100
1000
0100
0010
0001
0100
1000
0100
,  // measure 23
0001
0000
0100
0000
1000
0000
0100
0000
0001
0000
0100
0010
1000
0001
0100
0010
,  // measure 24
1000
0001
0010
0100
1000
0100
0010
0001
0000
0000
0100
0010
1000
0001
0100
0010
,  // measure 25
0100
0010
0001
1000
0001
0010
0100
1000
,  // measure 26
0001
0100
1000
0100
0001
1000
0010
0100
,  // measure 27
0001
0000
1000
0000
0100
0000
0000
0000
0001
0100
0001
0100
0010
1000
0010
1000
,  // measure 28
0001
0010
0100
1000
0001
0010
0100
1000
0001
0100
0010
1000
0001
0100
0010
1000
,  // measure 29
0100
0000
0000
0000
0010
0000
0000
0000
0110
0000
0000
0000
0000
0000
0000
0000
1000
0001
0000
0000
1000
0001
0000
0000
1000
0000
0000
0000
0001
0000
0000
0000
,  // measure 30
0100
0000
0010
0000
1000
0000
0001
1000
0000
1000
0001
0000
0100
0000
0010
0000
,  // measure 31
1000
0100
0010
0001
1000
0010
0100
0001
0100
0000
0000
0000
1001
0000
0000
0000
,  // measure 32
1000
0000
0000
0010
0000
0000
0100
0000
0000
0001
0000
0000
1000
0000
0000
0100
0000
0000
0001
0000
0000
0100
0000
0000
1000
0000
0000
0000
1100
0000
0000
0000
0101
0000
0000
0000
0011
0000
0000
0000
1010
0000
0000
0000
0110
0000
0000
0000
,  // measure 33
1001
0000
0000
0000
1100
0000
1000
0001
0100
0010
0100
1000
0100
0001
0100
0000
,  // measure 34
0010
0000
0001
0010
0100
0010
1000
0001
0100
0010
1000
0100
0010
0001
0100
0000
,  // measure 35
0010
0001
0010
0001
1000
0100
1000
0100
0010
0001
0010
0001
1000
0100
1000
0100
,  // measure 36
0001
0100
0001
0100
0010
1000
0010
1000
0001
0100
1000
0100
0001
0100
0010
1000
,  // measure 37
0100
0001
0100
1000
0100
0001
0100
1000
,  // measure 38
0010
0001
0010
1000
0010
0001
0010
0100
,  // measure 39
1000
0100
0001
0100
1000
0100
0001
0100
,  // measure 40
1000
0010
0001
0010
1000
0010
0001
0010
,  // measure 41
1000
0001
0100
1000
0001
0100
1000
0100
,  // measure 42
0001
1000
0010
0001
1000
0010
0001
0010
,  // measure 43
1000
0100
0010
0001
1000
0100
0010
0100
,  // measure 44
1000
0001
0010
0100
1000
0001
0010
0100
,  // measure 45
0010
0001
0010
0000
0001
0100
0001
0000
1000
0100
1000
0000
0010
1000
0010
0000
,  // measure 46
0001
0010
0001
0000
0100
0001
0100
0000
1000
0100
1000
0000
0010
1000
0010
0000
,  // measure 47
0001
0010
0001
0000
0100
0001
0100
0000
1000
0100
1000
0000
0010
0001
0010
0000
,  // measure 48
0001
0000
0100
0000
0020
0000
0000
1000
0030
0000
0200
0000
0000
0001
0300
0000
,  // measure 49
1000
0100
0010
0001
1000
0010
0100
0001
,  // measure 50
1000
0010
0100
0001
,  // measure 51
0100
0010
1000
0001
0100
0000
0100
0110
;
