#VERSION:0.83;
#TITLE:Flight of the Phoenix;
#SUBTITLE:;
#ARTIST:Jena Rose;
#TITLETRANSLIT:;
#SUBTITLETRANSLIT:;
#ARTISTTRANSLIT:;
#GENRE:;
#ORIGIN:;
#CREDIT:;
#BANNER:Flight of the Phoenix.png;
#BACKGROUND:Flight of the Phoenix-bg.png;
#PREVIEWVID:;
#JACKET:Flight of the Phoenix-jacket.png;
#CDIMAGE:;
#DISCIMAGE:;
#LYRICSPATH:;
#CDTITLE:;
#MUSIC:Flight of the Phoenix.ogg;
#OFFSET:0.000000;
#SAMPLESTART:54.619999;
#SAMPLELENGTH:15.000000;
#SELECTABLE:YES;
#DISPLAYBPM:145.000000;
#BPMS:0.000=145.161,
4.000=145.003;
#STOPS:;
#DELAYS:;
#WARPS:;
#TIMESIGNATURES:0.000=4=4;
#TICKCOUNTS:0.000=4;
#COMBOS:0.000=1;
#SPEEDS:0.000=1.000=0.000=0;
#SCROLLS:0.000=1.000;
#FAKES:;
#LABELS:0.000=Song Start;
#BGCHANGES:;
#KEYSOUNDS:;
#ATTACKS:
;

//---------------dance-single - ----------------
#NOTEDATA:;
#CHARTNAME:;
#STEPSTYPE:dance-single;
#DESCRIPTION:;
#CHARTSTYLE:;
#DIFFICULTY:Beginner;
#METER:2;
#RADARVALUES:0.103011,0.171255,0.010015,0.000000,0.000000,72.000000,71.000000,1.000000,0.000000,0.000000,0.000000,0.000000,0.000000,0.000000,0.103011,0.171255,0.010015,0.000000,0.000000,72.000000,71.000000,1.000000,0.000000,0.000000,0.000000,0.000000,0.000000,0.000000;
#CREDIT:;
#DISPLAYBPM:145.000000;
#NOTES:
0000
0000
0000
0000
,
0000
0000
0000
0000
,
0000
0000
0000
0000
,
0000
0000
0000
0000
,
0000
0000
0000
0000
,
1000
0000
0000
0000
,
0000
0000
0000
0000
,
0001
0000
0000
0000
,
0000
0000
0000
0000
,
0010
0000
0000
0000
,
0000
0000
0000
0000
,
0100
0000
0000
0000
,
0000
0000
0000
0000
,
1000
0000
0000
0000
,
1000
0000
0000
0000
,
0001
0000
0000
0000
,
0001
0000
0000
0000
,
1000
0000
0000
0000
,
1000
1000
1000
0000
,
0001
0000
0000
0000
,
0001
0001
0001
0000
,
0100
0000
0000
0000
,
0000
0000
0000
0000
,
0010
0000
0000
0000
,
0000
0000
0000
0000
,
1000
0000
0000
0000
,
0000
0000
0000
0000
,
0010
0000
0000
0000
,
0000
0000
0000
0000
,
1000
0000
1000
0000
,
0001
0000
0001
0000
,
1000
0000
0001
0000
,
0100
0000
0000
0000
,
1000
0000
0100
0000
,
0001
0000
0100
0000
,
0010
0000
0000
0000
,
0000
0000
0000
0000
,
0001
0000
0100
0000
,
1000
0000
0100
0000
,
0010
0000
0000
0000
,
0100
0100
0100
0000
,
1000
0000
0001
0000
,
1000
0000
0001
0000
,
0100
0000
0100
0000
,
0001
0001
0001
0000
,
0001
0000
1000
0000
,
0001
0000
1000
0000
,
0010
0000
0010
0000
,
0100
0100
0100
0000
,
1000
0000
1000
0000
,
0001
0000
0001
0000
,
0100
0000
0100
0000
,
0010
0000
0010
0000
,
0010
0000
0000
0000
,
0100
0000
0000
0000
,
0001
0000
0000
0000
,
1000
0000
0000
0000
,
1001
0000
0000
0000
,
0000
0000
0000
0000
;

//---------------dance-single - ----------------
#NOTEDATA:;
#CHARTNAME:;
#STEPSTYPE:dance-single;
#DESCRIPTION:;
#CHARTSTYLE:;
#DIFFICULTY:Easy;
#METER:5;
#RADARVALUES:0.213175,0.256883,0.180269,0.020030,0.000000,149.000000,131.000000,18.000000,2.000000,0.000000,0.000000,0.000000,0.000000,0.000000,0.213175,0.256883,0.180269,0.020030,0.000000,149.000000,131.000000,18.000000,2.000000,0.000000,0.000000,0.000000,0.000000,0.000000;
#CREDIT:;
#DISPLAYBPM:145.000000;
#NOTES:
0000
0000
0000
0000
,
0000
0000
0000
0000
,
0000
0000
0000
0000
,
0000
0000
0000
0000
,
0000
0000
0000
0000
,
1000
0000
1000
0000
,
0001
0001
0001
0000
,
1000
0000
1000
0000
,
0010
0010
0010
0000
,
1000
0000
1000
0000
,
0100
0100
0100
0000
,
1000
0000
1000
0000
,
0001
1000
1001
0000
,
1000
0000
0001
0100
,
0010
0010
0010
0000
,
0100
0000
0010
1000
,
0001
0001
0001
0000
,
1000
0000
1001
0000
,
0001
0010
1000
0100
,
0010
0000
0110
0000
,
1000
0010
0001
0100
,
0100
0000
0000
0000
,
1100
0000
0000
0000
,
0101
0000
0000
0000
,
1000
0100
0001
0100
,
0100
0000
0000
0000
,
1001
0000
0000
0000
,
0110
0000
0000
0000
,
1000
0010
0001
0000
,
1001
0000
0100
0000
,
0110
0000
1000
0000
,
0110
0000
1001
0000
,
2002
0000
0000
3003
,
1000
1000
0100
0010
,
0001
0000
0100
0000
,
1000
0001
0001
0100
,
1000
0000
0001
0000
,
1000
0001
0010
0100
,
1000
0000
1000
0000
,
0100
0010
0100
0010
,
0110
0000
0110
0000
,
1000
0000
0001
0001
,
1000
0001
0010
0010
,
0100
0000
0100
0100
,
1000
1000
0001
0000
,
0001
0000
0010
0010
,
0001
0010
0001
0100
,
0001
0000
1000
1000
,
0100
0100
1000
0000
,
0010
0000
0010
0000
,
1000
1000
1000
1000
,
0010
0000
0010
0000
,
0100
0100
0100
0100
,
0010
0000
0000
0000
,
1001
0000
0000
0000
,
0101
0000
0000
0000
,
1100
0000
0000
0000
,
1001
0000
0000
0000
,
0000
0000
0000
0000
;

//---------------dance-single - ----------------
#NOTEDATA:;
#CHARTNAME:;
#STEPSTYPE:dance-single;
#DESCRIPTION:;
#CHARTSTYLE:;
#DIFFICULTY:Medium;
#METER:7;
#RADARVALUES:0.291863,0.399595,0.270403,0.200298,0.000000,204.000000,177.000000,27.000000,20.000000,0.000000,0.000000,0.000000,0.000000,0.000000,0.291863,0.399595,0.270403,0.200298,0.000000,204.000000,177.000000,27.000000,20.000000,0.000000,0.000000,0.000000,0.000000,0.000000;
#CREDIT:;
#DISPLAYBPM:145.000000;
#NOTES:
0000
0000
0000
0000
,
0000
0000
0000
0000
,
0000
0000
0000
0000
,
0000
0000
0000
0000
,
0000
0000
0000
0000
,
0110
0000
0001
0100
1000
0000
0100
0000
,
0020
0030
0200
0300
,
1001
0000
0001
0100
1000
0000
0100
0000
,
0010
0010
0200
0300
,
0110
0000
1000
0100
0001
0000
1000
0000
,
0020
0030
0200
0300
,
1001
0000
1000
0100
0001
0000
1000
0000
,
0010
0010
0200
0300
,
0010
0010
0011
0000
,
0100
0100
1100
0100
,
0001
0000
0101
0000
,
1000
0000
1000
0000
1000
0010
1000
0000
,
0010
0010
0110
0000
,
0110
0100
0010
0110
,
1000
0000
1001
0000
,
1001
0001
0002
1003
,
0100
0000
0002
0003
,
0020
0030
0200
0300
,
2000
0000
0000
0000
,
0000
0000
0000
3000
,
0000
0000
0002
0003
,
0200
0300
0020
0030
,
2000
0000
0000
0000
,
0000
0000
0000
3000
,
0010
0010
0110
0000
,
0100
0001
0101
0000
,
0001
0001
1001
1000
,
0220
0000
0000
0330
,
0001
0000
0001
0000
1100
0000
0100
0100
,
0100
1000
0100
0000
,
0010
0000
0001
0100
1000
0000
0100
0000
,
0020
0030
0200
0300
,
1001
0000
1001
0000
1010
0000
0100
0100
,
0100
0101
1001
0000
,
0001
0000
0001
0100
1000
0000
0100
0000
,
0010
0010
0200
0300
,
1000
0000
0100
0000
0001
0000
1000
0100
,
0001
0001
0100
1000
,
1010
0000
0010
0000
0110
0000
0100
0100
,
0100
0001
1000
0010
,
0001
0000
0100
0000
1000
0100
0001
0100
,
1000
0100
0001
0100
,
0010
0000
1000
0000
0001
0000
1000
0100
,
0001
0100
0110
0000
,
1000
0000
0001
0000
,
0010
1000
0100
0000
0010
0001
0100
0000
,
0010
0000
0100
0000
,
1000
0100
0001
0000
1000
0000
1001
0000
,
0010
0000
0000
0000
0100
0000
0100
0010
,
0000
0100
0000
0001
0100
1000
0100
0000
,
0001
0000
0000
0000
1000
0000
1000
0100
,
0000
0010
0001
0000
0100
0000
0010
0000
,
0110
0000
0000
0000
,
0000
0000
0000
0000
;

//---------------dance-single - ----------------
#NOTEDATA:;
#CHARTNAME:;
#STEPSTYPE:dance-single;
#DESCRIPTION:;
#CHARTSTYLE:;
#DIFFICULTY:Hard;
#METER:9;
#RADARVALUES:0.337646,0.428138,0.240358,0.330492,0.040060,236.000000,212.000000,24.000000,33.000000,0.000000,0.000000,0.000000,0.000000,0.000000,0.337646,0.428138,0.240358,0.330492,0.040060,236.000000,212.000000,24.000000,33.000000,0.000000,0.000000,0.000000,0.000000,0.000000;
#CREDIT:;
#DISPLAYBPM:145.000000;
#NOTES:
0000
0000
0000
0000
,
0000
0000
0000
0000
,
0000
0000
0000
0000
,
0000
0000
0000
0000
,
0000
0000
0000
0000
,
0100
0000
0000
0100
0010
0000
1000
0000
0000
0000
0010
0000
1000
0000
0100
0000
,
0001
0100
1000
0100
,
0010
0000
0000
0010
0001
0000
0100
0000
0000
0000
0001
0000
0010
0000
0100
0000
,
0001
0100
1000
0000
,
1000
0000
0000
0001
1000
0000
0100
0000
0000
0000
0010
0000
0010
0000
0100
0000
,
0001
0100
1000
0100
,
0001
0000
0000
0100
1000
0000
0100
0000
0000
0000
0010
0000
0100
0000
0010
0000
,
0100
0100
1001
1001
,
1000
0000
0101
0000
1000
0000
0010
0010
,
0100
0001
0010
0110
,
1000
0000
0010
0000
0101
0000
1000
1000
,
0000
0001
0001
0000
1000
0100
0001
0000
,
0100
0000
0011
0000
0100
0000
1000
0100
,
0010
1001
0100
0010
,
0001
0000
0100
0000
1010
0000
0100
0010
,
0000
0100
0010
0000
0001
1000
0100
0000
,
2000
0000
0002
3000
,
0020
0003
0200
0030
,
2000
0000
0000
0000
,
0000
0000
0000
3300
,
0000
0000
0002
0000
,
0020
0003
0200
0030
,
2000
0000
0000
0000
,
0000
0000
0000
3300
,
1000
0200
0301
1000
,
0010
0200
0301
0010
,
0001
0200
0310
1000
,
0100
0001
0100
0020
0000
0000
0030
0000
,
1001
0000
0000
0010
0000
0000
0100
0000
0010
0000
0000
0000
1100
0000
0000
0000
,
0022
0033
0220
0330
,
0100
0000
0000
0100
0010
0000
1000
0000
0000
0000
0010
0000
1000
0000
0100
0000
,
0001
0100
1000
0100
,
0110
0000
0000
0100
0000
0000
0010
0000
0100
0000
0000
0000
0101
0000
0000
0000
,
2020
3030
2002
3003
,
0010
0000
0000
0010
0001
0000
0100
0000
0000
0000
0001
0000
0010
0000
0100
0000
,
0001
0100
1000
0010
,
0100
0000
0110
0000
0010
1000
0001
0100
,
0010
0000
0110
0000
1000
0100
0010
0001
,
2000
0000
0010
0000
3001
0000
0010
0010
,
0200
0010
1300
0010
,
0010
0000
1001
0000
0100
0001
1000
1000
,
1000
0000
0011
0000
0001
0010
0100
0000
,
0002
0000
0100
0000
1003
0000
0100
0100
,
0020
0000
0100
0000
1030
0000
0001
0001
,
0001
0000
1100
0000
0001
0000
0010
0010
,
0100
1000
0010
0110
,
0001
0000
0010
0000
1100
0000
0001
0001
,
0000
1000
1000
0000
0001
0100
1000
0000
,
0002
0000
0020
0003
,
0200
0030
2000
0300
,
0020
3000
0200
0030
,
0002
0300
2000
3003
,
1001
0000
0000
0000
,
0000
0000
0000
0000
;

//---------------dance-single - ----------------
#NOTEDATA:;
#CHARTNAME:;
#STEPSTYPE:dance-single;
#DESCRIPTION:;
#CHARTSTYLE:;
#DIFFICULTY:Challenge;
#METER:7;
#RADARVALUES:0.284710,0.404853,0.300448,0.140209,0.000000,199.000000,169.000000,30.000000,14.000000,116.000000,0.000000,0.000000,0.000000,0.000000,0.284710,0.404853,0.300448,0.140209,0.000000,199.000000,169.000000,30.000000,14.000000,116.000000,0.000000,0.000000,0.000000,0.000000;
#CREDIT:;
#DISPLAYBPM:145.000000;
#NOTES:
0000
0000
0000
0000
,
0000
0000
0000
0000
,
0000
0000
0000
0000
,
0000
0000
0000
0000
,
0000
0000
0000
MMMM
,
0110
0001
1000
0000
,
0001
1000
0001
0000
,
0110
1000
0001
0000
,
1000
0001
1000
MMMM
,
1001
0010
0100
0000
,
0010
0100
0010
0000
,
1001
0100
0010
0000
,
0100
0010
0100
MMMM
,
0110
0001
0100
1000
,
0100
0000
0001
0000
0100
0000
1000
1000
,
0200
0310
1000
0100
,
1000
0000
0001
0001
0100
0000
MMMM
0000
,
0110
1000
0100
0001
,
0100
0000
1000
0000
0100
0000
0001
0001
,
0200
0310
0001
0100
,
0001
0000
1000
1000
0100
0000
MMMM
0000
,
1002
0000
0010
0000
,
1000
0000
0100
0100
,
0203
0000
1000
0000
,
0010
0000
0301
MMMM
,
2001
0000
0010
0000
,
0001
0000
0100
0100
,
3200
0000
0001
0000
,
0010
0000
1300
MMMM
,
0010
1000
0010
MMMM
,
0001
0100
0001
MMMM
,
0010
0000
0001
1000
0001
0000
MMMM
0000
,
0100
0000
0001
1000
0001
0000
MMMM
0000
,
0001
0001
1100
1100
,
0001
1100
0001
MMMM
,
0100
0001
0100
0000
1000
0000
0100
0100
,
0100
0001
1000
MMMM
,
1000
0101
1000
MMMM
,
1000
0010
1000
0000
0100
0000
0010
0010
,
0010
1000
0001
MMMM
,
0001
1010
0001
MMMM
,
1000
1000
0101
0101
,
1100
0101
1100
MMMM
,
0100
1000
0100
0000
0001
0000
0100
0100
,
0100
1100
0101
MMMM
,
1000
0100
0001
MMMM
,
0001
0010
0001
0000
0100
0000
0010
0010
,
0010
0011
1010
MMMM
,
0011
1010
0011
MMMM
,
2000
0000
0020
3000
,
0002
0030
0013
MMMM
,
0002
0000
0200
0003
,
2000
0300
3100
MMMM
,
0010
0000
0010
MMMM
,
0100
0000
0100
MMMM
,
1001
MMMM
1100
MMMM
,
0101
MMMM
1010
MMMM
,
2002
0000
0000
3003
,
0000
0000
0000
0000
;

//---------------dance-double - ----------------
#NOTEDATA:;
#CHARTNAME:;
#STEPSTYPE:dance-double;
#DESCRIPTION:;
#CHARTSTYLE:;
#DIFFICULTY:Easy;
#METER:4;
#RADARVALUES:0.198868,0.256883,0.010015,0.010015,0.000000,139.000000,138.000000,1.000000,1.000000,0.000000,0.000000,0.000000,0.000000,0.000000,0.198868,0.256883,0.010015,0.010015,0.000000,139.000000,138.000000,1.000000,1.000000,0.000000,0.000000,0.000000,0.000000,0.000000;
#CREDIT:;
#DISPLAYBPM:145.000000;
#NOTES:
00000000
00000000
00000000
00000000
,
00000000
00000000
00000000
00000000
,
00000000
00000000
00000000
00000000
,
00000000
00000000
00000000
00000000
,
00000000
00000000
00000000
00000000
,
01000000
01000000
10000000
00010000
,
00100000
00000000
00100000
00000000
,
00001000
00001000
00010000
00010000
,
00001000
00000000
00010000
00000000
,
00001000
00001000
00000100
00000001
,
00000010
00000000
00000010
00000000
,
00000100
00000100
00010000
00010000
,
00000010
00000000
00000010
00000000
,
00000001
00000000
00000001
00000100
,
00001000
00000100
00000001
00000100
,
00001000
00000000
00001000
00010000
,
00001000
00100000
00010000
00100000
,
00010000
00000000
01000000
00010000
,
01000000
10000000
01000000
00010000
,
01000000
00000000
00100000
00100000
,
00010000
00000000
00010000
00000000
,
00001000
00000000
00000000
00000000
,
00000000
00000000
00000000
00000000
,
00000001
00000000
00000000
00000000
,
00001000
00000000
00010000
00000000
,
10000000
00000000
00000000
00000000
,
00000000
00000000
00000000
00000000
,
00000001
00000000
00000000
00000000
,
00001000
00000000
00000000
00000000
,
00010000
01000000
00000000
00010000
,
00100000
00010000
00000000
00010000
,
00001000
00000100
00000000
00000000
,
00000002
00000000
00000000
00000003
,
00000010
00000010
00000100
00001000
,
00000010
00000010
00001000
00000000
,
00001000
00001000
00010000
00010000
,
00001000
00010000
00001000
00000000
,
00100000
00100000
10000000
01000000
,
00100000
00010000
00100000
00000000
,
00010000
00000000
00010000
00001000
,
00000100
00000100
00000100
00000000
,
00000010
00000001
00000010
00000010
,
00000001
00000100
00000001
00000001
,
00000100
00000010
00001000
00000010
,
00001000
00000000
00010000
00000000
,
00001000
00001000
00010000
00010000
,
00001000
00010000
00001000
00010000
,
00100000
00010000
00100000
01000000
,
00010000
00000000
00001000
00000000
,
00000010
00000000
00000001
00000000
,
00000100
00000000
00001000
00000000
,
00000010
00000000
00000001
00000000
,
00000100
00000000
00010000
00000000
,
01000000
00000000
10000000
00000000
,
00100000
00000000
00010000
00000000
,
00000010
00000000
00010000
00000000
,
01000000
00000000
00001000
00000000
,
00011000
00000000
00000000
00000000
,
00000000
00000000
00000000
00000000
;

//---------------dance-double - ----------------
#NOTEDATA:;
#CHARTNAME:;
#STEPSTYPE:dance-double;
#DESCRIPTION:;
#CHARTSTYLE:;
#DIFFICULTY:Medium;
#METER:6;
#RADARVALUES:0.276126,0.342510,0.220328,0.190284,0.000000,193.000000,171.000000,22.000000,19.000000,0.000000,0.000000,0.000000,0.000000,0.000000,0.276126,0.342510,0.220328,0.190284,0.000000,193.000000,171.000000,22.000000,19.000000,0.000000,0.000000,0.000000,0.000000,0.000000;
#CREDIT:;
#DISPLAYBPM:145.000000;
#NOTES:
00000000
00000000
00000000
00000000
,
00000000
00000000
00000000
00000000
,
00000000
00000000
00000000
00000000
,
00000000
00000000
00000000
00000000
,
00000000
00000000
00000000
00000000
,
00001000
00000010
00000001
00000100
,
00001000
00010000
00011000
00000000
,
00001000
00000100
00000001
00000010
,
00000100
00010000
00011000
00000000
,
00010000
00100000
10000000
01000000
,
00010000
00001000
00011000
00000000
,
00010000
01000000
10000000
00100000
,
01000000
00001000
00011000
00000000
,
00100000
00000000
00100000
00000000
00001000
00000000
00000010
00001000
,
00010000
01000000
10000000
00000000
,
00100000
00000000
01000000
00000000
01100000
00000000
01000000
00010000
,
00001000
00000100
00000001
00001001
,
00000010
00000000
00000010
00000000
00010000
00000000
00100000
00010000
,
00001000
00000100
00000001
00000000
,
00000010
00000000
00000100
00000000
00000110
00000000
00000100
00001000
,
00010000
01000000
10000000
10010000
,
02000000
00000000
00000000
03000000
,
20020000
00000000
30030000
00010000
,
00022000
00000000
00000000
00000000
,
00000000
00000000
00000000
00033000
,
00001000
00000000
00000200
00000000
,
00000020
00000300
00001000
00010030
,
00022000
00000000
00000000
00000000
,
00000000
00000000
00000000
00033000
,
00001000
00001000
00000010
00000010
,
00000001
00000001
00000100
00000100
,
00010000
00010000
00100000
00100000
,
02200000
00000000
00000000
03300000
,
01000000
00000000
10000000
00000000
01000000
00000000
00010000
00001000
,
00000100
00000001
00000010
00000010
,
00001000
00000010
00000001
00000100
,
00001000
00010000
00011000
00000000
,
00001000
00000000
00010000
00000000
00100000
00000000
10000000
01000000
,
00010000
00000100
00000001
00000101
,
00001000
00000010
00000001
00000100
,
00001000
00010000
00011000
00000000
,
00100000
01100000
10000000
01000000
,
00100000
00110000
00100000
00101000
,
00010000
01000000
10000000
00100000
,
01000000
00000000
00010000
00000000
,
00001000
00000100
00000010
00000110
,
00000001
00000010
00000100
00001000
,
00000010
00001010
00000010
00010010
,
00001000
00000100
00000001
00000000
,
00000001
00001000
00000100
00010000
,
00001000
01000000
00010000
10000000
,
10000000
00010000
00100000
00001000
,
00010000
00000010
00001000
00000001
,
00000002
00000003
00000020
00000030
,
00000200
00000300
00002000
00003000
,
00020000
00030000
00200000
00300000
,
02000000
03000000
20000000
30000000
,
10010000
00000000
00000000
00000000
,
00000000
00000000
00000000
00000000
;

//---------------dance-double - ----------------
#NOTEDATA:;
#CHARTNAME:;
#STEPSTYPE:dance-double;
#DESCRIPTION:;
#CHARTSTYLE:;
#DIFFICULTY:Hard;
#METER:9;
#RADARVALUES:0.326200,0.428138,0.190284,0.320478,0.020030,228.000000,209.000000,19.000000,32.000000,0.000000,0.000000,0.000000,0.000000,0.000000,0.326200,0.428138,0.190284,0.320478,0.020030,228.000000,209.000000,19.000000,32.000000,0.000000,0.000000,0.000000,0.000000,0.000000;
#CREDIT:;
#DISPLAYBPM:145.000000;
#NOTES:
00000000
00000000
00000000
00000000
,
00000000
00000000
00000000
00000000
,
00000000
00000000
00000000
00000000
,
00000000
00000000
00000000
00000000
,
00000000
00000000
00000000
00000000
,
00001000
00000000
00000001
00000100
00001000
00010000
01000000
10000000
,
01000000
00100000
00010000
00000000
,
00001000
00000000
00000001
00000100
00001000
00010000
01000000
10000000
,
01000000
00100000
01100000
00000000
,
00001000
00000000
00000001
00000100
00001000
00010000
00100000
10000000
,
01000000
00010000
00000100
00000100
,
00001000
00000000
00000001
00000100
00001000
00010000
00100000
10000000
,
01000000
00010000
00011000
00000000
,
01000000
00000000
00000000
00000000
10000000
00000000
01000000
01000000
,
00010000
00000010
00001000
00000001
,
00000100
00000000
00000000
00000000
00010000
00000000
00001000
00001000
,
01000000
00000000
00100000
00000000
10000000
01000000
00010000
00000000
,
00001000
00000000
00000000
00000000
01010000
00000000
00100000
00100000
,
01000000
00010000
00100000
00001000
,
00010000
00000000
00000000
00000000
00001100
00000000
00000010
00000010
,
00000100
00000001
00000010
00000100
,
00020000
00000000
00002000
00003000
,
00000020
00000000
00000030
00000000
00030100
00000000
00010000
00001000
,
02000000
00010000
00200000
00300000
,
00002000
00000000
00000000
03003000
,
00000000
00000000
00000020
00000000
,
00020000
00000030
00000100
00032000
,
02000000
00000000
00000000
00003000
,
00200000
00000000
00000000
03300000
,
10000000
02000000
03100000
00001000
,
00010000
00000200
00000310
00000001
,
00000100
00000020
00010030
00011000
,
01000000
00001000
00020000
00000200
00000000
00000000
00030300
00000000
,
00010000
00000000
00000000
00010000
00000000
00000000
00010000
00000000
00001000
00000000
00000000
00000000
00110000
00000000
00000000
00000000
,
00001000
00000000
00000000
00001000
00000000
00000000
00001000
00000000
00010000
00000000
00000000
00000000
00001100
00000000
00000000
00000000
,
00000010
00000000
00000001
00000100
00001000
00010000
01000000
10000000
,
00100000
01000000
00010000
00010000
,
10000000
00000000
00000000
10000000
00000000
00000000
10000000
00000000
00010000
00000000
00000000
00000000
00100000
00000000
00001000
00000000
,
00010000
00000000
00000000
00010000
00000000
00000000
00010000
00000000
00000100
00000000
00000000
00000000
00001000
00000000
00000100
00000000
,
00000010
00000000
00000001
00000100
00001000
00010000
00100000
10000000
,
01000000
00010000
00011000
00000000
,
00200000
00000000
00010000
00000000
01300000
00000000
10000000
01000000
,
00020000
00001000
00030020
00000100
,
00002030
00000000
00000001
00000000
00000010
00000000
00003100
00000100
,
00010000
00000100
00000010
00000000
,
00000200
00000000
00001000
00000000
00000310
00000000
00000001
00000010
,
00002000
00010000
02003000
00100000
,
03020000
00000000
10000000
00000000
01000000
00000000
00130000
00100000
,
01000000
01000000
01100000
00000000
,
10000000
11000000
01000000
01100000
,
00100000
00110000
00101000
00011000
,
00000001
00000101
00000100
00000110
,
00000010
00000000
00001010
00000000
00010000
00001000
00011000
00000000
,
00020000
00000000
00000020
00030000
,
00002000
00000030
00200000
00003000
,
20000000
00300000
02000000
30000000
,
00020000
03000000
00000200
00030300
,
00001001
00000000
00000000
00000000
,
00000000
00000000
00000000
00000000
;

//---------------dance-double - ----------------
#NOTEDATA:;
#CHARTNAME:;
#STEPSTYPE:dance-double;
#DESCRIPTION:;
#CHARTSTYLE:;
#DIFFICULTY:Challenge;
#METER:7;
#RADARVALUES:0.251804,0.313968,0.180269,0.180269,0.000000,176.000000,158.000000,18.000000,18.000000,152.000000,0.000000,0.000000,0.000000,0.000000,0.251804,0.313968,0.180269,0.180269,0.000000,176.000000,158.000000,18.000000,18.000000,152.000000,0.000000,0.000000,0.000000,0.000000;
#CREDIT:;
#DISPLAYBPM:145.000000;
#NOTES:
00000000
00000000
00000000
00000000
,
00000000
00000000
00000000
00000000
,
00000000
00000000
00000000
00000000
,
00000000
00000000
00000000
00000000
,
00000000
00000000
00000000
MMMMMMMM
,
00001000
00000010
00000001
00000100
,
00001000
00010000
00011000
00000000
,
00001000
00000100
00000001
00000010
,
00000100
00010000
00011000
MMMMMMMM
,
00010000
00100000
10000000
01000000
,
00010000
00001000
00011000
00000000
,
00010000
01000000
10000000
00100000
,
01000000
00001000
00011000
MMMMMMMM
,
00100000
00000000
00100000
00000000
00001000
00000000
00000010
00001000
,
00010000
01000000
10000000
00000000
,
00100000
00000000
01000000
00000000
01100000
00000000
01000000
00010000
,
00001000
00000100
00000001
MMMMMMMM
,
00000010
00000000
00000010
00000000
00010000
00000000
00100000
00010000
,
00001000
00000100
00000001
00000000
,
00000010
00000000
00000100
00000000
00000110
00000000
00000100
00001000
,
00010000
01000000
10000000
MMMMMMMM
,
02000000
00000000
00000000
03000000
,
20020000
00000000
30030000
MMMMMMMM
,
00022000
00000000
00000000
00000000
,
00000000
00000000
00000000
00033000
,
00001000
00000000
00000200
00000000
,
00000020
00000300
00001030
MMMMMMMM
,
00022000
00000000
00000000
00000000
,
00000000
00000000
00000000
00033000
,
00001000
00001000
00000010
00000010
,
00000001
00000001
00000100
00000100
,
00010000
00010000
00100000
00100000
,
02200000
00000000
00000000
03300000
,
01000000
00000000
10000000
00000000
01000000
00000000
00010000
00001000
,
MMMMMMMM
00000001
MMMMMMMM
00000010
,
00001000
00000010
00000001
00000100
,
00001000
00010000
00011000
MMMMMMMM
,
00001000
00000000
00010000
00000000
00100000
00000000
10000000
01000000
,
MMMMMMMM
00001000
MMMMMMMM
00000101
,
00001000
00000010
00000001
00000100
,
00001000
00010000
00011000
MMMMMMMM
,
00100000
MMMMMMMM
10000000
01000000
,
00100000
MMMMMMMM
00100000
00101000
,
00010000
01000000
10000000
00100000
,
01000000
00000000
00010000
00000000
,
00001000
MMMMMMMM
00000010
00000110
,
00000001
MMMMMMMM
00000100
00001000
,
00000010
00001010
00000010
00010010
,
00001000
00000100
00000001
00000000
,
00000001
00001000
00000100
00010000
,
00001000
01000000
00010000
10000000
,
10000000
00010000
00100000
00001000
,
00010000
00000010
00001000
MMMMMMMM
,
00000002
00000003
00000020
00000030
,
00000200
00000300
00002000
00003000
,
00020000
00030000
00200000
00300000
,
02000000
03000000
10000000
MMMMMMMM
,
10010000
00000000
00000000
00000000
,
00000000
00000000
00000000
00000000
;

//---------------dance-single - edit----------------
#NOTEDATA:;
#CHARTNAME:;
#STEPSTYPE:dance-single;
#DESCRIPTION:edit;
#CHARTSTYLE:;
#DIFFICULTY:Edit;
#METER:14;
#RADARVALUES:0.540806,0.761635,0.320478,0.510761,0.290433,378.000000,346.000000,32.000000,51.000000,0.000000,0.000000,0.000000,0.000000,0.000000,0.540806,0.761635,0.320478,0.510761,0.290433,378.000000,346.000000,32.000000,51.000000,0.000000,0.000000,0.000000,0.000000,0.000000;
#CREDIT:;
#DISPLAYBPM:145.000000;
#NOTES:
// measure 0
0000
0000
0000
0000
,  // measure 1
0000
0000
0000
0000
,  // measure 2
0000
0000
0000
0000
,  // measure 3
0000
0000
0000
0000
,  // measure 4
0000
0000
0000
0000
,  // measure 5
1001
0000
1000
0100
0001
0000
0001
0100
,  // measure 6
1000
0000
1000
0010
0200
0000
0301
0000
,  // measure 7
1001
0000
0001
0100
0010
0000
0001
0100
,  // measure 8
0010
0000
0010
1000
0200
0000
0310
0000
,  // measure 9
0021
0000
0100
0100
0130
0000
1020
0100
,  // measure 10
0130
0000
0000
0100
0001
0000
0000
1000
0010
0000
0000
0000
1100
0000
0000
0000
,  // measure 11
1200
0000
0000
0000
0010
0000
0010
0000
0310
0000
0000
0010
0001
0000
0200
0000
,  // measure 12
0010
0000
0010
0010
0310
0000
1001
0000
,  // measure 13
2000
0020
0030
0000
0010
0020
0030
0000
,  // measure 14
0100
0200
0300
0000
0002
0003
0002
3000
,  // measure 15
1000
1000
0000
0000
1000
2000
3000
0000
,  // measure 16
0100
0200
0300
0000
0020
0030
0020
0033
,  // measure 17
0001
0000
0010
0001
0010
0100
0010
0000
0100
0000
1000
0100
0010
0100
1000
0000
,  // measure 18
0001
0000
1000
0100
0010
0001
1000
0000
1001
0000
0000
0000
1001
0000
0000
0000
,  // measure 19
1000
0000
0100
1000
0100
0010
0100
0000
0010
0000
0100
0010
0100
0010
0001
0000
,  // measure 20
1000
0000
0001
0100
0010
1000
0100
0000
1100
0000
0000
0000
0101
0000
0000
0000
,  // measure 21
2000
0000
0000
0000
0000
0000
3001
0000
0000
0010
0000
0000
0100
0000
0000
1000
0000
0000
0100
0000
0000
0000
0000
0000
2000
0000
0000
0000
0000
0000
3001
0000
0000
0100
0000
0000
0010
0000
0000
1000
0000
0000
0100
0000
1000
0000
0100
0000
,  // measure 22
2000
0000
3001
1000
0100
0010
0001
0000
0011
0000
0000
0000
0110
0000
0000
0000
,  // measure 23
2020
0000
0000
0000
,  // measure 24
3030
0000
0000
0000
,  // measure 25
0002
0000
1003
0100
0010
0001
0010
0000
0002
0000
0013
0100
1000
0100
0010
0000
,  // measure 26
0002
0000
0103
0001
1000
0010
0100
0000
1100
0000
0000
0000
1010
0000
0000
0000
,  // measure 27
0022
0000
0000
0000
,  // measure 28
0033
0000
0000
0000
,  // measure 29
0020
0000
0000
0000
0000
0000
0031
0000
0000
1000
0000
0000
0100
0000
0000
0010
0000
0000
0001
0000
0000
0000
0000
0000
0020
0000
0000
0000
0000
0000
0031
0000
0000
0100
0000
0000
0010
0000
0000
1000
0000
0000
0100
0000
0010
0000
0100
0000
,  // measure 30
0020
0000
0130
0010
0001
1000
0100
0000
0110
0000
0000
0000
1001
0000
0000
0000
,  // measure 31
0220
0000
0000
0330
,  // measure 32
0011
1100
1010
2002
0000
0000
0000
3003
,  // measure 33
1000
0000
0100
0000
0001
0000
1000
0000
0010
0000
0001
0000
1000
0100
0010
0000
,  // measure 34
0001
0100
1000
0010
0002
0000
0013
0000
,  // measure 35
0010
0000
1000
0000
0001
0000
0010
0000
1000
0000
0100
0000
0010
0001
1000
0000
,  // measure 36
0010
0100
0001
1000
0200
0000
1300
0000
,  // measure 37
2000
0020
0030
3000
0020
0200
0300
0030
,  // measure 38
0002
0020
0030
0003
0101
0000
0011
0000
,  // measure 39
2002
0000
0000
0000
,  // measure 40
0000
0000
0000
3003
,  // measure 41
1000
0000
0010
0000
0001
0000
1000
0000
0100
0000
0010
0000
0001
0100
1000
0000
,  // measure 42
1000
0100
0001
0100
2000
0000
3001
0000
,  // measure 43
1000
0000
0001
0000
0010
0000
1000
0000
0001
0000
0100
0000
1000
0100
0010
0000
,  // measure 44
0001
0100
0010
1000
0020
0000
0130
0000
,  // measure 45
0010
0000
0001
0000
1000
0000
0010
0000
0001
0000
0010
0000
0100
1000
0010
0000
,  // measure 46
0100
0001
1000
0010
2000
0000
3001
0000
,  // measure 47
1000
0000
0010
0000
0001
0000
1000
0000
0010
0000
0100
0000
0001
0010
0100
0000
,  // measure 48
1000
0000
0100
1000
0000
0100
1000
0000
0020
0000
0000
0000
0130
0000
0000
0000
,  // measure 49
0100
1000
0010
0000
1000
0000
0010
0000
0001
0100
0010
0000
0001
0010
0100
0000
,  // measure 50
1000
0100
0010
0000
1000
0100
0010
0000
0012
0000
1000
0000
1003
0000
0000
0000
,  // measure 51
1000
0001
0010
0100
1000
0010
0100
0010
,  // measure 52
0001
0000
1000
0100
0010
0001
1000
0000
1001
0000
0000
0000
1001
0000
0000
0000
,  // measure 53
1000
0100
0001
0000
0100
0000
1000
0000
0001
0100
1000
0000
1000
0100
0001
0000
,  // measure 54
0010
1000
0100
0010
0002
0000
0013
0000
,  // measure 55
0010
0000
0000
0001
0000
0000
0010
0000
0000
0001
0000
0000
1000
0000
0000
0100
0000
0000
1000
0000
0000
0100
1000
0100
,  // measure 56
1000
0000
0100
0000
0010
0000
0001
0000
1000
0000
0001
1000
0001
0000
0110
0000
,  // measure 57
0220
0000
0000
0000
,  // measure 58
0300
0000
0030
0000
;
