#TITLE:Firefly;
#SUBTITLE:;
#ARTIST:BeForU;
#TITLETRANSLIT:;
#SUBTITLETRANSLIT:;
#ARTISTTRANSLIT:;
#GENRE:;
#CREDIT:;
#BANNER:Firefly.png;
#BACKGROUND:Firefly-bg.png;
#LYRICSPATH:;
#CDTITLE:;
#MUSIC:Firefly.ogg;
#OFFSET:0.000000;
#SAMPLESTART:56.014999;
#SAMPLELENGTH:15.000000;
#SELECTABLE:YES;
#DISPLAYBPM:150.000000;
#BPMS:0.000000=148.300003
,4.000000=150.000000
;
#STOPS:
;
#BGCHANGES:;
#KEYSOUNDS:;
#ATTACKS:;

//---------------dance-single - ----------------
#NOTES:
     dance-single:
     :
     Beginner:
     2:
     0.140144,0.205338,0.000000,0.000000,0.000000,102.000000,102.000000,0.000000,0.000000,0.000000,0.000000,0.140144,0.205338,0.000000,0.000000,0.000000,102.000000,102.000000,0.000000,0.000000,0.000000,0.000000:
0000
0000
0000
0000
,
0000
0000
0000
0000
,
1000
0000
0000
0000
,
1000
0000
0000
0000
,
1000
0000
0000
0000
,
1000
0000
0000
0000
,
0001
0000
0000
0000
,
0001
0000
0000
0000
,
0001
0000
0000
0000
,
0000
0000
0000
0000
,
1000
0000
0000
0000
,
1000
0000
1000
0000
,
0100
0000
0000
0000
,
0100
0000
0100
0000
,
1000
0000
0000
0000
,
0100
0000
0000
0000
,
0001
0000
0000
0000
,
0001
0000
0001
0000
,
1000
0000
0000
0000
,
1000
0000
1000
0000
,
0100
0000
0000
0000
,
0100
0000
0100
0000
,
1000
0000
0000
0000
,
0100
0000
0000
0000
,
0001
0000
0000
0000
,
0001
0000
0001
0000
,
0001
0001
0001
0000
,
0001
0001
0001
0000
,
0010
0000
0100
0000
,
0010
0000
0100
0000
,
1000
1000
1000
0000
,
1000
1000
1000
0000
,
0010
0000
0100
0000
,
0010
0000
0000
0000
,
0100
0000
0000
0000
,
1000
0000
0000
0000
,
1000
0000
1000
0000
,
0100
0000
0000
0000
,
0100
0000
0100
0000
,
1000
0000
0000
0000
,
0100
0000
0000
0000
,
0001
0000
0000
0000
,
0001
0000
0001
0000
,
1000
0000
1000
0000
,
1000
1000
1000
0000
,
0100
0000
0100
0000
,
0100
0100
0100
0000
,
1000
0000
1000
0000
,
0100
0000
0100
0000
,
0001
0000
0001
0000
,
0001
0001
0001
0000
,
0001
0001
0001
0000
,
0001
0001
0001
0000
,
1000
1000
1000
0000
,
1000
1000
1000
0000
,
0001
0000
0001
0000
,
0001
0000
0001
0000
,
1000
0000
1000
0000
,
1000
0000
1000
0000
,
1000
0000
0000
0000
,
0001
0000
0000
0000
,
1000
0000
0000
0000
,
0000
0000
0000
0000
;

//---------------dance-single - ----------------
#NOTES:
     dance-single:
     :
     Easy:
     3:
     0.136022,0.266170,0.009618,0.086559,0.000000,99.000000,98.000000,1.000000,9.000000,0.000000,0.000000,0.136022,0.266170,0.009618,0.086559,0.000000,99.000000,98.000000,1.000000,9.000000,0.000000,0.000000:
0000
0000
0000
0000
,
0000
0000
0000
0000
,
0100
0000
0000
0000
,
0100
0000
0000
0000
,
0010
0000
0000
0000
,
0010
0000
0000
0000
,
1000
0000
0000
0000
,
1000
0000
0000
0000
,
0002
0000
0000
0003
,
0000
0000
0000
0000
,
1000
0000
0000
0000
,
1000
0000
1000
0000
,
0001
0000
0000
0000
,
0000
0000
0000
0000
,
0100
0000
0000
0000
,
0100
0000
0000
0000
,
0010
0000
0000
0000
,
0100
0000
0001
0000
,
1000
0000
0000
0000
,
1000
0000
1000
0000
,
0100
0000
0000
0000
,
0100
0000
0000
0000
,
0100
0000
0000
0000
,
0010
0000
0000
0000
,
0001
0000
0000
0000
,
0001
0000
0000
1001
,
1000
0000
0000
0000
,
0010
0000
0000
0000
,
0100
0000
0000
0000
,
0001
0000
0001
0000
,
0100
0000
0000
0000
,
0001
0000
0000
0000
,
1000
0000
0000
0000
,
0020
0000
0000
0030
,
0100
0000
0000
0000
,
0001
1000
0000
0000
,
1000
0001
0000
0000
,
0100
0000
0100
0000
,
0100
0000
0000
0000
,
0002
0000
0003
0000
,
0200
0000
0300
0000
,
0020
0000
0030
0000
,
2000
0000
3000
0000
,
0010
0010
0000
0000
,
0100
0100
0000
0000
,
0001
0001
0000
0000
,
1000
1000
1000
1000
,
0002
0000
0003
0001
,
0200
0000
0300
0100
,
0020
0000
0000
0000
,
0000
0000
0030
1000
,
0001
0001
0001
0001
,
0001
0001
0001
0001
,
1000
1000
1000
1000
,
1000
1000
1000
1000
,
0100
0100
0000
0000
,
0100
0100
0100
0100
,
0010
0010
0010
0010
,
0010
0010
0010
0010
,
0010
0000
0000
0000
,
1000
0000
0000
1000
,
0001
0000
0001
0000
,
0000
0000
0000
0000
;

//---------------dance-single - ----------------
#NOTES:
     dance-single:
     :
     Medium:
     7:
     0.320132,0.413200,0.057706,0.413561,0.000000,233.000000,227.000000,6.000000,43.000000,0.000000,0.000000,0.320132,0.413200,0.057706,0.413561,0.000000,233.000000,227.000000,6.000000,43.000000,0.000000,0.000000:
0000
0000
0000
0000
,
0000
0000
0000
0000
,
1000
0100
0001
0000
0000
0000
1000
0000
,
0001
0100
1000
0000
0000
0000
0001
0000
,
2000
0000
3100
0000
0002
0000
0103
0001
,
2000
3000
1000
1001
,
2000
3100
0200
0310
,
0020
0000
0031
0000
0002
0000
1003
0001
,
0100
0100
0100
0100
,
0001
0100
1000
0000
0000
0000
0001
0000
,
1000
0000
0000
0001
1000
0000
0000
0000
,
0010
0000
0000
0100
0010
0000
0000
0000
,
1000
0100
0001
0100
,
1000
0100
0001
0000
,
2000
0000
3000
0001
1000
0000
0000
0000
,
0020
0000
0030
0100
0010
0000
0000
0000
,
2000
0000
3000
0200
0000
0300
0000
0000
,
0020
0000
0030
0002
0000
0003
0000
0000
,
2000
3100
0002
0103
,
2000
0000
3100
0000
0002
0000
0103
0001
,
1000
0000
1000
0000
1000
0100
1000
0100
,
2000
3000
0001
0100
,
0001
2000
3000
1000
,
0010
0200
0300
0100
,
0001
0000
0100
0000
1000
0000
0100
1000
,
0002
0003
0001
1001
,
0100
0100
0100
0100
,
0010
0010
0010
0010
,
1000
1000
0010
1010
,
0100
0100
0001
0101
,
0001
2000
0100
3100
,
0010
0000
0002
0000
1000
0000
1003
0001
,
0200
0000
0300
0100
,
0010
0020
0030
1000
,
0001
0000
0000
0000
,
1000
0100
0001
0000
0000
0000
1000
0000
,
0001
0100
1000
0000
0000
0000
0001
1000
,
0010
2000
3002
1003
,
0100
0002
2003
3001
,
0200
0302
2003
3020
,
0230
0001
0001
0301
,
1000
0000
0000
0000
,
1000
0000
0000
1001
,
0001
0100
1000
0100
0000
0000
0001
0000
,
1000
0100
0001
0100
0000
0000
1000
0000
,
0010
1000
0010
0100
0000
0000
0001
0000
,
1000
1000
0001
1001
,
0001
0100
1000
0000
0001
0100
1000
0100
,
0001
0000
0001
1000
0100
0000
0100
1000
,
0020
0100
0100
0130
,
0001
0100
0010
1000
0001
0100
0010
1000
,
0001
0200
0000
0000
,
0000
0001
0301
0001
,
1000
0020
0000
0000
,
0000
1000
1030
1000
,
0002
0103
2000
3100
,
0002
0103
2000
3100
,
0001
0000
0001
0000
0001
0100
1000
0100
,
0002
1000
1000
1003
,
0200
0000
0300
0000
,
1000
0000
0001
1000
0000
0000
0001
0000
,
1000
0000
0001
1000
0000
0000
0000
0000
,
0000
0000
0000
0000
;

//---------------dance-single - ----------------
#NOTES:
     dance-single:
     :
     Hard:
     9:
     0.436918,0.501743,0.163501,0.375090,0.038471,318.000000,301.000000,17.000000,39.000000,0.000000,0.000000,0.436918,0.501743,0.163501,0.375090,0.038471,318.000000,301.000000,17.000000,39.000000,0.000000,0.000000:
0000
0000
0000
0000
,
0000
0000
0000
0000
,
0100
0001
1000
0001
0000
0100
0100
0000
,
0001
1000
0100
0010
0000
0100
0100
0010
,
0001
0000
1000
0010
1000
0100
0010
0001
,
1000
0000
0000
0000
1000
0000
0001
0000
0010
0000
0000
0100
1000
0000
0001
0000
,
0020
0000
0032
0000
2003
0000
3100
0100
,
0020
0000
0031
0001
2000
0000
3001
0001
,
0020
0100
0100
0000
0030
0001
0001
0100
,
0010
0000
0100
0000
0001
1000
0001
0000
0100
0000
0000
0010
1000
0000
0001
0000
,
0100
0010
0200
0000
0000
0000
0300
0000
,
0000
0001
0000
1020
0000
0000
0030
0000
,
0100
0001
2000
0000
0000
0000
3000
0000
,
0000
0010
0000
1000
0000
0001
0100
0000
,
0010
0010
2000
0000
0000
0000
3000
0010
,
0000
0100
0000
0001
0000
1000
0000
0001
,
0100
0000
0010
0200
0000
0000
0300
0000
,
0001
0000
1000
0002
0000
0000
0003
0000
,
0100
0000
0100
0010
1000
0000
0001
0100
,
0010
0100
0010
0000
1000
0000
0001
0000
,
0100
0000
0010
0100
0000
0000
1001
0000
,
1000
1100
0001
0101
,
2000
0000
3001
1001
,
0100
0010
1000
1001
,
0010
0101
1001
1010
,
0100
0110
1000
1001
,
1000
0100
1000
0100
1000
0001
1000
0001
,
0100
0001
0100
0001
0010
0001
0010
0001
,
1000
0010
0100
0000
1000
0001
0100
0000
,
0010
0001
0100
0010
1000
0000
1010
0000
,
0100
0100
0001
0000
0001
0001
1000
0010
,
0100
0001
1000
2000
0000
0000
3002
0000
,
0203
0000
0000
0000
0300
0000
0100
0010
,
1000
1100
0001
0101
,
2002
0000
0000
0000
0000
0000
0000
0000
3003
0000
0000
0000
0000
1001
0000
0000
,
0100
0001
1000
0002
0000
0100
0103
0000
,
0010
1000
0001
0200
0000
0010
0310
0100
,
0001
0000
0100
0001
1000
0010
0100
0001
,
1000
0000
0000
0000
1000
0000
0001
0000
0100
0000
0000
0010
1000
0000
0001
0000
,
0200
0000
0302
0000
2003
0000
3010
0010
,
0200
0000
0301
0001
2000
0000
3001
0001
,
0200
0010
0000
0010
0300
0010
1000
0001
,
0100
0010
1000
0000
0001
0010
0100
0000
,
0010
0001
0100
0002
0000
0010
0013
0000
,
0001
1000
0100
0020
0000
0100
0130
0010
,
0001
0000
0010
0001
1000
0100
0010
0001
,
1000
0000
0000
0000
1000
0000
0001
0000
0010
0000
0000
0100
1000
0000
0001
0000
,
0020
0000
0032
0000
2003
0000
3100
0100
,
0020
0000
0031
0001
2000
0000
3001
0001
,
0020
0100
0100
0000
0030
0100
0100
1000
,
0010
0000
0100
0000
0001
1000
0001
0000
0100
0000
0000
0010
1000
0000
0001
0000
,
0200
0000
0000
0000
,
0001
0001
0001
0301
,
0002
0000
0000
0000
,
1000
1000
1000
1003
,
2000
0000
0010
3010
,
0020
0000
0100
0130
,
0200
0000
0001
0301
,
0001
1000
1000
0001
,
0000
0000
0000
0000
0000
1001
0000
0100
,
0001
0100
0010
1000
0000
0001
1000
0010
,
1000
0001
0100
0010
0000
0000
0000
0000
,
0000
0000
0000
0000
;

//---------------dance-double - ----------------
#NOTES:
     dance-double:
     :
     Easy:
     2:
     0.104421,0.206179,0.009618,0.115412,0.000000,76.000000,75.000000,1.000000,12.000000,0.000000,0.000000,0.104421,0.206179,0.009618,0.115412,0.000000,76.000000,75.000000,1.000000,12.000000,0.000000,0.000000:
00000000
00000000
00000000
00000000
,
00000000
00000000
00000000
00000000
,
01000000
00000000
00000000
00000000
,
00001000
00000000
00000000
00000000
,
00000200
00000000
00000000
00000300
,
00000000
00000000
00000000
00000100
,
00000001
00000000
00000000
00000000
,
00000010
00000000
00000000
00000000
,
00020000
00000000
00000000
00030000
,
00000000
00000000
00000000
00000000
,
10000000
00000000
00000000
00000000
,
10000000
00000000
00000000
00000000
,
00010000
00000000
00000000
00000000
,
00001000
00000000
00000000
00000000
,
00000100
00000000
00000000
00000000
,
00000100
00000000
00000000
00000000
,
00002000
00000000
00000000
00003000
,
00000000
00000000
00000000
00000000
,
00000001
00000000
00000000
00000000
,
00000001
00000000
00000001
00000000
,
00000100
00000000
00000000
00000000
,
00000100
00000000
00000000
00000000
,
00000100
00000000
00000000
00000000
,
00010000
00000000
00000000
00000000
,
02000000
00000000
00000000
03000000
,
10000000
00000000
00000000
10010000
,
00000000
01000000
00000000
01000000
,
00000000
00001000
00000000
00001000
,
00000000
00020000
00030000
00010000
,
00001000
00000000
00000000
00000000
,
00000100
00000000
00000000
00000000
,
00000100
00000000
00000000
00000000
,
00000001
00000000
00000000
00000000
,
00001000
00000000
00000000
00000000
,
00000000
00000000
00000000
00000000
,
00000100
00000000
00000000
00000000
,
00000001
00000000
00000000
00000000
,
00000010
00000000
00000000
00000000
,
00000010
00000000
00000000
00000000
,
00010000
00000000
00000000
00000000
,
00000000
00000000
00000000
00000000
,
01000000
00000000
01000000
00000000
,
10000000
10000000
10000000
10000000
,
00020000
00030000
00000000
00000000
,
00100000
00000000
00000000
00000000
,
00002000
00003000
00000000
00000000
,
00000000
00000000
00000000
00000000
,
00000100
00000000
00000000
00000000
,
00001000
00000000
00000000
00000000
,
00000002
00000003
00000002
00000003
,
00000001
00000001
00000001
00000001
,
00002000
00000000
00000000
00003000
,
00001000
00000000
00001000
00000000
,
00000200
00000000
00000000
00000300
,
00000100
00000000
00000100
00000000
,
00010000
00000000
00000000
00000000
,
00010000
00000000
00000000
00000000
,
00200000
00000000
00000000
00300000
,
00100000
00100000
00100000
00100000
,
00000000
00000000
00000000
00000000
,
10000000
00010000
00000000
01000000
,
00100000
01000000
00000000
00000000
,
00000000
00000000
00000000
00000000
;

//---------------dance-double - ----------------
#NOTES:
     dance-double:
     :
     Medium:
     6:
     0.280287,0.354172,0.067324,0.317384,0.000000,204.000000,197.000000,7.000000,33.000000,0.000000,0.000000,0.280287,0.354172,0.067324,0.317384,0.000000,204.000000,197.000000,7.000000,33.000000,0.000000,0.000000:
00000000
00000000
00000000
00000000
,
00000000
00000000
00000000
00000000
,
10000000
01000000
00010000
00000100
,
00002000
00003000
00002000
00003000
,
00002000
00000000
00000000
00003000
,
00000001
00000001
00000100
00000010
,
00010000
00010000
00010000
00001000
,
02000000
00000000
03000000
00100000
,
10000000
10000000
10000000
10000000
,
00100000
01000000
00001000
00010000
,
00000100
00000000
00002000
00003000
,
00000010
00000000
00000200
00000300
,
00000001
00001000
00000002
00000000
00000003
00000000
00000000
00000000
,
00000100
00000000
00000000
00000000
,
00010000
00000000
00000000
00000000
,
00010000
00000000
01000000
00000000
,
01000000
00000000
01000000
00000000
,
20000000
30000000
00000000
00000000
,
00010000
00010000
01000000
00001000
,
00010000
00000100
00010000
00000010
,
00000100
00000100
00000100
00000001
,
00002000
00003000
00010000
01000000
,
00010000
00000000
00000000
10000000
,
00100000
00000000
01000000
00001000
,
00020000
00000100
00030100
00000100
,
00001000
00000000
00000010
00000010
,
00002000
00003001
00000002
00000103
,
00000200
00000310
00001000
00000001
,
00000100
00001000
00010000
01000000
,
10000000
10000000
10000000
10000000
,
00200000
01000000
00300000
00001000
,
00020000
00000100
00030000
00001000
,
00000010
00000000
00001000
00000001
,
00000200
00000300
00000001
00002000
00000000
00000000
00003000
00000000
,
00000010
00000000
00010000
00001000
,
01000000
00000000
00100000
10000000
00000000
00000000
00010000
00000000
,
01000000
00000000
00001000
00100000
00000000
00000000
00001000
00000000
,
00020000
00030010
00000100
00000100
,
00000002
00000003
00000001
00001001
,
00002000
00000000
00003100
00000000
00000200
00000000
00010300
00001000
,
01000000
00000000
00100000
20000000
00010000
00000000
30010000
00000000
,
00100000
00010000
00001000
00000010
,
00000100
00000100
00000100
00001001
,
00000100
00000000
00000010
00000001
00000000
00000000
00001000
00000000
,
00000100
00000000
00010000
00001000
00000000
00000000
01000000
00000000
,
00020000
00130000
01000000
01000000
,
20000000
30000000
10000000
10010000
,
00020000
00000000
01030000
00000000
02000000
00000000
03001000
00010000
,
00000100
00000000
00000010
00000002
00001000
00000000
00001003
00000000
,
00000100
00000000
00001000
00000000
00000100
00010000
00001000
00000000
,
01000000
00000000
01000000
00000000
00100000
00000000
10000000
10000000
,
00200000
20000000
00000000
00000000
,
00000000
30300000
00010000
00010000
,
02000000
00002000
00000000
00000000
,
00000000
03003000
00010000
00010000
,
00000010
00000020
00000030
00000010
,
00001000
00000000
00002000
00000000
00003000
00000000
00001000
00000001
,
00000100
00000001
00001000
00000010
,
00010000
00000000
00001000
01000000
00100000
00000000
01100000
00000000
,
10010000
00000000
00000000
00000000
,
00010100
00000000
00000010
00000100
00000000
00000000
00001000
00000000
,
00000010
00000000
00010010
00001000
00000000
00000000
00000000
00000000
,
00000000
00000000
00000000
00000000
;

//---------------dance-double - ----------------
#NOTES:
     dance-double:
     :
     Hard:
     11:
     0.506990,0.534503,0.096177,0.240442,0.057706,369.000000,359.000000,10.000000,25.000000,0.000000,0.000000,0.506990,0.534503,0.096177,0.240442,0.057706,369.000000,359.000000,10.000000,25.000000,0.000000,0.000000:
00000000
00000000
00000000
00000000
,
00000000
00000000
00000000
00000000
,
01000000
00000000
00000000
00000000
00010000
00000000
01000000
00000000
00000000
00000000
00100000
10000000
00010000
00000000
01000000
00100000
,
20000000
00000000
00010000
30020000
00000000
00030000
10000000
10000000
,
01000000
00000000
00100000
00000000
00001000
00000000
00000010
00000100
,
00001000
00000002
00000100
00000000
00000103
00000010
00001000
00000001
,
00000100
00000100
00000100
00001000
00010000
00100000
01000000
00010000
,
10000000
00100000
01000000
00100000
10000000
00100000
01000000
00100000
,
10000000
00010000
00100000
00001000
00000010
00000001
00001000
00000100
,
00000010
00000000
00000010
00000000
00000001
00000000
00001000
00000000
00000010
00000000
00000100
00000001
00001000
00000000
00000010
00000000
,
00000100
00000000
00000001
00000000
00000100
00000000
00000000
00000010
,
00010000
00002000
00000000
00003000
02000000
00000000
03000000
00100000
,
20000000
00000000
30000000
00010000
02000000
00000000
03000000
00001000
,
00000000
00010000
00000000
00000010
00000000
00000100
00000001
00000000
,
00002000
00000000
00003000
00000010
00020000
00000000
00030000
00001000
,
02000000
00000000
03000000
00010000
20000000
00000000
30000000
00100000
,
01000000
01000000
00010000
10000000
10000000
00100000
10000000
00100000
,
01000000
00001000
00010000
00000000
00000010
00001000
00000001
00000000
,
00000100
00000010
00000100
00000010
00001000
00000010
00001000
00000010
,
00001000
00010000
01000000
00000000
01000000
00100000
10000000
00010000
,
01000000
00000000
01000000
00001000
00010000
00000000
00011000
00000000
,
00000100
00011000
00000010
00001000
,
00000001
00000000
00000100
00000000
00000010
00001000
00010000
01000000
,
00200000
10000000
10300000
00000000
00010000
10000000
00100000
01000000
,
00001000
00000000
00011000
00000000
01000000
00000000
00011000
00010000
,
00000010
00000000
00001000
00001001
,
00000100
00000010
00010000
00100000
10000000
00010000
01000000
00100000
,
10000000
00010000
01000000
00100000
01000000
00010000
10000000
00100000
,
01000000
00001000
00010000
00000010
00000100
00000001
00001000
00000010
,
00000100
00000001
00001000
00000010
00001000
00000001
00001001
00000000
,
00000001
00001000
00010000
10000000
,
10000000
00000000
00010000
00000000
00001000
00000000
00000001
00000100
,
00000020
00000000
00001000
00000000
00001030
00000010
00000100
00000001
,
00001000
00000010
00010000
00000100
00010000
00000000
00020000
00000000
,
00002000
00000000
00033000
00000000
,
01000000
00000000
00000000
00000000
01000000
00000000
00100000
00000000
10000000
00000000
00010000
00000000
10000000
00000000
00010000
10000000
,
01000000
00000000
00000000
00000000
00100000
00000000
00001000
00000000
00010000
00000000
00000010
00000000
00000100
00000000
00000001
00000100
,
00000020
00000000
00001000
00000000
00000130
00000001
00001000
00000010
,
00000100
00000000
00010000
00000000
01000000
00000000
00100000
00000000
10000000
00010000
00000000
10000000
01000000
00000000
01000000
00000000
,
00100000
00001000
00010000
00000010
,
00000100
00000000
00000001
00000000
00001000
00000010
00010000
00100000
,
10000000
00100000
02000000
00020000
03000000
01000000
01030000
00000000
,
00001000
00000000
00000000
00000000
00000000
00000000
00000000
00000000
00000100
00000000
00000000
00000001
00001000
00000000
00000010
00000000
,
00000100
00000000
00000001
00000000
00000100
00000000
00010000
00000000
00000000
00000000
01000000
00000000
00100000
00000000
10000000
00010000
,
01000000
00100000
10000000
01000000
00000000
00010000
00000010
00001000
,
00000002
00000000
00000103
00001000
00000100
00000000
00001001
00000000
,
00000010
00000000
00010000
00000000
00100000
00000000
01000000
00000000
00010000
00000000
00000000
10000000
00010000
00000000
10000000
00000000
,
00100000
00000000
01000000
00001000
00000100
00000000
00000010
00001000
,
00000002
00000000
00000203
00000000
00000320
00000000
00010030
00001000
,
01000000
00100000
10000000
00010000
01000000
00100000
10000000
00010000
,
01000000
00000000
00100000
00000000
10000000
00000000
00010000
00000000
01000000
00000000
01000000
00010000
00100000
00000000
00001000
00000000
,
00020000
00000100
00000100
00000100
,
00000100
00000100
00000100
00030100
,
00000200
00000010
00000010
00000010
,
00000010
00000000
00000000
00000000
00000310
00000000
00000000
00000000
00000010
00000000
00000000
00000001
00001000
00000000
00000010
00000000
,
00000100
00000000
00000101
00000000
00001000
00000000
00001100
00000100
,
00010000
00100000
00000000
01000000
00000000
00010000
10000000
00100000
,
01000000
00000000
01000000
00100000
01000000
00100000
01000000
00010000
,
00001000
00000010
00000100
00000001
00001000
00000010
00000100
00000001
,
00000000
00000000
00000000
00000000
00000000
00001001
00000000
00000001
,
00000100
00000010
00010000
00001000
00000000
01000000
00100000
10000000
,
00010000
01000000
00001000
00200000
00000000
00000000
00300000
00000000
,
00000000
00000000
00000000
00000000
;

//---------------dance-single - ----------------
#NOTES:
     dance-single:
     :
     Challenge:
     15:
     0.735067,0.948305,0.173119,0.163501,0.471267,535.000000,517.000000,18.000000,17.000000,0.000000,0.000000,0.735067,0.948305,0.173119,0.163501,0.471267,535.000000,517.000000,18.000000,17.000000,0.000000,0.000000:
// measure 0
0000
0000
0000
0000
,  // measure 1
0000
0000
0000
0000
,  // measure 2
1000
0001
0010
0001
0000
0001
1000
0010
,  // measure 3
0100
0001
1000
0100
0000
0010
0001
1000
,  // measure 4
1020
0000
0100
0100
0000
1000
0000
0130
,  // measure 5
0001
0000
1000
0000
0001
0000
0010
0001
0000
0001
0000
0001
0010
0000
0001
0000
,  // measure 6
1000
0001
0100
0010
1000
0001
0010
0001
,  // measure 7
1000
0100
1000
0010
0100
0010
0100
1000
,  // measure 8
0100
0001
0010
0001
0010
0100
1000
0100
,  // measure 9
1000
0100
1000
0010
0100
0001
0100
0001
1000
0001
1000
0001
1000
0100
0010
0001
,  // measure 10
0010
0000
0001
0000
1000
0000
0001
0000
0000
0000
0001
0000
1001
0000
1000
0001
,  // measure 11
0100
0000
0010
0000
0100
0000
0010
0000
0000
0000
0010
0000
0110
0000
0010
0100
,  // measure 12
0001
1000
0100
1000
0000
1100
0000
0100
,  // measure 13
1000
0000
0001
0000
0100
0000
0010
0000
0000
0000
0100
0000
0110
0000
0010
0100
,  // measure 14
0001
1000
0001
0010
0000
0001
0000
0010
,  // measure 15
0001
0010
0100
1000
0001
0100
0010
1000
,  // measure 16
0002
0000
1003
0001
0100
0010
1000
0100
,  // measure 17
1000
0100
1000
0100
0010
0001
1000
0001
0100
0001
0100
0001
1000
0010
0100
0001
,  // measure 18
1000
0000
0001
0000
0010
0000
0001
0000
0000
0000
0010
0000
0110
0000
0100
1000
,  // measure 19
0001
0000
1000
0000
0010
0000
0100
0000
0000
0000
0100
0010
0001
0010
0100
0000
,  // measure 20
2000
0000
3001
0200
0000
0010
0000
0001
,  // measure 21
0000
0000
1000
0000
0000
0000
0310
0000
0000
0000
0110
0000
0010
0100
0010
0100
,  // measure 22
0002
0003
0100
0000
1000
0000
1000
0000
0100
0000
0010
0000
0100
0000
0001
0000
,  // measure 23
1000
0000
0001
0000
0010
0000
0001
0000
1000
0000
0010
0000
0100
0000
0001
0010
,  // measure 24
0001
0000
0001
0000
0010
0000
0001
0010
0100
0010
0100
0000
1000
0000
0001
0000
,  // measure 25
1000
0000
0100
0000
0010
0000
0001
0000
1000
0001
1000
0010
1000
0001
1000
0100
,  // measure 26
1000
0001
0010
0010
0000
0010
0011
0001
,  // measure 27
0020
0030
0001
0000
0100
0000
0010
0000
1000
0000
0001
0000
0010
0000
0001
1000
,  // measure 28
0020
0030
0010
0000
0100
0000
0001
0000
0100
0000
0010
0000
1000
0000
0001
0000
,  // measure 29
0020
0030
0001
0000
1000
0000
0010
0000
0100
0000
0001
0000
1000
0000
0001
0000
,  // measure 30
0200
0300
0010
0000
0100
0000
0001
0000
0000
0000
0001
0000
1001
0000
1000
0000
,  // measure 31
0001
0000
1000
0000
0100
0000
0010
0000
0000
0000
0010
0000
0110
0000
0100
0010
,  // measure 32
0100
1000
0010
0100
0001
1000
0100
0010
,  // measure 33
0001
0000
0010
0000
0001
0000
1000
0000
0001
1000
0001
1000
0001
1000
0001
2000
,  // measure 34
0002
0000
0000
0000
3000
0000
0000
0000
0000
0000
0000
0000
0000
0003
0000
0000
,  // measure 35
0001
1000
0100
0010
0000
0010
0100
1000
,  // measure 36
0001
0100
0010
0100
0000
0100
0001
1000
,  // measure 37
0200
0000
0010
0010
0000
1000
0000
0310
,  // measure 38
0100
0000
1000
0000
0001
0000
0100
0000
0000
0010
0000
0010
0100
0000
0001
0000
,  // measure 39
1000
0100
0010
0000
0010
0000
0100
0000
1000
0000
0001
0000
0100
0000
0010
1000
,  // measure 40
0001
0000
0001
0010
0001
0000
0001
1000
0001
0000
0001
0100
0001
0000
0001
1000
,  // measure 41
0100
1000
0010
0100
0001
1000
0100
1000
,  // measure 42
0010
0000
0100
0000
0001
0000
1000
0000
0001
1000
0001
1000
0100
1000
0010
0100
,  // measure 43
0001
0010
0100
1000
0000
0001
1000
0100
,  // measure 44
0010
0001
1000
0010
0000
0010
0100
0001
,  // measure 45
2000
0000
0010
0010
0000
0100
0000
3001
,  // measure 46
1000
0000
0100
0000
0010
0000
0001
0000
0000
0001
0000
0001
1000
0000
0001
0000
,  // measure 47
0100
0000
0010
0000
1000
0000
0001
0010
0001
0000
1000
0000
0010
0000
0100
0000
,  // measure 48
0001
0000
0010
0100
1000
0000
1000
0100
0010
0000
0001
0010
0001
1000
0001
1000
,  // measure 49
0010
0100
0001
1000
0100
1000
0010
0100
,  // measure 50
0001
0010
0001
0010
0100
1000
0100
1000
0001
0010
0100
1000
0100
0010
0001
0010
,  // measure 51
0001
0000
1000
0010
0000
0100
0001
0000
0010
0100
1000
0000
0100
0000
0010
0000
,  // measure 52
0001
0000
1000
0000
0010
0000
0100
0001
0010
0000
0010
0000
0100
0000
0010
0000
,  // measure 53
0001
0000
0010
0001
0000
1000
0100
0000
1000
0001
0100
0000
0010
0000
1000
0000
,  // measure 54
0001
0000
1000
0000
0010
0000
0100
0010
1000
0000
1000
0000
0100
0000
0010
0000
,  // measure 55
0001
0000
0010
0001
0000
1000
0001
0000
1000
0001
0100
0000
0010
0000
1000
0000
,  // measure 56
0001
0000
0010
0000
0100
0000
1000
0100
0010
0000
0010
0000
0001
0000
1000
0000
,  // measure 57
0010
0100
0001
0000
0001
1000
0100
0000
0100
1000
0001
0100
0001
0100
0010
0100
,  // measure 58
0010
0000
0100
0000
0010
0000
0100
0000
0010
0000
0100
0000
0010
0000
0000
0100
0000
0000
0001
0000
0000
1000
0000
0000
0001
0000
0000
1000
0000
0000
0001
0000
0000
1000
0000
0000
0100
0000
0000
0020
0000
0000
0200
0000
0000
0000
0000
0000
,  // measure 59
0000
0000
0000
0000
0000
0300
0000
0000
0000
0000
0130
0000
0000
0010
0001
0000
,  // measure 60
1001
0000
1010
0000
1001
0000
0011
0000
0000
0000
1001
0000
0001
1000
0100
1000
,  // measure 61
0001
1001
1100
0202
0000
0303
0000
0000
;
