#VERSION:0.83;
#TITLE:Feel;
#SUBTITLE:;
#ARTIST:Neuropa;
#TITLETRANSLIT:;
#SUBTITLETRANSLIT:;
#ARTISTTRANSLIT:;
#GENRE:;
#ORIGIN:;
#CREDIT:;
#BANNER:Feel.png;
#BACKGROUND:Feel-bg.png;
#PREVIEWVID:;
#JACKET:Feel-jacket.png;
#CDIMAGE:;
#DISCIMAGE:;
#LYRICSPATH:;
#CDTITLE:;
#MUSIC:Feel.ogg;
#OFFSET:0.000000;
#SAMPLESTART:56.778000;
#SAMPLELENGTH:15.000000;
#SELECTABLE:YES;
#DISPLAYBPM:140.000000;
#BPMS:0.000=140.078,
4.000=140.004;
#STOPS:;
#DELAYS:;
#WARPS:;
#TIMESIGNATURES:0.000=4=4;
#TICKCOUNTS:0.000=4;
#COMBOS:0.000=1;
#SPEEDS:0.000=1.000=0.000=0;
#SCROLLS:0.000=1.000;
#FAKES:;
#LABELS:0.000=Song Start;
#BGCHANGES:;
#KEYSOUNDS:;
#ATTACKS:
;

//---------------dance-single - ----------------
#NOTEDATA:;
#CHARTNAME:;
#STEPSTYPE:dance-single;
#DESCRIPTION:;
#CHARTSTYLE:;
#DIFFICULTY:Beginner;
#METER:3;
#RADARVALUES:0.102125,0.162992,0.000000,0.000000,0.000000,75.000000,75.000000,0.000000,0.000000,0.000000,0.000000,0.000000,0.000000,0.000000,0.102125,0.162992,0.000000,0.000000,0.000000,75.000000,75.000000,0.000000,0.000000,0.000000,0.000000,0.000000,0.000000,0.000000;
#CREDIT:;
#DISPLAYBPM:140.000000;
#NOTES:
0000
0000
0000
0000
,
0000
0000
0000
0000
,
0000
0000
0000
0000
,
0000
0000
0000
0000
,
0000
0000
0000
0000
,
0001
0000
0000
0000
,
0000
0000
0000
0000
,
1000
0000
0000
0000
,
0000
0000
0000
0000
,
0001
0000
0000
0000
,
0010
0000
0000
0000
,
1000
0000
0000
0000
,
0010
0000
0000
0000
,
1000
0000
0000
0000
,
0001
0000
0000
0000
,
1000
0000
0001
0000
,
1000
0000
0000
0000
,
0001
0000
0001
0000
,
0001
0000
0000
0000
,
1000
0000
1000
0000
,
1000
0000
0000
0000
,
0100
0000
0000
0000
,
0100
0000
0000
0000
,
0001
0000
1000
0000
,
0001
0000
0000
0000
,
1000
0000
0000
0000
,
0010
0000
0010
0000
,
1000
0000
0000
0000
,
0000
0000
0000
0000
,
0001
0000
0000
0000
,
0100
0000
0100
0000
,
0001
0000
0000
0000
,
0000
0000
0000
0000
,
0000
0000
0010
0010
,
0000
0000
0100
0100
,
0000
0000
0001
0001
,
0001
0000
1000
0000
,
0000
0000
0010
0010
,
0000
0000
0100
0100
,
0000
0000
1000
1000
,
1000
0000
0001
0000
,
0000
0000
0100
0100
,
0000
0000
0010
0010
,
0000
0000
1000
1000
,
1000
0000
0001
0000
,
0000
0000
0010
0010
,
0000
0000
0001
0001
,
0000
0000
0100
0100
,
0100
0000
0010
0000
,
0000
0000
0000
1000
,
0000
0000
0000
1000
,
0000
0000
0000
0010
,
0000
0000
0000
0001
,
0000
1000
0000
1000
,
0000
0010
0000
0010
,
0000
0001
0000
0001
,
0000
1000
0000
1000
,
1000
0000
0000
0000
,
0000
0000
0000
0000
;

//---------------dance-single - ----------------
#NOTEDATA:;
#CHARTNAME:;
#STEPSTYPE:dance-single;
#DESCRIPTION:;
#CHARTSTYLE:;
#DIFFICULTY:Easy;
#METER:5;
#RADARVALUES:0.185187,0.217323,0.028595,0.095317,0.000000,136.000000,133.000000,3.000000,10.000000,0.000000,0.000000,0.000000,0.000000,0.000000,0.185187,0.217323,0.028595,0.095317,0.000000,136.000000,133.000000,3.000000,10.000000,0.000000,0.000000,0.000000,0.000000,0.000000;
#CREDIT:;
#DISPLAYBPM:140.000000;
#NOTES:
0000
0000
0000
0000
,
0000
0000
0000
0000
,
0000
0000
0000
0000
,
0000
0000
0000
0000
,
0000
0000
0000
0000
,
0010
1000
0100
0000
,
0001
0000
1000
0000
,
0100
1000
0100
0000
,
1000
0000
0001
0000
,
1000
0001
0000
1000
,
0100
0001
0010
0000
,
0001
1000
0000
0001
,
0100
1000
0010
0000
,
0100
0010
1000
0000
,
0100
0010
0001
0000
,
1000
0000
0010
0000
,
1001
0000
0000
0000
,
0001
1000
0000
0001
,
0010
1000
0100
0000
,
1000
0001
0000
1000
,
0010
0001
0100
0000
,
0010
0100
0001
0000
,
0010
0100
1000
0000
,
0001
0000
0100
0000
,
1001
0000
0000
0000
,
0002
0000
0000
0003
,
0200
0300
2000
3000
,
0020
0000
0000
0000
,
0200
0000
0000
0330
,
2000
0000
0000
3000
,
0200
0300
0002
0003
,
0020
0000
0000
0000
,
0200
0000
0000
0330
,
0001
0010
0100
0000
,
1000
0010
0100
0000
,
0001
0000
0100
0000
,
0001
0010
1000
0010
,
0001
0010
0100
0000
,
1000
0010
0100
0000
,
0001
0000
0100
0000
,
1000
0010
0001
0010
,
0001
0100
0010
0000
,
1000
0100
0010
0000
,
0001
0000
0010
0000
,
0001
0100
1000
0100
,
0001
0100
0010
0000
,
1000
0100
0010
0000
,
0001
0000
0010
0000
,
1000
0100
0001
0100
,
0010
0000
1000
0001
,
0010
0000
0001
1000
,
0100
0000
0100
0000
,
0010
1000
0100
0000
,
0100
0000
0001
1000
,
0100
0000
1000
0001
,
0010
0000
0010
0000
,
0100
0001
0010
0000
,
1001
0000
0000
0000
,
0000
0000
0000
0000
;

//---------------dance-single - ----------------
#NOTEDATA:;
#CHARTNAME:;
#STEPSTYPE:dance-single;
#DESCRIPTION:;
#CHARTSTYLE:;
#DIFFICULTY:Medium;
#METER:8;
#RADARVALUES:0.314546,0.325984,0.066722,0.152507,0.000000,231.000000,224.000000,7.000000,16.000000,0.000000,0.000000,0.000000,0.000000,0.000000,0.314546,0.325984,0.066722,0.152507,0.000000,231.000000,224.000000,7.000000,16.000000,0.000000,0.000000,0.000000,0.000000,0.000000;
#CREDIT:;
#DISPLAYBPM:140.000000;
#NOTES:
0000
0000
0000
0000
,
0000
0000
0000
0000
,
0000
0000
0000
0000
,
0000
0000
0000
0000
,
0000
0000
0000
0000
,
0010
0000
0001
0000
0100
1000
0010
0000
,
1000
0010
0001
0010
,
0100
0010
0001
0000
0100
0010
1000
0000
,
0001
0100
1000
0010
,
0001
0010
1000
0000
0010
0000
0001
0000
,
0100
1000
0010
0001
,
1000
0010
0001
0000
0010
0000
1000
0000
,
0100
0001
0010
1000
,
0100
1000
0010
0000
0001
0000
0000
0000
,
0100
0001
0010
0000
1000
0000
0000
0000
,
0001
0100
0010
1000
,
0011
0000
0100
0100
,
1000
0100
0001
0000
0100
0000
1000
0000
,
0010
0001
0100
1000
,
0001
0100
1000
0000
0100
0000
0001
0000
,
0010
1000
0100
0001
,
0010
0001
0100
0000
1000
0000
0000
0000
,
0010
1000
0100
0000
0001
0000
0000
0000
,
1000
0010
0100
0001
,
1100
0000
0001
0001
,
2000
0100
0001
3010
,
0200
0310
0002
0103
,
0020
0001
0100
1000
,
0100
1000
0100
1030
,
0002
0100
1000
0013
,
0200
0310
2000
3100
,
0020
1000
0100
0001
,
0100
0001
0100
0031
,
1000
0001
0010
0000
0100
0000
0100
0000
,
0001
1000
0010
0000
0100
0000
0100
0000
,
1000
0001
0010
0000
0100
0000
0100
0000
,
2000
3010
0002
0013
,
1000
0100
0010
0000
0100
0000
0100
0000
,
0001
0100
0010
0000
0100
0000
0100
0000
,
1000
0011
0100
1010
,
0002
0013
2000
3010
,
1000
0001
0100
0000
0010
0000
0010
0000
,
0001
1000
0100
0000
0010
0000
0010
0000
,
1000
0001
0100
0000
0010
0000
0010
0000
,
2000
3100
0002
0103
,
1000
0010
0100
0000
0010
0000
0010
0000
,
0001
0010
0100
0000
0010
0000
0010
0000
,
1000
0101
0010
1100
,
0002
0103
2000
3100
,
0010
0000
0000
0000
0001
0100
1000
0000
,
0010
0000
0000
0000
1000
0010
0001
0000
,
0100
0001
0100
1000
,
0010
0001
0100
1000
,
0100
0000
0000
0000
1000
0010
0001
0000
,
0100
0000
0000
0000
0001
0100
1000
0000
,
0010
1000
0010
0001
,
0100
1000
0010
0001
,
1001
0000
0000
0000
,
0000
0000
0000
0000
;

//---------------dance-single - ----------------
#NOTEDATA:;
#CHARTNAME:;
#STEPSTYPE:dance-single;
#DESCRIPTION:;
#CHARTSTYLE:;
#DIFFICULTY:Hard;
#METER:9;
#RADARVALUES:0.393523,0.407480,0.142976,0.123912,0.000000,289.000000,274.000000,15.000000,13.000000,0.000000,0.000000,0.000000,0.000000,0.000000,0.393523,0.407480,0.142976,0.123912,0.000000,289.000000,274.000000,15.000000,13.000000,0.000000,0.000000,0.000000,0.000000,0.000000;
#CREDIT:;
#DISPLAYBPM:140.000000;
#NOTES:
0000
0000
0000
0000
,
0000
0000
0000
0000
,
0000
0000
0000
0000
,
0000
0000
0000
0000
,
0000
0000
0000
0000
,
0100
0001
1000
0000
0010
0000
0100
0001
,
0000
0100
0000
1000
0000
0010
0100
0000
,
0010
0100
1000
0000
0010
0000
0100
0001
,
0000
1000
0010
0000
0001
0000
0100
0000
,
1000
0100
0001
0000
0100
0000
1000
0001
,
0010
0000
0001
0000
0100
0010
1000
0000
,
0001
0100
1000
0000
0100
0000
0001
0100
,
0010
0000
1000
0000
0100
1000
0001
0000
,
0010
0001
0100
0000
1100
0000
0101
0000
,
0010
1000
0100
0000
0101
0000
1100
0000
,
1000
0100
0001
0000
0001
0100
1000
0000
,
0210
0000
0010
0310
,
0001
0010
1000
0000
0010
0000
0001
1000
,
0100
0000
1000
0000
0010
0100
0001
0000
,
1000
0010
0001
0000
0010
0000
1000
0001
,
0100
0000
0001
0000
0010
0001
1000
0000
,
0100
1000
0010
0000
0101
0000
1100
0000
,
0100
0001
0010
0000
1100
0000
0101
0000
,
0001
1000
0100
0000
0010
0001
1000
0000
,
0110
0000
1000
1000
,
0002
0000
0010
0000
1000
0000
0103
0001
,
0020
0000
0130
1000
0002
0000
0013
0001
,
0200
1000
0010
0001
,
0010
0000
1000
0000
0010
0000
0301
1000
,
0020
0000
0100
0000
0001
0000
1030
0100
,
0020
0000
0130
1000
0002
0000
0013
0001
,
0200
0001
0010
1000
,
0001
1000
0010
1300
,
0001
1000
0100
0000
0010
0000
1001
0000
,
1000
0001
0100
0000
0010
0000
1001
0000
,
0001
1000
0100
0000
0010
0100
1000
0000
,
0001
0001
0100
0000
1000
1000
0100
0000
,
0001
0010
0100
0000
1000
0000
0101
0000
,
1000
0010
0100
0000
0010
0000
1001
0000
,
0010
0100
1000
0000
0010
0100
0001
0000
,
1000
1000
0100
0000
0001
0001
0100
0000
,
0000
1000
0010
0100
0001
0001
0100
0000
,
0000
0001
0010
0100
0010
0001
0100
0000
,
0000
0001
1000
0010
0100
0001
1000
0000
,
0002
0013
2000
3010
,
0000
0100
0010
0100
0010
1000
0100
0000
,
0000
0001
0100
1000
0010
0100
0001
0000
,
0000
0010
0001
1000
0010
0100
0001
0000
,
2000
3010
0002
0013
,
0100
0000
0100
0000
1000
0100
1000
0100
,
0010
0000
0010
0000
0001
0100
0001
0100
,
0010
0000
0010
0000
0010
0100
0010
0100
,
0010
1000
0010
0001
,
1000
0000
1000
0000
0001
0100
0001
0100
,
0010
0000
0010
0000
1000
0010
1000
0010
,
0100
0000
0100
0000
0001
1000
0001
1000
,
0010
0001
0100
1000
,
1001
0000
0000
0000
,
0000
0000
0000
0000
;

//---------------dance-double - ----------------
#NOTEDATA:;
#CHARTNAME:;
#STEPSTYPE:dance-double;
#DESCRIPTION:;
#CHARTSTYLE:;
#DIFFICULTY:Easy;
#METER:4;
#RADARVALUES:0.152507,0.190158,0.019063,0.095317,0.000000,112.000000,110.000000,2.000000,10.000000,0.000000,0.000000,0.000000,0.000000,0.000000,0.152507,0.190158,0.019063,0.095317,0.000000,112.000000,110.000000,2.000000,10.000000,0.000000,0.000000,0.000000,0.000000,0.000000;
#CREDIT:;
#DISPLAYBPM:140.000000;
#NOTES:
00000000
00000000
00000000
00000000
,
00000000
00000000
00000000
00000000
,
00000000
00000000
00000000
00000000
,
00000000
00000000
00000000
00000000
,
00000000
00000000
00000000
00000000
,
00000010
00000001
00000100
00000000
,
00001000
00000000
00000000
00000000
,
00100000
10000000
01000000
00000000
,
00010000
00000000
00000000
00000000
,
00001000
00000000
00000001
00000000
,
00000100
00000000
00000010
00000000
,
00001000
00000000
00000100
00000000
,
00001000
00000000
00010000
00000000
,
01000000
00000000
00100000
00000000
,
10000000
00000000
00010000
00000000
,
10000000
00000000
00010000
00000000
,
20020000
00000000
00000000
30030000
,
10000000
00000000
01000000
00000000
,
00010000
00100000
00010000
00000000
,
00001000
00000000
00010000
00000000
,
00000010
00001000
00000001
00000000
,
00000001
00000000
00000100
00000100
,
00001000
00000000
00000100
00000100
,
00010000
00000000
00001000
00000000
,
00022000
00000000
00000000
00033000
,
02000000
00000000
00000000
03000000
,
20000000
30000000
00020000
00030000
,
00100000
00000000
00000000
00000000
,
00000010
00000000
00000010
00000000
,
00000200
00000000
00000000
00000300
,
00000002
00000003
00002000
00003000
,
00000100
00000000
00000000
00000000
,
00010000
00000000
00100000
00000000
,
01000000
00000000
00100000
00100000
,
01000000
00000000
10000000
10000000
,
01000000
00000000
01000000
01000000
,
00010000
00000000
00001000
00000000
,
00000010
00000000
00000001
00000001
,
00001000
00000000
00000010
00000010
,
00000100
00000000
00001000
00001000
,
00010000
00000000
00010000
00000000
,
00001000
00000000
00010000
01000000
,
00000000
00000000
00100000
10000000
,
00000000
00000000
01000000
10000000
,
01000000
00000000
00010000
00000000
,
00001000
00000000
00000010
00000100
,
00000000
00000000
00000001
00000100
,
00000000
00000000
00001000
00000100
,
00000001
00000000
00001000
00000000
,
00000010
00000000
00000100
00000000
,
00001000
00000000
00010000
00000000
,
00100000
00000000
10000000
00000000
,
00100000
00000000
00000000
00000000
,
10000000
00000000
00010000
00000000
,
01000000
00000000
00010000
00000000
,
00001000
00000000
00000010
00000000
,
00000001
00000000
00001000
00000000
,
00000100
00000000
00000000
00000000
,
00000000
00000000
00000000
00000000
;

//---------------dance-double - ----------------
#NOTEDATA:;
#CHARTNAME:;
#STEPSTYPE:dance-double;
#DESCRIPTION:;
#CHARTSTYLE:;
#DIFFICULTY:Medium;
#METER:7;
#RADARVALUES:0.247824,0.271654,0.028595,0.095317,0.000000,182.000000,179.000000,3.000000,10.000000,0.000000,0.000000,0.000000,0.000000,0.000000,0.247824,0.271654,0.028595,0.095317,0.000000,182.000000,179.000000,3.000000,10.000000,0.000000,0.000000,0.000000,0.000000,0.000000;
#CREDIT:;
#DISPLAYBPM:140.000000;
#NOTES:
00000000
00000000
00000000
00000000
,
00000000
00000000
00000000
00000000
,
00000000
00000000
00000000
00000000
,
00000000
00000000
00000000
00000000
,
00000000
00000000
00000000
00000000
,
01000000
10000000
00100000
00010000
,
00001000
00000000
00000100
00000000
,
00000010
00000001
00001000
00000010
,
00010000
00000000
00001000
00000000
,
00010000
01000000
10000000
01000000
,
00010000
00001000
00010000
00001000
,
00001000
00000100
00000001
00000100
,
00001000
00010000
00001000
00010000
,
00100000
00010000
01000000
00010000
,
00100000
00001000
00010000
00000010
,
00000100
00000001
00000100
00001000
,
00002002
00000000
00000000
00003003
,
00000001
00000100
00001000
00010000
,
00001000
00000100
00000001
00000000
,
00001000
00010000
01000000
10000000
,
01000000
00010000
00001000
00000000
,
00000010
00001000
00010000
00010000
,
00100000
00010000
00001000
00001000
,
00010000
00010000
00001000
00001000
,
00022000
00000000
00000000
00033000
,
00000020
00000000
00000000
00000030
,
00000002
00000003
00002000
00003000
,
00000100
00001000
00010000
01000000
,
00100000
01000000
00100000
00000000
,
02000000
00000000
00000000
03000000
,
20000000
30000000
00020000
00030000
,
00100000
00001000
00010000
00000000
,
00001000
00000000
00000100
00000000
,
00000010
00001000
00000100
00010000
,
00000010
00001000
00000100
00010000
,
00000010
00001000
00000100
00010000
,
00001000
00000100
00000001
00000100
,
00001000
00010000
00100000
01000000
,
00001000
00010000
00100000
01000000
,
00001000
00010000
00100000
01000000
,
00010000
00100000
10000000
00100000
,
00010000
00001000
00000010
00001000
,
00010000
00001000
00000100
00001000
,
00010000
00001000
00000010
00001000
,
00010000
00100000
00010000
00100000
,
01000000
00100000
00010000
00001000
,
01000000
00100000
00010000
00001000
,
01000000
00100000
00010000
00001000
,
00000010
00000001
00000100
00000001
,
00001000
00000000
00000100
00000100
,
00010000
00000000
00001000
00001000
,
00010000
01000000
10000000
01000000
,
00100000
01000000
00100000
01000000
,
10000000
00000000
00010000
00010000
,
00001000
00000000
00000001
00000001
,
00000100
00001000
00000100
00000001
,
00000010
00001000
00010000
00001000
,
00011000
00000000
00000000
00000000
,
00000000
00000000
00000000
00000000
;

//---------------dance-double - ----------------
#NOTEDATA:;
#CHARTNAME:;
#STEPSTYPE:dance-double;
#DESCRIPTION:;
#CHARTSTYLE:;
#DIFFICULTY:Hard;
#METER:9;
#RADARVALUES:0.385353,0.407480,0.133444,0.066722,0.000000,283.000000,269.000000,14.000000,7.000000,0.000000,0.000000,0.000000,0.000000,0.000000,0.385353,0.407480,0.133444,0.066722,0.000000,283.000000,269.000000,14.000000,7.000000,0.000000,0.000000,0.000000,0.000000,0.000000;
#CREDIT:;
#DISPLAYBPM:140.000000;
#NOTES:
00000000
00000000
00000000
00000000
,
00000000
00000000
00000000
00000000
,
00000000
00000000
00000000
00000000
,
00000000
00000000
00000000
00000000
,
00000000
00000000
00000000
00000000
,
00000010
00001000
00000001
00000000
00000100
00000000
00001000
00010000
,
00000000
00100000
00000000
10000000
00000000
01000000
00100000
00000000
,
01000000
10000000
00010000
00000000
01000000
00000000
00100000
00001000
,
00000000
00010000
00000100
00000000
00001000
00000000
00000010
00000000
,
00000001
00000010
00001000
00000000
00010000
00000000
00100000
01000000
,
00001000
00000000
00100000
00000000
00010000
01000000
10000000
00000000
,
01000000
00001000
00010000
00000000
01000000
00000000
00010000
00001000
,
00000010
00000000
00000001
00000000
00000010
00000001
00001000
00000000
,
00000100
00010000
00000010
00000000
00001010
00000000
00000101
00000000
,
00000010
00000001
00000100
00000000
00001100
00000000
00011000
00000000
,
00100000
01000000
10000000
00000000
00100000
01000000
00010000
00000000
,
21000000
00000000
01000000
31000000
,
00010000
00001000
00000100
00000000
00000010
00000000
00010000
00001000
,
00100000
00000000
01000000
00000000
00010000
01000000
10000000
00000000
,
00100000
01000000
00001000
00000000
00010000
00000000
00000010
00001000
,
00000100
00000000
00010000
00000000
00001000
00000100
00000001
00000000
,
00000010
00000001
00000100
00000000
00001010
00000000
00011000
00000000
,
00100000
10000000
00010000
00000000
00110000
00000000
01100000
00000000
,
00001000
00010000
00000010
00000000
00010000
00001000
00100000
00000000
,
01100000
00000000
01000000
01000000
,
00020000
01000000
10000000
00130000
,
00002000
00000100
00000001
00003010
,
00000200
00000001
00000010
00001300
,
00010000
00000000
00100000
00000000
10000000
01000000
00010000
00000000
,
00200000
10000000
01000000
00310000
,
00001000
00000100
00000010
00000000
00000001
00000100
00000010
00000000
,
00010000
00001000
00100000
00010000
01000000
00000000
00000000
00000000
,
00010000
00000000
10000000
00000000
,
00100000
01000000
00010000
00000000
00001000
00000000
00000100
00000000
,
00000001
00001000
00000010
00000000
00000100
00000000
00000001
00000000
,
00001000
00000001
00000010
00000000
00001000
00010000
01000000
00000000
,
10000000
00100000
01000000
00000000
00010000
00100000
01000000
00000000
,
00100000
00001000
00010000
00000000
00000100
00000000
00000010
00000000
,
00000001
00000100
00000010
00000000
00000100
00000000
00001001
00000000
,
00000100
00010000
00001000
00000000
00010000
00100000
10000000
00000000
,
00100000
10000000
01000000
00000000
00100000
00010000
01000000
00000000
,
00000000
00001000
00010000
00000100
00001000
00000001
00000100
00000000
,
00000000
00000010
00010000
00001000
00100000
00010000
01000000
00000000
,
00000000
10000000
01000000
00010000
10000000
01000000
00010000
00000000
,
00002000
00003100
00000002
00000103
,
00000000
00000010
00000100
00000010
00010000
00001000
01000000
00000000
,
00000000
00100000
00010000
00100000
00010000
00001000
00000010
00000000
,
00000000
00000100
00001000
00000001
00000100
00001000
00010000
00000000
,
00100000
11000000
00100000
01010000
,
00100000
00000000
00100000
00000000
10000000
01000000
00010000
00001000
,
00000100
00000000
00000100
00000000
00000001
00000010
00001000
00010000
,
00100000
00000000
00100000
00000000
10000000
01000000
00010000
00001000
,
00000010
00000010
00000100
00000100
,
00000001
00000000
00000001
00000000
00001000
00000010
00010000
00001000
,
01000000
00000000
01000000
00000000
00100000
00010000
00001000
00000100
,
00000010
00000000
00000010
00000000
00001000
00000100
00010000
00001000
,
00100000
01000000
10000000
00100000
,
01010000
00000000
00000000
00000000
,
00000000
00000000
00000000
00000000
;

//---------------dance-single - ----------------
#NOTEDATA:;
#CHARTNAME:;
#STEPSTYPE:dance-single;
#DESCRIPTION:;
#CHARTSTYLE:;
#DIFFICULTY:Challenge;
#METER:15;
#RADARVALUES:0.744835,0.929878,0.324078,0.181102,0.724410,547.000000,513.000000,34.000000,19.000000,128.000000,0.000000,0.000000,0.000000,0.000000,0.744835,0.929878,0.324078,0.181102,0.724410,547.000000,513.000000,34.000000,19.000000,128.000000,0.000000,0.000000,0.000000,0.000000;
#CREDIT:;
#DISPLAYBPM:140.000000;
#NOTES:
// measure 0
0000
0000
0000
0000
,  // measure 1
0000
0000
0000
0000
,  // measure 2
0000
0000
0000
0000
,  // measure 3
0000
0000
0000
0000
,  // measure 4
0000
0000
0000
0000
,  // measure 5
0100
0000
0010
0001
0100
0000
MMMM
0000
1000
0000
0100
0010
1000
0000
MMMM
0000
,  // measure 6
0010
0000
0001
0010
0100
0000
0010
0100
1000
0000
0100
0010
0001
0010
1000
0000
,  // measure 7
0010
0000
0100
0001
1000
0000
MMMM
0000
0001
0000
0010
0100
1000
0000
MMMM
0000
,  // measure 8
1000
0000
0001
0010
0100
0000
1000
0100
0010
0000
0001
0010
0001
0010
0100
0000
,  // measure 9
1000
0000
0010
1000
0100
0000
0010
0000
0100
0010
0100
0000
0110
0000
0010
0100
,  // measure 10
1000
0000
MMMM
0000
1100
0000
0110
0000
0101
0000
0100
0001
1000
0000
1100
0000
,  // measure 11
0100
0000
0010
0001
1000
0000
0001
0000
0100
0010
0100
0000
0110
0000
0010
1000
,  // measure 12
0001
0000
MMMM
0000
0011
0000
0110
0000
1010
0000
0010
1000
0100
0000
0110
0000
,  // measure 13
0010
0001
0010
0001
0100
0000
0001
0000
0101
0000
0101
0000
1000
0100
0010
0000
,  // measure 14
MMMM
0000
0001
0010
0100
0000
0020
0000
1000
0000
0130
0000
0010
0001
1000
0001
,  // measure 15
0100
0000
0000
0100
0001
0000
0000
0001
2000
0000
0000
0000
3100
0000
1100
0000
,  // measure 16
MMMM
0000
0010
0000
MMMM
0000
0001
0000
0000
0000
1000
0010
1000
0000
0010
0000
,  // measure 17
0100
0000
0010
0001
0010
0000
0100
0000
1000
0001
1000
0000
1001
0000
0001
0010
,  // measure 18
0100
0000
MMMM
0000
1010
0000
0110
0000
0101
0000
0001
1000
0100
0000
0010
0000
,  // measure 19
0001
0000
0010
0001
0100
0000
0010
0000
0100
0010
0100
0000
0110
0000
0010
0001
,  // measure 20
1000
0000
0000
0000
1001
0000
0110
0000
1001
0000
1000
0100
0010
0000
0001
0000
,  // measure 21
0100
0010
0100
0010
1000
0000
0100
0000
0011
0000
0011
0000
0100
0001
0010
0000
,  // measure 22
MMMM
0000
0010
1000
0100
0000
0020
0000
0001
0000
0130
0000
0010
1000
0001
0100
,  // measure 23
0010
0000
1000
0010
1000
0000
0100
0000
0010
0001
0010
0000
0011
0000
0001
0010
,  // measure 24
0100
0000
1100
0100
MMMM
0100
0110
0010
,  // measure 25
0001
0010
0100
0010
0001
0010
0100
0010
0001
0010
0100
0010
0001
0010
0100
0010
,  // measure 26
0001
0100
0010
0100
0001
0100
0010
0100
0001
1000
0010
1000
0001
1000
0100
1000
,  // measure 27
0010
0001
0100
0010
2000
3000
MMMM
0000
,  // measure 28
1000
0100
0001
0000
1001
0000
MMMM
0000
0001
0100
1000
0000
1001
0000
0000
0000
,  // measure 29
1000
0010
0100
0010
1000
0010
0100
0010
1000
0010
0100
0010
1000
0010
0100
0010
,  // measure 30
1000
0100
0010
0100
1000
0100
0010
0100
1000
0001
0100
0001
1000
0001
0010
0001
,  // measure 31
0100
0010
1000
0010
0002
0003
MMMM
0000
,  // measure 32
0010
0001
0100
0000
0101
0000
MMMM
0000
0010
1000
0100
0000
1100
0000
1000
0100
,  // measure 33
0010
0000
0001
0010
0100
0000
0100
0010
1000
0000
0000
0000
MMMM
0000
0000
0000
,  // measure 34
0001
0000
0010
0100
1000
0000
0100
0010
0001
0000
0000
0000
MMMM
0000
0000
0000
,  // measure 35
1000
0000
0100
0010
0001
0010
0100
0000
0020
0000
1030
0000
0010
0100
1000
0000
,  // measure 36
0020
0000
0130
0000
0010
0001
0100
0000
0020
0000
0031
0000
0010
0001
1000
0000
,  // measure 37
0100
0000
0010
0001
1000
0000
0100
1000
0001
0000
0000
0000
MMMM
0000
0000
0000
,  // measure 38
0001
0000
1000
0100
0010
0000
0100
0010
0001
0000
0000
0000
MMMM
0000
0000
0000
,  // measure 39
0010
0000
0001
0010
0100
0010
0001
0000
0200
0000
0301
0000
0100
0010
0001
0000
,  // measure 40
0200
0000
0310
0000
0100
0010
1000
0000
0200
0000
1300
0000
0100
0010
0001
0000
,  // measure 41
1000
0000
0001
0010
0100
0000
0010
0100
1000
0000
0000
0000
MMMM
0000
0000
0000
,  // measure 42
1000
0000
0100
0010
0001
0000
0100
0010
0001
0000
0000
0000
MMMM
0000
0000
0000
,  // measure 43
0010
0000
0001
0100
0010
0100
0001
0000
2000
0000
3100
0000
1000
0100
0010
0000
,  // measure 44
2000
0000
3010
0000
1000
0010
0100
0000
2000
0000
3001
0000
1000
0001
0010
0000
,  // measure 45
0100
0000
0010
1000
0100
0000
0010
0001
0100
0000
0000
0000
MMMM
0000
0000
0000
,  // measure 46
0010
0000
1000
0100
0010
0000
0001
0010
0100
0000
0000
0000
MMMM
0000
0000
0000
,  // measure 47
0010
0000
1000
0010
0100
0010
1000
0000
0002
0000
0013
0000
0001
0010
0100
0000
,  // measure 48
0002
0000
0103
0000
0001
0100
0010
0000
0002
0000
1003
0000
0001
0100
1000
0100
,  // measure 49
0010
0001
0100
0001
0010
0001
0100
0001
0010
0000
0100
0000
1000
0000
MMMM
0000
,  // measure 50
1000
0100
0010
0100
1000
0100
0010
0100
1000
0000
0100
0000
0010
0000
MMMM
0000
,  // measure 51
0010
0001
0100
0001
1000
0001
0100
0001
0010
0000
0001
0000
0100
0000
MMMM
0000
,  // measure 52
0100
0001
1000
0100
0001
0100
1000
1000
0100
0000
0010
0000
0001
0000
MMMM
0000
,  // measure 53
1000
0010
0001
0010
1000
0001
0010
1000
0010
0000
0100
0000
1000
0000
MMMM
0000
,  // measure 54
0100
0001
0010
0001
1000
0010
0001
0100
0010
0000
0100
0000
1000
0000
MMMM
0000
,  // measure 55
0010
0001
0100
1000
0100
0001
0010
1000
0100
0010
0001
1000
0010
0000
MMMM
0000
,  // measure 56
0110
0000
0000
0000
1001
0000
MMMM
0000
0101
0000
0001
0010
0100
1000
0010
0000
,  // measure 57
2020
0000
0000
0000
,  // measure 58
3000
0000
0000
0000
1000
0001
0000
0100
,  // measure 59
0000
0130
0000
0000
0000
0000
0000
0000
;
