#VERSION:0.83;
#TITLE:Feel Good Inc.;
#SUBTITLE:;
#ARTIST:Gorillaz;
#TITLETRANSLIT:;
#SUBTITLETRANSLIT:;
#ARTISTTRANSLIT:;
#GENRE:;
#ORIGIN:;
#CREDIT:;
#BANNER:Feel Good Inc.png;
#BACKGROUND:Feel Good Inc-bg.png;
#PREVIEWVID:;
#JACKET:Feel Good Inc-jacket.png;
#CDIMAGE:;
#DISCIMAGE:;
#LYRICSPATH:;
#CDTITLE:;
#MUSIC:Feel Good Inc.ogg;
#OFFSET:0.000000;
#SAMPLESTART:8.670000;
#SAMPLELENGTH:15.000000;
#SELECTABLE:YES;
#DISPLAYBPM:139.000000;
#BPMS:0.000=138.300,
4.000=138.520;
#STOPS:;
#DELAYS:;
#WARPS:;
#TIMESIGNATURES:0.000=4=4;
#TICKCOUNTS:0.000=4;
#COMBOS:0.000=1;
#SPEEDS:0.000=1.000=0.000=0;
#SCROLLS:0.000=1.000;
#FAKES:;
#LABELS:0.000=Song Start;
#BGCHANGES:0.000=Feel Good Inc.avi=1.000=0=0=0=StretchNoLoop====,
99999=-nosongbg-=1.000=0=0=0 // don't automatically add -songbackground-
;
#KEYSOUNDS:;
#ATTACKS:
;

//---------------dance-single - ----------------
#NOTEDATA:;
#CHARTNAME:;
#STEPSTYPE:dance-single;
#DESCRIPTION:;
#CHARTSTYLE:;
#DIFFICULTY:Beginner;
#METER:1;
#RADARVALUES:0.083868,0.137441,0.009950,0.000000,0.000000,59.000000,58.000000,1.000000,0.000000,0.000000,0.000000,0.000000,0.000000,0.000000,0.083868,0.137441,0.009950,0.000000,0.000000,59.000000,58.000000,1.000000,0.000000,0.000000,0.000000,0.000000,0.000000,0.000000;
#CREDIT:;
#DISPLAYBPM:139.000000;
#NOTES:
0000
0000
0000
0000
,
0000
0000
0000
0000
,
0000
0000
0000
0000
,
0000
0000
0000
0000
,
0000
0000
0000
0000
,
1000
0000
0000
0000
,
0000
0000
0000
0000
,
0001
0000
0001
0000
,
0001
0000
0000
0000
,
0001
0000
0000
0000
,
0000
0000
0000
0000
,
1000
0000
0000
0000
,
1000
0000
0000
0000
,
1000
0000
0000
0000
,
0000
0000
0000
0000
,
0001
0000
0001
0000
,
0001
0000
0000
0000
,
0001
0000
0000
0000
,
0000
0000
0000
0000
,
1000
0000
0000
0000
,
1000
0000
0000
0000
,
0010
0000
0010
0000
,
0010
0000
0000
0000
,
0001
0000
0000
0000
,
0000
0000
0000
0000
,
1000
0000
0000
0000
,
0010
0000
0000
0000
,
1000
0000
0000
0000
,
0000
0000
0000
0000
,
0001
0000
0000
0000
,
0010
0000
0000
0000
,
0001
0000
0001
0000
,
1000
0000
1000
0000
,
0001
0000
0001
0000
,
0010
0000
0010
0000
,
1000
0000
1000
0000
,
0001
0000
0001
0000
,
1000
0000
0000
0000
,
1001
0000
0000
0000
,
0000
0000
0000
0000
,
1000
0000
0000
0000
,
0010
0000
0010
0000
,
1000
0000
0001
0000
,
0000
0000
0000
0000
,
0001
0000
0000
0000
,
0010
0000
0010
0000
,
0001
0000
1000
0000
,
0000
0000
0000
0000
,
1000
0000
0000
0000
,
0100
0000
0000
0000
,
0001
0000
1000
0000
,
0001
0000
0000
0000
,
0001
0000
0000
0000
,
0010
0000
0000
0000
,
1000
0000
0001
0000
,
1000
1000
0000
0000
,
0000
0000
0000
0000
;

//---------------dance-single - ----------------
#NOTEDATA:;
#CHARTNAME:;
#STEPSTYPE:dance-single;
#DESCRIPTION:;
#CHARTSTYLE:;
#DIFFICULTY:Easy;
#METER:4;
#RADARVALUES:0.129356,0.192417,0.009950,0.000000,0.000000,91.000000,90.000000,1.000000,0.000000,0.000000,0.000000,0.000000,0.000000,0.000000,0.129356,0.192417,0.009950,0.000000,0.000000,91.000000,90.000000,1.000000,0.000000,0.000000,0.000000,0.000000,0.000000,0.000000;
#CREDIT:;
#DISPLAYBPM:139.000000;
#NOTES:
0000
0000
0000
0000
,
0000
0000
0000
0000
,
0000
0000
0000
0000
,
0000
0000
0000
0000
,
0000
0000
0000
0000
,
1000
0000
0100
0000
,
1000
0000
0000
0000
,
0010
0000
0100
0000
,
0001
0001
0000
0000
,
0001
1000
0001
0000
,
0100
0000
0000
0000
,
0010
0000
0100
0000
,
0100
0100
0000
0000
,
0001
0000
0100
0000
,
0001
0000
0000
0000
,
0010
0000
0100
0000
,
1000
1000
0000
0000
,
1000
0001
1000
0000
,
0100
0000
0000
0000
,
0010
0000
0100
0000
,
0100
0100
0000
0000
,
1000
0000
0001
0000
,
0100
0000
0000
0000
,
0010
0000
0000
0000
,
0001
0000
0000
0000
,
0100
0000
0000
0000
,
1000
0000
0000
0000
,
0010
0000
0000
0000
,
1000
0000
0000
0000
,
0100
0000
0000
0000
,
0001
0000
0000
0000
,
0001
0100
0000
0000
,
0100
0001
0000
0000
,
1000
0100
0000
0000
,
0100
1000
0000
0000
,
0001
0100
0000
0000
,
0100
0001
0000
0000
,
1000
0100
0000
0000
,
1001
0000
0000
0000
,
0000
0000
0000
0000
,
1000
1000
0100
0100
,
0010
0000
0010
0000
,
1000
1000
0001
0001
,
0000
0000
0000
0000
,
0001
0001
0100
0100
,
0010
0000
0010
0000
,
1000
0000
0001
0000
,
0100
0000
0000
0000
,
0000
1000
0000
1000
,
0000
0100
0000
0100
,
0001
0000
1000
0000
,
0001
0000
0000
0000
,
0000
0001
0000
0001
,
0000
0010
0000
0010
,
1000
0000
0001
0000
,
1000
0001
0000
0000
,
0000
0000
0000
0000
;

//---------------dance-single - ----------------
#NOTEDATA:;
#CHARTNAME:;
#STEPSTYPE:dance-single;
#DESCRIPTION:;
#CHARTSTYLE:;
#DIFFICULTY:Medium;
#METER:6;
#RADARVALUES:0.230282,0.306474,0.099504,0.049752,0.000000,162.000000,152.000000,10.000000,5.000000,0.000000,0.000000,0.000000,0.000000,0.000000,0.230282,0.306474,0.099504,0.049752,0.000000,162.000000,152.000000,10.000000,5.000000,0.000000,0.000000,0.000000,0.000000,0.000000;
#CREDIT:;
#DISPLAYBPM:139.000000;
#NOTES:
0000
0000
0000
0000
,
0000
0000
0000
0000
,
0000
0000
0000
0000
,
0000
0000
0000
0000
,
0000
0000
0000
0000
,
1000
0000
0000
0000
0100
0000
0000
0001
,
0000
1000
0000
0000
0000
0000
0000
0000
,
0010
0000
0000
0000
0100
0001
0100
0000
,
0001
0000
0001
0100
0000
0000
0000
0000
,
0001
0000
1000
0000
0100
0000
0000
1000
,
0000
0001
0000
0000
0000
0000
0000
0000
,
1000
0000
0000
0000
0100
0000
0000
0001
,
0000
1000
0100
0000
0000
0000
0000
0000
,
0001
0000
0000
0000
0100
0000
0000
1000
,
0000
0001
0000
0000
0000
0000
0000
0000
,
0010
0000
0000
0000
0100
1000
0100
0000
,
1000
0000
1000
0100
0000
0000
0000
0000
,
1000
0000
0001
0000
0100
0000
0000
0001
,
0000
1000
0000
0000
0000
0000
0000
0000
,
0001
0000
0000
0000
0100
0000
0000
1000
,
0000
0001
0100
0000
0000
0000
0000
0000
,
1000
0000
0000
0100
0000
0010
0000
2002
,
0000
0000
3003
0000
,
0010
0000
0000
0000
0000
0100
0000
0100
,
0010
1000
0000
0000
0000
0001
0000
1000
,
0100
0000
0000
0000
0000
0100
0000
0010
,
0001
0000
0000
0000
0000
0001
0000
1000
,
0010
0000
0000
0000
0000
0100
0000
0100
,
0010
0001
0000
0000
0000
1000
0000
0001
,
0100
0000
0000
0000
0000
0100
0000
0010
,
1000
0000
0000
0000
0000
1000
0000
0001
,
1001
1000
0000
0100
,
1100
1000
0000
0100
,
1000
0000
1000
0000
0000
0100
0010
0000
,
0001
0000
0100
0010
1000
0000
0000
0000
,
1001
0001
0000
0100
,
0101
0001
0000
0100
,
0001
0000
0001
0000
0000
0100
0010
0000
,
1000
0000
0100
0010
0001
0000
0000
0000
,
0000
0000
0000
0000
,
1100
1100
0100
0100
,
0010
0000
0001
0010
0100
0000
0000
0000
,
0001
0000
0010
0000
0001
0000
0001
0100
,
0100
0000
0100
0200
0000
0000
0300
0000
,
0101
0101
0100
0100
,
0010
0000
1000
0010
0100
0000
0000
0000
,
1000
0000
0001
0000
,
0001
1000
0001
0000
0100
0000
0000
0000
,
0000
1000
0000
1000
,
0000
0100
0000
0100
,
0001
0001
0100
0100
,
0001
0000
1000
0001
0000
0000
0000
0000
,
0000
0001
0000
0001
,
0000
0010
0000
0010
,
1000
1000
0100
0100
,
1000
0000
0001
2002
0000
0000
0000
0000
,
3003
0000
0000
0000
,
0000
0000
0000
0000
;

//---------------dance-single - ----------------
#NOTEDATA:;
#CHARTNAME:;
#STEPSTYPE:dance-single;
#DESCRIPTION:;
#CHARTSTYLE:;
#DIFFICULTY:Hard;
#METER:8;
#RADARVALUES:0.328365,0.417919,0.089554,0.049752,0.000000,231.000000,222.000000,9.000000,5.000000,0.000000,0.000000,0.000000,0.000000,0.000000,0.328365,0.417919,0.089554,0.049752,0.000000,231.000000,222.000000,9.000000,5.000000,0.000000,0.000000,0.000000,0.000000,0.000000;
#CREDIT:;
#DISPLAYBPM:139.000000;
#NOTES:
0000
0000
0000
0000
,
0000
0000
0000
0000
,
0000
0000
0000
0000
,
0000
0000
0000
0000
,
0000
0000
0000
0000
,
1000
0000
0000
1000
0100
0000
0000
0010
,
0000
0100
0000
1000
0001
0000
0100
0000
,
0010
1000
0010
0000
0100
0001
0100
0000
,
0001
1000
0001
0100
0000
0100
0000
0000
,
0001
0100
1000
0000
0100
0001
0000
1000
,
0000
0100
0000
0001
1000
0000
0000
0000
,
1000
0000
0000
0010
0100
0000
0000
0001
,
0000
1000
0100
0000
0001
0000
0000
0000
,
0001
0000
0000
0001
0100
0000
0000
0010
,
0000
0100
0000
0001
1000
0000
0100
0000
,
0010
0001
0010
0000
0100
1000
0100
0000
,
1000
0001
1000
0100
0000
0100
0000
0000
,
1000
0100
0001
0000
0100
1000
0000
0001
,
0000
0100
0000
1000
0001
0000
0000
0000
,
0001
0000
0000
0010
0100
0000
0000
1000
,
0000
0001
0100
0000
1000
0000
0000
0000
,
1000
0001
0000
0100
0000
0001
0000
2000
,
0002
0000
3003
0000
,
0010
0100
0000
0001
0000
1000
0000
0100
,
0010
0001
0000
0100
0000
0010
0000
1000
,
0001
0100
0000
0010
0000
0100
0000
0001
,
1000
0100
0000
0010
0000
0001
0000
1000
,
0010
0100
0000
0001
0000
1000
0000
0100
,
0010
0001
0000
0100
0000
0010
0000
1000
,
0001
0100
0000
0010
0000
0100
0000
0001
,
1000
0100
0000
0010
0000
0001
0000
1000
,
1100
0000
1000
0000
0000
0010
0100
0000
,
0101
0001
0100
0000
0000
0010
0100
0000
,
1000
0010
1000
0000
0000
0100
0010
0000
,
0001
0010
1000
0010
0001
0000
0000
0000
,
0101
0000
0001
0000
0000
0010
0100
0000
,
1100
1000
0100
0000
0000
0010
0100
0000
,
0001
0010
0001
0000
0000
0100
0010
0000
,
1000
0010
0001
0010
1000
0000
0000
0000
,
0000
0000
0000
0000
,
1100
0000
1100
0000
1000
0100
1000
0000
,
0001
0010
0100
0010
0001
0000
1000
0000
,
0001
0100
0010
1000
0001
0100
0001
0100
,
0100
0100
0100
0200
0000
0000
0300
0000
,
0101
0000
0101
0000
0001
0100
0001
0000
,
1000
0010
0100
0010
1000
0000
0001
0000
,
1000
0000
0100
0000
,
0001
0100
0001
0000
1000
0000
0000
0000
,
0000
0000
1000
0000
0000
1000
0100
0000
,
0000
0000
0100
0000
0000
0100
0010
0000
,
0001
0010
0001
0000
0100
0000
0100
0000
,
0001
0000
1000
0001
0000
0000
0000
0000
,
0000
0000
0001
0000
0000
0001
0100
0000
,
0000
0000
0100
0000
0000
0100
0010
0000
,
1000
0010
1000
0000
0100
0000
0100
0000
,
1000
0000
0001
2002
0000
0000
0000
0000
,
3003
0000
0000
0000
,
0000
0000
0000
0000
;

//---------------dance-double - ----------------
#NOTEDATA:;
#CHARTNAME:;
#STEPSTYPE:dance-double;
#DESCRIPTION:;
#CHARTSTYLE:;
#DIFFICULTY:Easy;
#METER:4;
#RADARVALUES:0.129356,0.192417,0.009950,0.000000,0.000000,91.000000,90.000000,1.000000,0.000000,0.000000,0.000000,0.000000,0.000000,0.000000,0.129356,0.192417,0.009950,0.000000,0.000000,91.000000,90.000000,1.000000,0.000000,0.000000,0.000000,0.000000,0.000000,0.000000;
#CREDIT:;
#DISPLAYBPM:139.000000;
#NOTES:
00000000
00000000
00000000
00000000
,
00000000
00000000
00000000
00000000
,
00000000
00000000
00000000
00000000
,
00000000
00000000
00000000
00000000
,
00000000
00000000
00000000
00000000
,
10000000
00000000
00010000
00000000
,
01000000
00000000
00000000
00000000
,
00001000
00000000
00010000
00000000
,
00000100
00001000
00000000
00000000
,
00000001
00000100
00001000
00000000
,
00010000
00000000
00000000
00000000
,
01000000
00000000
00010000
00000000
,
00001000
00000100
00000000
00000000
,
00000001
00000000
00001000
00000000
,
00000100
00000000
00000000
00000000
,
00010000
00000000
00001000
00000000
,
01000000
00010000
00000000
00000000
,
10000000
01000000
00010000
00000000
,
00001000
00000000
00000000
00000000
,
00000100
00000000
00001000
00000000
,
00010000
01000000
00000000
00000000
,
10000000
00000000
00010000
00000000
,
01000000
00000000
00000000
00000000
,
00001000
00000000
00000000
00000000
,
00010000
00000000
00000000
00000000
,
00000100
00000000
00000000
00000000
,
00001000
00000000
00000000
00000000
,
00010000
00000000
00000000
00000000
,
00001000
00000000
00000000
00000000
,
01000000
00000000
00000000
00000000
,
00010000
00000000
00000000
00000000
,
00010000
01000000
00000000
00000000
,
00001000
00010000
00000000
00000000
,
00000100
00001000
00000000
00000000
,
00000001
00000010
00000000
00000000
,
00001000
00000010
00000000
00000000
,
00010000
00001000
00000000
00000000
,
00100000
00010000
00000000
00000000
,
10010000
00000000
00000000
00000000
,
00000000
00000000
00000000
00000000
,
01000000
01000000
00001000
00001000
,
00100000
00000000
00100000
00000000
,
00001000
00001000
00010000
00010000
,
00000000
00000000
00000000
00000000
,
00000100
00000100
00010000
00010000
,
00000010
00000000
00000010
00000000
,
00010000
00000000
00001000
00000000
,
01000000
00000000
00000000
00000000
,
00000000
10000000
00000000
10000000
,
00000000
01000000
00000000
01000000
,
00010000
00000000
00001000
00000000
,
00000100
00000000
00000000
00000000
,
00000000
00000001
00000000
00000001
,
00000000
00000100
00000000
00000100
,
00001000
00000000
00010000
00000000
,
10000000
00010000
00000000
00000000
,
00000000
00000000
00000000
00000000
;

//---------------dance-double - ----------------
#NOTEDATA:;
#CHARTNAME:;
#STEPSTYPE:dance-double;
#DESCRIPTION:;
#CHARTSTYLE:;
#DIFFICULTY:Medium;
#METER:6;
#RADARVALUES:0.224596,0.306474,0.079604,0.049752,0.000000,158.000000,150.000000,8.000000,5.000000,0.000000,0.000000,0.000000,0.000000,0.000000,0.224596,0.306474,0.079604,0.049752,0.000000,158.000000,150.000000,8.000000,5.000000,0.000000,0.000000,0.000000,0.000000,0.000000;
#CREDIT:;
#DISPLAYBPM:139.000000;
#NOTES:
00000000
00000000
00000000
00000000
,
00000000
00000000
00000000
00000000
,
00000000
00000000
00000000
00000000
,
00000000
00000000
00000000
00000000
,
00000000
00000000
00000000
00000000
,
01000000
00000000
00010000
00000000
,
00100000
00001000
00000000
00000000
,
00010000
00000000
00000000
00000000
00000100
00000010
00000001
00000000
,
00000100
00000000
00000100
00001000
00000000
00000000
00000000
00000000
,
00010000
00100000
10000000
00000000
,
10000000
00010000
00000000
00000000
,
01000000
00000000
00000000
00000000
00001000
00000000
00000000
00010000
,
00000000
00000100
00000001
00000000
00000000
00000000
00000000
00000000
,
00000100
00000000
00001000
00000000
,
00000010
00010000
00000000
00000000
,
00001000
00000000
00000000
00000000
01000000
00100000
10000000
00000000
,
01000000
00000000
01000000
00010000
00000000
00000000
00000000
00000000
,
00001000
00000010
00000001
00000000
,
00000001
00001000
00000000
00000000
,
00000100
00000000
00000000
00000000
00010000
00000000
00000000
00001000
,
00000000
00010000
01000000
00000000
10000000
00000000
00000000
00000000
,
10000000
00000000
00000000
01000000
00000000
00010000
00000000
00002200
,
00000000
00000000
00003300
00000000
,
00000010
00000000
00000000
00000000
00000001
00000000
00000000
00000100
,
00001000
00000000
00000000
00000000
00010000
00000000
00000000
00100000
,
10000000
00000000
00000000
00000000
01000000
00000000
00000000
00010000
,
00001000
00000000
00000010
00000000
,
00000100
00000000
00000000
00000000
00000001
00000000
00000000
00000010
,
00001000
00000000
00000000
00000000
00010000
00000000
00000000
01000000
,
10000000
00000000
00000000
00000000
00100000
00000000
00000000
00010000
,
00001000
00000000
00000000
00000000
00000000
00000100
00000000
00000001
,
00001001
00000001
00000000
00000100
,
00000100
00001000
00000000
00010000
,
01000000
00000000
01000000
00000000
00000000
10000000
01000000
00000000
,
00100000
00000000
00001000
00010000
00000100
00000000
00000000
00000000
,
00001001
00000001
00000000
00000010
,
00000010
00001000
00000000
00010000
,
00100000
00000000
00100000
00000000
00000000
10000000
00100000
00000000
,
01000000
00000000
00001000
00010000
00000010
00000000
00000000
00000000
,
00000000
00000000
00000000
00000000
,
00000011
00000011
00001000
00001000
,
00000100
00000000
00010000
00001000
00100000
00000000
00000000
00000000
,
00010000
00000000
10000000
00000000
00100000
00000000
01000000
00001000
,
00001000
00000000
00001000
00002000
00000000
00000000
00003000
00000000
,
10100000
10100000
00010000
00010000
,
01000000
00000000
00001000
00010000
00000010
00000000
00000000
00000000
,
00001000
00000000
00000001
00000000
,
00001000
00000001
00001000
00000000
00000001
00000000
00000000
00000000
,
00000000
00000010
00000000
00010000
,
00000000
00001000
00000000
01000000
,
00100000
00100000
10000000
10000000
,
00010000
00000000
01000000
00001000
00000000
00000000
00000000
00000000
,
00000000
00100000
00000000
00001000
,
00000000
00010000
00000000
00000100
,
00001000
00001000
00000001
00000001
,
00001000
00000000
00000100
00020200
00000000
00000000
00000000
00000000
,
00030300
00000000
00000000
00000000
,
00000000
00000000
00000000
00000000
;

//---------------dance-double - ----------------
#NOTEDATA:;
#CHARTNAME:;
#STEPSTYPE:dance-double;
#DESCRIPTION:;
#CHARTSTYLE:;
#DIFFICULTY:Hard;
#METER:8;
#RADARVALUES:0.307042,0.362196,0.069653,0.049752,0.000000,216.000000,209.000000,7.000000,5.000000,0.000000,0.000000,0.000000,0.000000,0.000000,0.307042,0.362196,0.069653,0.049752,0.000000,216.000000,209.000000,7.000000,5.000000,0.000000,0.000000,0.000000,0.000000,0.000000;
#CREDIT:;
#DISPLAYBPM:139.000000;
#NOTES:
00000000
00000000
00000000
00000000
,
00000000
00000000
00000000
00000000
,
00000000
00000000
00000000
00000000
,
00000000
00000000
00000000
00000000
,
00000000
00000000
00000000
00000000
,
10000000
01000000
00010000
00000000
,
00001000
00010000
00000100
00000000
,
00000010
00000001
00000010
00000000
00000100
00001000
00000100
00000000
,
00010000
00001000
00010000
00100000
00000000
10000000
00000000
00000000
,
01000000
00100000
00010000
00000000
00001000
00000000
00000100
00000000
,
00000010
00000001
00000100
00000000
,
00001000
00010000
00100000
00000000
,
00010000
00001000
00000010
00000000
,
00000001
00000100
00001000
00000000
,
00010000
00001000
01000000
00000000
,
00100000
10000000
00100000
00000000
01000000
00010000
01000000
00000000
,
00001000
00010000
00001000
00000010
00000000
00000001
00000000
00000000
,
00000100
00000010
00001000
00000000
00010000
00000000
01000000
00000000
,
00100000
10000000
01000000
00000000
,
00010000
00001000
00000010
00000000
,
00001000
00010000
00100000
00000000
,
10000000
00010000
00000000
01000000
00000000
00001000
00000000
00020000
,
00000200
00000000
00030300
00000000
,
00000010
00000001
00000000
00000100
00000000
00001000
00000000
00010000
,
00100000
10000000
00000000
01000000
00000000
00100000
00000000
00010000
,
00001000
00000010
00000000
00000100
00000000
00001000
00000000
00010000
,
00100000
01000000
00000000
00001000
00000000
00010000
00000000
00000000
,
00100000
10000000
00000000
01000000
00000000
00010000
00000000
00001000
,
00000010
00000001
00000000
00000100
00000000
00000010
00000000
00001000
,
00010000
00100000
00000000
01000000
00000000
00010000
00000000
00001000
,
00000010
00000100
00000000
00010000
00000000
00001000
00000000
00000000
,
00110000
00000000
10000000
00000000
00000000
00100000
01000000
00000000
,
00001000
00010000
00001000
00000000
00000000
00000100
00000001
00000000
,
00000001
00000010
00000001
00000000
00000000
00001000
00000100
00000000
,
00010000
00100000
10000000
00100000
00010000
00000000
00000000
00000000
,
01010000
00000000
10000000
00000000
00000000
01000000
00100000
00000000
,
00001000
00010000
00001000
00000000
00000000
00000010
00000001
00000000
,
00000001
00000100
00000001
00000000
00000000
00001000
00000010
00000000
,
00010000
01000000
10000000
01000000
00010000
00000000
00000000
00000000
,
00000000
00000000
00000000
00000000
,
00001010
00000000
00001010
00000000
00000001
00000100
00000001
00000000
,
00000010
00000100
00010000
00000000
00001000
00000000
00100000
00000000
,
00010000
01000000
00100000
00000000
10000000
00010000
01000000
00001000
,
00001000
00001000
00001000
00002000
00000000
00000000
00003000
00000000
,
00110000
00000000
00110000
00000000
10000000
01000000
10000000
00000000
,
00100000
01000000
00001000
00000000
00010000
00000000
00000010
00000000
,
00001000
00000000
00000001
00000000
,
00000010
00000100
00000010
00000000
00001000
00000000
00000000
00000000
,
00000000
00000000
00000010
00000000
00000000
00010000
00001000
00000000
,
00000000
00000000
01000000
00000000
00000000
00100000
10000000
00000000
,
00010000
00100000
00010000
00000000
01000000
00000000
01000000
00000000
,
00001000
00000000
00010000
00001000
00000000
00000000
00000000
00000000
,
00000000
00000000
00000100
00000000
00000000
00000010
00000001
00000000
,
00000000
00000000
00000100
00000000
00000000
00001000
00010000
00000000
,
00100000
10000000
00100000
00000000
01000000
00000000
01000000
00000000
,
00001000
00000000
01000000
02002000
00000000
00000000
00000000
00000000
,
03003000
00000000
00000000
00000000
,
00000000
00000000
00000000
00000000
;

//---------------dance-single - ----------------
#NOTEDATA:;
#CHARTNAME:;
#STEPSTYPE:dance-single;
#DESCRIPTION:;
#CHARTSTYLE:;
#DIFFICULTY:Challenge;
#METER:16;
#RADARVALUES:1.002152,1.005617,0.328365,0.189058,1.353261,705.000000,672.000000,33.000000,19.000000,0.000000,0.000000,0.000000,0.000000,0.000000,1.002152,1.005617,0.328365,0.189058,1.353261,705.000000,672.000000,33.000000,19.000000,0.000000,0.000000,0.000000,0.000000,0.000000;
#CREDIT:;
#DISPLAYBPM:139.000000;
#NOTES:
// measure 0
0000
0000
0000
0000
,  // measure 1
0000
0000
0000
0000
,  // measure 2
0000
0000
0000
0000
,  // measure 3
0000
0000
0000
0000
,  // measure 4
0000
0000
0012
1003
,  // measure 5
1000
0010
0100
0000
0010
0001
0100
0001
0010
0000
0011
0000
0100
1000
0010
0000
,  // measure 6
0100
0001
1000
0000
0010
1000
0001
1000
0100
0000
0000
0000
1100
0000
1000
0100
,  // measure 7
0010
0000
0001
0100
0010
0000
1000
0010
0100
0001
1000
0000
1001
0000
0001
0010
,  // measure 8
0100
0000
0000
0000
0000
0000
1000
0000
0000
0100
0000
0000
0010
0000
0000
0000
0000
0000
0001
0000
0010
0000
0100
0000
1000
0000
0000
0100
0000
0000
0010
0000
0000
0001
0000
0000
1000
0000
0000
0010
0000
0000
0100
0000
0000
0001
0000
0000
,  // measure 9
0010
0000
0011
0000
0001
0010
0100
1000
0010
0000
1010
0000
1000
0100
0010
0001
,  // measure 10
1000
0000
1001
0000
0001
0100
0010
1000
0100
0000
1100
0000
1000
0010
0100
0001
,  // measure 11
0010
0000
0001
0010
0100
0000
0010
0100
1000
0000
1000
0100
0010
0000
0100
0010
,  // measure 12
0001
0010
1000
0000
1001
0000
0001
0100
0010
1000
0100
0000
1100
0000
1000
0010
,  // measure 13
0100
0001
1000
0000
0100
0010
1000
0000
0010
0100
0001
0000
1000
0010
0100
0001
,  // measure 14
0010
0001
1000
0001
0100
0000
0001
1000
0100
0010
0001
0000
1001
0000
1000
0010
,  // measure 15
0001
0000
0100
0001
1000
0000
0010
0100
0001
0000
1000
0100
0010
0000
1000
0001
,  // measure 16
0010
0000
0000
0001
0000
0000
1000
0000
0000
0001
0000
0000
0100
0000
0000
0000
0000
0000
1000
0000
0100
0000
0010
0000
0001
0000
0000
0010
0000
0000
0100
0000
0000
1000
0000
0000
0010
0000
0000
0100
0000
0000
0001
0000
0000
1000
0000
0000
,  // measure 17
0100
0000
0000
0010
0000
0000
1000
0000
0000
0010
0000
0000
0100
0000
0000
0010
0000
0000
0001
0000
0000
0010
0000
0000
1000
0000
0000
0010
0000
0000
0100
0000
0000
0001
0000
0000
1000
0000
0100
0000
0010
0000
0001
0000
0000
0010
0000
0000
,  // measure 18
0100
0010
1000
0010
0100
0000
0001
0010
0100
1000
0010
0000
0011
0000
0001
1000
,  // measure 19
0010
0000
1000
0001
0010
0000
0100
0001
1000
0000
0001
0100
1000
0000
0010
0100
,  // measure 20
0001
1000
0010
0100
0001
0000
0010
1000
0100
0000
0010
1000
0001
0100
0010
1000
,  // measure 21
0020
0000
1000
1000
0000
0001
0031
0000
,  // measure 22
2002
0000
0003
0000
0002
0000
0000
0000
3000
0000
0000
0000
1003
0000
0010
0001
,  // measure 23
2000
0010
3001
0000
0011
0000
1000
0001
0100
0000
1000
0010
0100
0000
1000
0100
,  // measure 24
0010
0000
0000
0000
0001
0000
0100
0000
0010
0000
0000
0000
0001
0000
0010
0000
0100
0000
0000
0000
1000
0000
0010
0000
0100
0000
0001
0000
0010
0001
0010
0000
,  // measure 25
0002
0010
1003
0000
0101
0000
0010
1000
0001
0000
0100
0010
1000
0000
0010
0100
,  // measure 26
0001
0000
0000
0000
1000
0000
0100
0000
0010
0000
0000
0000
0001
0000
0100
0000
1000
0000
0000
0000
0010
0000
0100
0000
0001
0000
0000
0000
0010
0100
0010
0000
,  // measure 27
0200
0001
0310
0000
1100
0000
1000
0010
0100
0000
0001
0100
0010
0000
1000
0010
,  // measure 28
0001
0000
0000
0000
0001
0000
0010
0000
0100
0000
0000
0000
0010
0000
0100
0000
1000
0000
0000
0000
1000
0000
0100
0000
0010
0000
0000
0000
0001
0010
0001
0000
,  // measure 29
0020
0100
0031
0000
0011
0000
0001
0100
0010
0000
1000
0010
0100
0000
0001
0100
,  // measure 30
0010
0000
0001
0000
1000
0000
0010
0000
0100
0000
0010
0000
0001
0000
1000
0000
0100
0000
0000
0000
0010
0000
0100
0000
0001
0000
0000
0000
1000
0100
1000
0000
,  // measure 31
0100
0010
1000
0000
1010
0000
0001
0100
1000
0000
1100
0000
1010
0000
0010
1000
,  // measure 32
0001
0000
0000
0000
0100
0000
0010
0000
1000
0000
0000
0000
0010
0000
0100
0000
0001
0000
0000
0000
1000
0000
0100
0000
0010
0000
0001
0000
0010
0100
0010
0000
,  // measure 33
0100
0010
1000
0000
1001
0000
0001
0010
0100
0000
0110
0000
1010
0000
1000
0100
,  // measure 34
0010
0000
0000
0000
0010
0000
0001
0000
0100
0000
0000
0000
0010
0000
0001
0000
0100
0000
0000
0000
1000
0000
0100
0000
0010
0000
0001
0000
1000
0001
1000
0000
,  // measure 35
0001
0010
0100
0000
0110
0000
0010
1000
0001
0000
0101
0000
1100
0000
1000
0001
,  // measure 36
0010
0000
0000
0000
0100
0000
0001
0000
1000
0000
0000
0000
0010
0000
0100
0000
0001
0000
0000
0000
1000
0000
0010
0000
0100
0000
0010
0000
0001
0010
0001
0000
,  // measure 37
0010
0100
1000
0000
1100
0000
1000
0010
0001
0000
0101
0000
0011
0000
0001
0010
,  // measure 38
1000
0000
0000
0000
0001
0000
0010
0000
1000
0000
0000
0000
0001
0000
0100
0000
1000
0000
0000
0000
0001
0000
0100
0000
1000
0000
0100
0000
0010
0001
0010
0000
,  // measure 39
0001
0100
0001
0100
0010
1000
0010
1000
0100
1000
0100
1000
0010
0100
0010
0100
,  // measure 40
0001
0000
0010
0000
0100
0000
0000
0000
0010
0000
0100
0000
1000
0000
0000
0000
1000
0100
1000
0000
0100
0000
0010
0000
0001
0010
0001
0000
0010
0000
0100
0000
,  // measure 41
1000
0000
0000
0000
0010
0000
0100
0000
0001
0000
0000
0000
1000
0000
0010
0000
0100
0000
0000
0000
0001
0000
0100
0000
0010
0000
0000
0000
1000
0001
1000
0000
,  // measure 42
0001
0000
0010
0000
0100
0000
0001
0000
1000
0000
0010
0000
0100
0000
0010
0000
0001
0100
0001
0000
0100
0000
0010
0000
1000
0010
1000
0000
0010
0000
0100
0000
,  // measure 43
0001
0000
0000
0000
0000
0000
1000
0000
0000
0000
0000
0000
0000
0000
0000
0000
0000
0000
0000
0000
0000
0000
0000
0000
0001
0000
0000
0000
0000
0000
1000
0000
0000
0000
0000
0000
0000
0000
0000
0000
0000
0000
0000
0000
0000
0000
0000
0000
0001
0000
0000
0000
0000
0000
0000
0000
0010
0000
0000
0000
0000
0000
0000
0000
0100
0000
0000
0000
0000
0000
0000
0000
1000
0000
0000
0000
0000
0000
0000
0000
0000
0000
0000
0000
0100
0000
0000
0000
0000
0000
0000
0000
0000
0000
0000
0000
0020
0000
0000
0000
0000
0000
0000
0000
0000
0000
0000
0000
0000
0000
0000
0000
0000
0000
0000
0000
0000
0000
0000
0000
0030
0000
0000
0000
0000
0000
0000
0000
0000
0000
0000
0000
0000
0000
0000
0000
0000
0000
0000
0000
0000
0000
0000
0000
0101
0000
0000
0000
0000
0000
0000
0000
0000
0000
0000
0000
0000
0000
0000
0000
0000
0000
0000
0000
0000
0000
0000
0000
0000
0000
0000
0000
0000
0000
0000
0000
0000
0000
0000
0000
0000
0000
0000
0000
0000
0000
0000
0000
0000
0000
0000
0000
,  // measure 44
1000
0000
0100
0000
0001
0000
0000
0000
0001
0000
0100
0000
1000
0000
0000
0000
1000
0010
1000
0000
0010
0000
0100
0000
0001
0010
0001
0000
0010
0000
0100
0000
,  // measure 45
1000
0000
0000
0000
0010
0000
0100
0000
0001
0000
0000
0000
1000
0000
0100
0000
0010
0000
0000
0000
0001
0000
0010
0000
0100
0000
0000
0000
1000
0010
1000
0000
,  // measure 46
0010
0000
0001
0000
1000
0000
0001
0000
0100
0000
0010
0000
1000
0000
0100
0000
0010
0001
0010
0000
0001
0000
0010
0000
0100
0010
0100
0000
0010
0000
1000
0000
,  // measure 47
0100
0000
0000
0000
0000
0000
0010
0000
0000
0000
0000
0000
0000
0000
0000
0000
0000
0000
0000
0000
0000
0000
0000
0000
0100
0000
0000
0000
0000
0000
0010
0000
0000
0000
0000
0000
0000
0000
0000
0000
0000
0000
0000
0000
0000
0000
0000
0000
0100
0000
0000
0000
0000
0000
0000
0000
0010
0000
0000
0000
0000
0000
0000
0000
1000
0000
0000
0000
0000
0000
0000
0000
0001
0000
0000
0000
0000
0000
0000
0000
0000
0000
0000
0000
0010
0000
0000
0000
0000
0000
0000
0000
0000
0000
0000
0000
0200
0000
0000
0000
0000
0000
0000
0000
0000
0000
0000
0000
0000
0000
0000
0000
0000
0000
0000
0000
0000
0000
0000
0000
0300
0000
0000
0000
0000
0000
0000
0000
0000
0000
0000
0000
0000
0000
0000
0000
0000
0000
0000
0000
0000
0000
0000
0000
1010
0000
0000
0000
0000
0000
0000
0000
0000
0000
0000
0000
0000
0000
0000
0000
0000
0000
0000
0000
0000
0000
0000
0000
0000
0000
0000
0000
0000
0000
0000
0000
0000
0000
0000
0000
0000
0000
0000
0000
0000
0000
0000
0000
0000
0000
0000
0000
,  // measure 48
1000
0100
0010
0000
1000
0010
0100
0000
0001
0100
0010
0000
0001
0010
0100
1000
,  // measure 49
0010
0000
0000
0000
0000
0000
0100
0000
0000
0001
0000
0000
1000
0000
0000
0000
0000
0000
0010
0000
0000
0100
0000
0000
0001
0000
0000
0000
0000
0000
1000
0000
0000
0100
0000
0000
0010
0000
0000
0000
0000
0000
0001
0000
0010
0000
0100
0000
,  // measure 50
1000
0000
0000
0100
0000
0000
0010
0000
0000
0001
0000
0000
1000
0000
0000
0010
0000
0000
0100
0000
0000
0001
0000
0000
1000
0000
0000
0010
0000
0000
0001
0000
0000
0100
0000
0000
0010
0000
0000
1000
0000
0000
0100
0000
0010
0000
0001
0000
,  // measure 51
0010
0001
0000
0000
0010
0001
0000
0000
0100
0000
0010
0000
1000
0000
0010
0000
0002
0000
0000
0000
0013
0000
0000
0000
1100
0000
0000
0000
0000
0000
0000
0000
,  // measure 52
1000
0010
0100
0000
0010
0100
0001
0000
1000
0010
0100
0000
0001
0010
0100
1000
,  // measure 53
0010
0000
0001
0000
0100
0000
0010
0000
1000
0000
0100
0000
0001
0000
0000
0010
0000
0000
0100
0000
0000
1000
0000
0000
0100
0000
0000
0010
0000
0000
0001
0000
0000
0100
0000
0000
0010
0000
0000
1000
0000
0000
0100
0000
0000
0010
0000
0000
,  // measure 54
0001
0000
0100
0010
1000
0000
0010
0100
0001
0000
1000
0100
0010
0000
0001
1000
,  // measure 55
0010
0001
0000
0000
0010
0100
0000
0000
0010
0000
1000
0000
0001
0000
0100
0000
2000
0000
0000
0000
3100
0000
0000
0000
0011
0000
0001
0000
0010
0000
0100
0000
,  // measure 56
2000
0000
0000
3200
0000
0000
0302
0000
0000
0020
0003
0000
0032
0000
0000
2000
,  // measure 57
0000
0000
0000
3003
;
