#TITLE:Fearless;
#SUBTITLE:(Taylor's Version);
#ARTIST:Taylor Swift;
#TITLETRANSLIT:;
#SUBTITLETRANSLIT:;
#ARTISTTRANSLIT:;
#GENRE:;
#CREDIT:;
#BANNER:;
#BACKGROUND:Fearless (Taylor's Version)-bg.png;
#LYRICSPATH:;
#CDTITLE:;
#MUSIC:Fearless (Taylor's Version).mp3;
#OFFSET:0.000000;
#SAMPLESTART:100.000000;
#SAMPLELENGTH:12.000000;
#SELECTABLE:YES;
#BPMS:0.000000=104.000000
,4.000000=100.000000
,189.750000=200.000000
,190.500000=100.000000
,291.750000=75.000000
,303.750000=50.000000
,309.750000=200.000000
,310.750000=100.000000
;
#STOPS:189.750000=1.050000,
190.250000=0.377000,
309.750000=0.900000,
310.750000=0.600000
;
#BGCHANGES:0.021=Fearless (Taylor's Version).mp4=1.000=0=0=1=====,
0.500=Fearless (Taylor's Version).mp4=1.000=0=0=1=====,
99999=-nosongbg-=1.000=0=0=0 // don't automatically add -songbackground-
;
#KEYSOUNDS:;
#ATTACKS:;

//---------------dance-single - ----------------
#NOTES:
     dance-single:
     :
     Hard:
     15:
     0.453541,0.621473,0.277845,0.396337,1.215571,777.000000,709.000000,68.000000,97.000000,0.000000,0.000000,0.453541,0.621473,0.277845,0.396337,1.215571,777.000000,709.000000,68.000000,97.000000,0.000000,0.000000:
// measure 0
0000
0000
0000
0000
,  // measure 1
0000
0000
0000
0000
,  // measure 2
0000
0000
0000
0000
,  // measure 3
0000
0000
0000
0000
,  // measure 4
0000
0000
0000
0000
0000
0000
0000
0001
0000
0010
0000
0001
0000
0000
0000
1000
,  // measure 5
0000
0100
0000
1000
0000
0000
0000
0010
0000
1000
0000
0001
0000
0010
0000
1000
,  // measure 6
0000
0010
0000
0001
0000
0100
0000
0010
0000
1000
0000
0001
0000
0100
0000
0010
,  // measure 7
0000
1000
0000
0010
0000
0100
0000
0002
0000
0000
0000
0023
0000
0000
0000
0230
,  // measure 8
0000
0000
0000
2300
0000
0000
0000
3001
0000
1000
0001
1000
0000
0001
0000
0100
,  // measure 9
0000
0100
0000
0100
0010
0100
0000
0010
0000
1000
0010
1000
0000
0001
0000
0100
,  // measure 10
0000
0001
0000
0011
0000
0000
0000
1010
0000
0000
0000
1000
0001
1000
0000
0001
,  // measure 11
0000
0000
0000
1000
0000
0001
0000
0100
0000
0010
0100
0010
0000
1000
0000
0001
,  // measure 12
0000
0010
0000
0001
0000
0010
0000
0110
0000
0000
0000
0100
0010
0100
0000
1000
,  // measure 13
0000
0001
0000
0001
0000
0001
0000
0020
0000
0001
0000
0100
0000
0031
0000
0000
,  // measure 14
0000
1100
0000
0000
0000
0101
0000
0000
0000
0000
0000
0001
0000
0010
0000
0100
,  // measure 15
0000
1000
0000
0010
0000
0100
0000
0002
0000
1000
0000
1000
0003
0000
0000
0000
,  // measure 16
0000
0000
0000
1001
0000
0000
0000
0001
0010
0001
0000
0100
0000
0010
1000
0010
,  // measure 17
0000
0001
0000
0101
0000
0001
1000
0001
0000
0010
0000
0100
1000
0100
0000
1000
,  // measure 18
0000
0002
0000
2003
0000
3002
0000
0203
0000
0302
0000
2003
0000
3020
0000
0230
,  // measure 19
0000
0300
0000
0101
0000
0000
0000
2000
0000
0000
0000
3020
0000
0000
0000
0032
,  // measure 20
0000
0000
0000
0203
0000
0000
0000
0310
0000
1000
0010
1000
0000
0100
0000
0010
,  // measure 21
0000
0010
0000
0010
0000
0000
0000
0110
0000
0100
0001
0100
0000
1000
0000
0001
,  // measure 22
0000
0010
0000
0100
0000
2000
0000
0000
0000
3001
0000
1000
0000
0001
0000
0100
,  // measure 23
0000
0000
0000
0101
0000
0000
0000
0100
0000
0100
0000
1000
0000
1000
0000
0001
,  // measure 24
0000
0000
0000
0011
0000
1000
0000
0001
0000
0100
0000
0010
0000
1000
0000
1100
,  // measure 25
0000
0000
0000
0101
0000
0000
0000
0100
0000
0100
0000
0100
0000
0000
0000
0010
,  // measure 26
0000
0100
0000
0010
0000
2000
0000
0000
0000
3000
0000
0001
0000
1000
0000
0010
,  // measure 27
0000
0010
0000
0010
0000
0000
0000
0100
0001
1000
0000
0010
0100
0001
0000
1000
,  // measure 28
0100
0010
0000
0100
0001
1000
0001
0100
0000
0010
0000
1000
0000
0001
0000
0010
,  // measure 29
0000
0000
0000
0012
0000
0000
0000
1003
0000
0000
0000
0101
0000
0000
0000
1000
,  // measure 30
0001
0100
0000
0001
1000
0100
0001
1000
0000
0001
1000
0001
0000
0100
0000
0010
,  // measure 31
0000
1000
0010
1000
0000
0100
0000
0020
0000
0000
0000
0130
0000
0000
0000
0022
,  // measure 32
0000
0033
0000
2002
0000
3003
0000
1100
0000
1000
0001
1000
0000
0001
0000
0100
,  // measure 33
0000
0001
0000
1000
0010
0001
0000
0100
0000
0000
0000
2000
0000
0100
0000
0100
,  // measure 34
0000
0001
0000
0001
0000
0010
0000
3010
0000
0000
0000
1010
0000
1000
0000
0001
,  // measure 35
0100
0001
0000
1000
0010
0100
0001
0020
0000
0000
0000
0130
0000
0000
0000
2020
,  // measure 36
0000
3030
0000
2002
0000
0000
3003
0000
0000
1000
0000
0001
0000
0100
0000
0010
,  // measure 37
0000
0000
0000
0110
0000
0000
0000
1010
0000
0001
0000
0010
0000
0001
0000
1000
,  // measure 38
0000
0010
0000
0100
0000
0001
0000
0000
0000
1000
0000
0001
0000
0100
0000
0010
,  // measure 39
0000
1000
0000
0010
0000
0000
0000
0002
0000
0000
0000
2003
0000
0000
0000
3200
,  // measure 40
0000
0000
0000
0320
0000
0000
0000
0031
0000
1000
0001
1000
0000
0001
0000
0010
,  // measure 41
0100
0010
0000
1000
0001
1000
0000
0001
0000
0100
0000
0010
0000
1000
0000
0010
,  // measure 42
0000
0100
0000
0001
0000
0010
0000
1000
0000
0100
0000
0010
0000
0001
0000
0100
,  // measure 43
0000
0100
0000
0000
0000
1001
0000
0000
0000
0010
0000
0010
0000
0100
0000
0100
,  // measure 44
0000
1000
0000
0000
0000
2002
0000
0000
0000
3003
0000
0001
0000
0010
0000
0001
,  // measure 45
0000
0100
0000
0010
0000
1000
0000
0000
0000
0100
1000
0100
0000
0001
1000
0001
,  // measure 46
0000
0000
0010
0000
0000
0100
0000
0001
0000
1000
0000
0001
0100
0001
1000
0010
,  // measure 47
0100
0001
0010
0100
0000
0000
0000
1100
0000
0101
0000
1001
0000
0000
0000
1010
,  // measure 48
0000
1000
0001
1000
0000
0001
0000
0100
0000
1000
0000
0001
0100
1000
0000
0001
,  // measure 49
1000
0100
0000
0010
0000
0000
0000
0001
0010
0100
0000
1000
0010
0100
0001
2000
,  // measure 50
0000
0010
0000
0100
0000
0001
0000
0010
0000
0100
0000
3001
0000
1000
0000
0010
,  // measure 51
0000
0000
0000
0110
0000
0000
0000
0100
0001
1000
0000
0010
0100
0001
0000
1000
,  // measure 52
0000
0001
0100
0001
0000
1000
0100
1000
0000
0010
0000
0100
0001
1000
0000
0100
,  // measure 53
0010
1000
0000
0200
0000
0000
0000
0310
0000
0001
0000
1000
0000
0010
0000
0002
,  // measure 54
0000
0000
0000
0103
0000
0001
0000
1000
0000
0010
0000
0100
0000
0001
0000
1001
,  // measure 55
0000
0000
0000
0110
0000
0000
0000
0220
0000
0330
0000
2002
0000
3003
0000
0002
,  // measure 56
0000
0000
0000
0000
0000
0203
0000
0000
0010
0000
0000
0010
0000
0000
0310
0000
,  // measure 57
0000
1000
0000
0010
0000
0100
0000
0001
0000
0010
0000
2000
0000
3002
0000
1003
,  // measure 58
0000
0010
0100
0001
0010
0100
1000
0000
0100
1000
0100
0010
0000
0101
0000
0001
,  // measure 59
0000
1000
0000
0010
0000
0100
0000
0001
0000
1000
0000
0010
0000
0100
0000
0001
,  // measure 60
0000
0010
0000
0100
0000
1000
0000
0001
0000
0010
0000
0001
0000
0100
0000
0010
,  // measure 61
0000
1000
0000
0010
0000
0100
0000
0001
0000
1000
0000
0100
0000
0010
0000
0001
,  // measure 62
0000
0100
0000
0010
0000
1000
0000
0001
0000
0100
0000
0010
0000
1000
0000
0010
,  // measure 63
1000
0010
1000
0000
0000
0010
0100
0010
0100
0010
0000
0001
1000
0000
0000
0120
,  // measure 64
0000
1030
0000
0120
0000
0031
0000
0120
0000
1030
0000
0120
0000
0031
0000
0210
,  // measure 65
0000
1300
0000
0210
0000
0301
0000
0210
0000
1300
0000
0210
0000
0301
0000
0102
,  // measure 66
0000
0013
0000
0012
0000
0103
0000
0102
0000
0013
0000
0012
0000
0103
0000
2100
,  // measure 67
0000
3010
0000
2010
0000
0200
0000
0000
0000
3300
0000
0010
0000
0100
0000
2010
,  // measure 68
0000
3100
0000
2100
0000
3010
0000
2010
0000
3100
0000
2100
0000
3010
0000
0100
,  // measure 69
0001
1000
0001
0000
0000
0101
0000
0000
0000
0100
0000
0100
0000
0100
0000
0000
,  // measure 70
0000
0010
0000
0010
0000
0010
0000
1000
0000
0010
0000
0100
0000
0100
0000
0100
,  // measure 71
0000
0200
0000
0000
0000
0000
0000
0000
0000
0000
0000
0000
0000
0000
0000
0300
,  // measure 72
0000
0000
0000
0000
0000
0100
0000
0010
0000
0000
0000
1001
0000
0000
0000
1100
,  // measure 73
0000
0000
0000
0000
0000
0000
0100
0000
0000
0000
0000
0000
0000
0000
0000
0000
0000
0000
0000
0000
0000
0000
0000
0000
1000
0000
0000
0000
0000
0000
0000
0000
0000
0000
0000
0000
0000
0000
0000
0000
0000
0000
0100
0000
0000
0000
0000
0000
0000
0000
0000
0000
0000
0000
0000
0000
0000
0000
0000
0000
0001
0000
0000
0000
0000
0000
0000
0000
0000
0000
0000
0000
0000
0000
0000
0000
0000
0000
0000
0000
0000
0000
0000
0000
0000
0000
0000
0000
0000
0000
1000
0000
0000
0000
0000
0000
0000
0000
0000
0000
0001
0000
0000
0000
0000
0000
0000
0000
0010
0000
0000
0000
0000
0000
0000
0000
0100
0000
0000
0000
0000
0000
0000
0000
1000
0000
0000
0000
0000
0000
0000
0000
0100
0000
0000
0000
0000
0000
0000
0000
0000
0000
0000
0000
0000
0000
0000
0000
0000
0000
1000
0000
0000
0000
0000
0000
0000
0000
0000
0000
0000
0000
0000
0000
0000
0000
0000
0000
0010
0000
0000
0000
0000
0000
0000
0000
0000
0000
0000
0000
0000
0000
0000
0000
0000
0000
0100
0000
0000
0000
0000
0000
,  // measure 74
0000
0000
0000
0000
0000
0000
0000
0000
0000
0000
0000
0000
0001
0000
0000
0000
0000
0000
0000
0000
0000
0000
0000
0000
0000
0000
0000
0000
0000
0000
0000
0000
0010
0000
0000
0000
0000
0000
0000
0000
0000
0000
0000
0000
0000
0000
0000
0000
2000
0000
0000
0000
0000
0000
0000
0000
0000
0000
0000
0000
0000
0000
0000
0000
0000
0000
3200
0000
0000
0000
0000
0000
0000
0000
0000
0000
0000
0000
0000
0000
0000
0000
0000
0000
0320
0000
0000
0000
0000
0000
0000
0000
0000
0000
0000
0000
0000
0000
0000
0000
0000
0000
0032
0000
0000
0000
0000
0000
0000
0000
0000
0000
0000
0000
0000
0000
0000
0000
0000
0000
0203
0000
0000
0000
0000
0000
0000
0000
0000
0000
0000
0000
0000
0000
0000
0000
0000
0000
0320
0000
0000
0000
0000
0000
0000
0000
0000
0000
0000
0000
0000
0000
0000
0000
0000
0000
2030
0000
0000
0000
0000
0000
0000
0000
0000
0000
0000
0000
0000
0000
0000
0000
0000
0000
3200
0000
0000
0000
0000
0000
0000
0000
0000
0000
0000
0000
0000
0000
0000
0000
0000
0000
,  // measure 75
0300
0000
0000
0000
0000
0110
0000
0000
0000
0000
0000
0000
0000
0000
0000
0000
0000
0000
0000
0000
0000
0000
0000
0000
0000
1010
0000
0000
0000
0000
0000
0000
0000
0000
0000
0000
0101
0000
0000
0000
0000
0000
0000
0000
0000
0000
0000
0000
1001
0000
0000
0000
0000
0000
0000
0000
0000
0000
0000
0000
1001
0000
0000
0000
,  // measure 76
0001
0000
0010
0000
0001
0000
0100
0000
0000
0000
1000
0010
1000
0000
0010
0100
0001
0000
1000
0000
0000
0000
0100
0000
0100
0000
0100
0000
0000
0000
0200
0000
,  // measure 77
1300
0000
0001
0000
0100
0000
0010
0000
1000
0010
0100
0001
1000
0200
0020
0000
0000
0000
0330
0000
0000
0000
2002
0000
0000
0000
3003
0000
0000
0000
0001
0000
,  // measure 78
0000
0010
1000
0001
0000
0100
0000
0010
0000
1000
0010
0100
0000
0010
0001
0100
,  // measure 79
0000
0000
0000
0200
0000
0000
0000
0301
0000
1000
0000
0100
0010
0001
0000
0200
,  // measure 80
0000
0000
1300
0100
0000
1000
0001
0200
0000
0310
0000
0100
0001
1000
0001
0200
,  // measure 81
0000
0000
0000
0301
0000
0000
0000
2200
0000
3300
0000
2002
0000
3003
0000
0001
,  // measure 82
0000
0010
0001
0100
0000
0010
1000
0100
0000
0010
0000
0001
0100
0010
0000
0010
,  // measure 83
1000
0100
0000
0001
0000
1000
0100
0001
0000
0100
0000
0010
0000
1000
0000
0100
,  // measure 84
0000
1000
0100
1000
0000
0001
0000
0010
0000
0100
0010
0100
0000
1000
0000
0200
,  // measure 85
0000
0000
0000
1300
0000
0000
0000
0202
0000
0303
0000
2002
0000
3003
0000
0001
,  // measure 86
0000
0100
0001
0010
0000
1000
0000
0100
0000
0010
0000
1000
0010
0100
0000
0010
,  // measure 87
0100
0001
0000
1000
0000
0001
0000
0010
0000
0100
0010
1000
0000
0001
0000
0100
,  // measure 88
0000
0010
0000
0100
0010
0100
0000
1000
0000
0001
0000
0100
0001
1000
0001
0100
,  // measure 89
0000
0000
0000
0101
0000
0000
0000
0001
0010
0100
0000
0010
1000
0100
0010
0001
,  // measure 90
1000
0010
0001
0100
0010
0001
0000
1000
0000
0010
0000
0100
1000
0001
0100
0010
,  // measure 91
1000
0001
0010
0100
0000
0001
0000
1000
0000
0100
1000
0010
0100
0001
1000
0010
,  // measure 92
0000
0000
0000
0100
0000
0000
0010
0000
0000
1000
0000
0000
0000
0000
0000
0001
0000
0000
0000
0000
0000
0100
0000
0000
0000
0000
0000
0010
0000
0000
0000
0000
0000
0000
0100
0000
0000
0000
0000
0000
0000
0000
1000
0000
0000
0000
0000
0000
,  // measure 93
0000
0202
0000
0000
0000
0000
0000
0000
0000
0000
0000
0000
0000
0000
0000
0000
0000
0000
0000
0000
0000
0000
0000
0000
0000
0000
0000
0000
0000
0000
0000
0000
,  // measure 94
0000
0000
0000
0000
,  // measure 95
0000
0303
0000
0000
0000
0000
0000
0000
0000
0000
0000
0000
0000
0000
0000
0000
;

//---------------dance-single - ----------------
#NOTES:
     dance-single:
     :
     Easy:
     6:
     0.165773,0.349579,0.167524,0.216555,0.496443,284.000000,243.000000,41.000000,53.000000,0.000000,0.000000,0.165773,0.349579,0.167524,0.216555,0.496443,284.000000,243.000000,41.000000,53.000000,0.000000,0.000000:
0000
0000
0000
0000
,
0000
0000
0000
0000
,
0000
0000
0000
0000
,
0000
0000
0000
0000
,
0000
0000
0000
0000
0000
0000
0000
0010
0000
0000
0000
0000
0000
0000
0000
0100
,
0000
0000
0000
0000
0000
0000
0000
0001
0000
0000
0000
0000
0000
0000
0000
1000
,
0000
0000
0000
0000
0000
0000
0000
0010
0000
0000
0000
0000
0000
0000
0000
0100
,
0000
0000
0000
0000
0000
0000
0000
2002
0000
0000
0000
0000
0000
0000
0000
0000
,
0000
0000
0000
0000
0000
3003
0000
0000
0000
0000
0000
0001
0000
0000
0000
0000
,
0000
0000
0000
1000
0000
0000
0000
0000
0000
0000
0000
0010
0000
0000
0000
0000
,
0000
0000
0000
0100
0000
0000
0000
0100
0000
0000
0000
0000
0000
0000
0000
0000
,
0000
0000
0000
0001
0000
0000
0000
0000
0000
0000
0000
1000
0000
0000
0000
0000
,
0000
0000
0000
0010
0000
0000
0000
0010
0000
0000
0000
0000
0000
0000
0000
0000
,
0000
0000
0000
0100
0000
0000
0000
0000
0000
0000
0000
0001
0000
0000
0000
0000
,
0000
1000
0000
0000
0000
1000
0000
0000
0000
0000
0000
0100
0000
0000
0000
0000
,
0000
0000
0000
0010
0000
0000
0000
0002
0000
0000
0000
0000
0000
0000
0000
0000
,
0003
0000
0000
1001
0000
0000
0000
0000
0000
0000
0000
0010
0000
0000
0000
0000
,
0000
0000
0000
0010
0000
0000
0000
0000
0000
0000
0000
0100
0000
0000
0000
0000
,
0000
0000
0000
0100
0000
0000
0000
0000
0000
0000
0000
0001
0000
0000
0000
0000
,
0000
0000
0000
0001
0000
0000
0000
0000
0000
0000
0000
1000
0000
0000
0000
0000
,
0000
0000
0000
1000
0000
0000
0000
0000
0000
0000
0000
0010
0000
0000
0000
0000
,
0000
0000
0000
0010
0000
0000
0000
0000
0000
0000
0000
0100
0000
0000
0000
0000
,
0000
0000
0000
0100
0000
0000
0000
0000
0000
0000
0000
0001
0000
0000
0000
0000
,
0000
0000
0000
1000
0000
0000
0000
0000
0000
0000
0000
0010
0000
0000
0000
0000
,
0000
0000
0000
0100
0000
0000
0000
0000
0000
0000
0000
0001
0000
0000
0000
0000
,
0000
0000
0000
1000
0000
0000
0000
0000
0000
0000
0000
0010
0000
0000
0000
0000
,
0000
0000
0000
0100
0000
0000
0000
0000
0000
0000
0000
0001
0000
0000
0000
0000
,
0000
0000
0000
1000
0000
0000
0000
2002
0000
0000
0000
0000
0000
0000
0000
0000
,
0000
0000
0000
3003
0000
0000
0000
0000
0000
0000
0000
0010
0000
0000
0000
0000
,
0000
0000
0000
0100
0000
0000
0000
0010
0000
0000
0000
1000
0000
0000
0000
0001
,
0000
0000
0000
1000
0000
0000
0000
0100
0000
0000
0000
0010
0000
0000
0000
0001
,
0000
0000
0000
0100
0000
0000
0000
0220
0000
0000
0000
0330
0000
0000
0000
2002
,
0000
0000
0000
3003
0000
0000
0000
0000
0000
0000
0000
0001
0000
0000
0000
0000
,
0000
0000
0000
1000
0000
0000
0000
0100
0000
0000
0000
0020
0000
0000
0030
0100
,
0000
0000
0000
0001
0000
0000
0000
1000
0000
0000
0000
0010
0000
0000
0000
0100
,
0000
0000
0000
0001
0000
0000
0000
2002
0000
0000
0000
3003
0000
0000
0000
0220
,
0000
0000
0000
0330
0000
0000
0000
0000
0000
0000
0000
0010
0000
0000
0000
0000
,
0000
0000
0000
1000
0000
0000
0000
0000
0000
0000
0000
0010
0000
0000
0000
0000
,
0000
0000
0000
0100
0000
0000
0000
0000
0000
0000
0000
0001
0000
0000
0000
0000
,
0000
0000
0000
1000
0000
0000
0000
0000
0000
0000
0000
0010
0000
0000
0000
0000
,
0000
0000
0000
1000
0000
0000
0000
0000
0000
0000
0000
0100
0000
0000
0000
0000
,
0000
0000
0000
0001
0000
0000
0000
0000
0000
0000
0000
1000
0000
0000
0000
0000
,
0000
0000
0000
0010
0000
0000
0000
0000
0000
0000
0000
0100
0000
0000
0000
0000
,
0000
0000
0000
0001
0000
0000
0000
0000
0000
0000
0000
1000
0000
0000
0000
0000
,
0000
0000
0000
0010
0000
0000
0000
0000
0000
0000
0000
1000
0000
0000
0000
0000
,
0000
0000
0000
0100
0000
0000
0000
0000
0000
0000
0000
0010
0000
0000
0000
0000
,
0000
0000
0000
0001
0000
0000
0000
0000
0000
0000
0000
0010
0000
0000
0000
0000
,
0000
0000
0000
0200
0000
0000
0000
0000
0000
0000
0300
0000
0000
0000
0000
0000
,
0000
0000
0000
1000
0000
0000
0000
0001
0000
0000
0000
0100
0000
0000
0000
0100
,
0000
0000
0000
0010
0000
0000
0000
0001
0000
0000
0000
0010
0000
0000
0000
0100
,
0000
0000
0000
1000
0000
0000
0000
0001
0000
0000
0000
1000
0000
0000
0000
2020
,
0000
0000
0000
3030
0000
0000
0000
0022
0000
0000
0000
0033
0000
0000
0000
0000
,
0000
0000
0000
0001
0000
0000
0000
0100
0000
0000
0000
0010
0000
0000
0000
1000
,
0000
0000
0000
0100
0000
0000
0000
0010
0000
0000
0000
0001
0000
0000
0000
1000
,
0000
0000
0000
0001
0000
0000
0000
0100
0000
0000
0000
1000
0000
0000
0000
2200
,
0000
0000
0000
3300
0000
0000
0000
0202
0000
0000
0000
0303
0000
0000
0000
0002
,
0000
0000
0000
0003
0000
0010
0000
0000
0000
0000
0000
1000
0000
0000
0000
0000
,
0000
0000
0000
0100
0000
0000
0000
0001
0000
0000
0000
0001
0000
0001
0000
0000
,
0000
0010
0000
0100
0000
1000
0000
0100
0000
0000
0000
0001
0000
0000
0000
1000
,
0000
0000
0000
0010
0000
0000
0000
0100
0000
0000
0000
0100
0000
0000
0000
0001
,
0000
0000
0000
0001
0000
0010
0000
0010
0000
0000
0000
0100
0000
0000
0000
1000
,
0000
0000
0000
0100
0000
0000
0000
0010
0000
0000
0000
0001
0000
0000
0000
0100
,
0000
0000
0000
0010
0000
0000
0000
1000
0000
0000
0000
0001
0000
0000
0000
0200
,
0000
0000
0300
0000
0000
0200
0000
0000
0300
0000
0000
0100
0000
0100
0000
0110
,
0000
0000
0000
0110
0000
0000
0000
0110
0000
0000
0000
0110
0000
0000
0000
1001
,
0000
0000
0000
1001
0000
0000
0000
1001
0000
0000
0000
1001
0000
0000
0000
1100
,
0000
0000
0000
1100
0000
0000
0000
1010
0000
0000
0000
1010
0000
0000
0000
0101
,
0000
0000
0000
0101
0000
0000
0000
0011
0000
0000
0000
0011
0000
0000
0000
0002
,
0000
0000
0000
0203
0000
0000
0000
0320
0000
0000
0000
2030
0000
0000
0000
3200
,
0000
0000
0000
0320
0000
0000
0000
0032
0000
0000
0000
0103
0000
0000
0000
2200
,
0000
0000
0000
3300
0000
0000
0000
2020
0000
0000
0000
3030
0000
0000
0000
2002
,
0000
0000
0000
0000
0000
0000
0000
0000
0000
0000
0000
0000
0000
0000
0000
3003
,
0000
0000
0000
0000
0000
1000
0000
0001
0000
0000
0000
1001
0000
0000
0000
0200
,
0000
0000
0000
0000
,
0000
0000
0000
0000
,
0000
0000
0000
0000
0000
0000
0000
0000
0000
0000
0000
0000
0300
0000
0000
0010
,
0000
0000
0000
1000
0000
0000
0000
0100
0000
0000
0000
0001
0000
0000
0000
1000
,
0000
0000
0000
0202
0000
0000
0000
0000
0000
0000
0000
0303
0000
0000
0000
0000
,
0000
0000
0000
1000
0000
0000
0000
0010
0000
0000
0000
0001
0000
0000
0000
0100
,
0000
0000
0000
1000
0000
0000
0000
0010
0000
0000
0000
0100
0000
0000
0000
0001
,
0000
0000
0000
0010
0000
0000
0000
0001
0000
0000
0000
0100
0000
0000
0000
0220
,
0000
0000
0000
0330
0000
0000
0000
2002
0000
0000
0000
3003
0000
0000
0000
1000
,
0000
0000
0000
0010
0000
0000
0000
0100
0000
0000
0000
0001
0000
0000
0000
0010
,
0000
0000
0000
0001
0000
0000
0000
0100
0000
0000
0000
0010
0000
0000
0000
1000
,
0000
0000
0000
0010
0000
0000
0000
0100
0000
0000
0000
0001
0000
0000
0000
2002
,
0000
0000
0000
3003
0000
0000
0000
0220
0000
0000
0000
0330
0000
0000
0000
0000
,
0000
0000
0000
0010
0000
0000
0000
1000
0000
0000
0000
0001
0000
0000
0000
0100
,
0000
0000
0000
0010
0000
0000
0000
1000
0000
0000
0000
0100
0000
0000
0000
0010
,
0000
0000
0000
0001
0000
0000
0000
1000
0000
0000
0000
0010
0000
0000
0000
0011
,
0000
0000
0000
0011
0000
0000
0000
1010
0000
0000
0000
1100
0000
0000
0000
1000
,
0000
0000
0000
0001
0000
0000
0000
0100
0000
0000
0000
0010
0000
0020
0000
0000
,
0000
0000
0030
0000
0000
0000
0000
0000
0000
1000
0000
0001
0000
0000
0000
0100
,
0000
0000
0000
0010
0000
0000
0000
1000
0000
0000
0000
0001
0000
0000
0000
0000
,
0000
2200
0000
0000
0000
0000
0000
0000
0000
0000
0000
0000
0000
0000
0000
0000
,
0000
0000
0000
0000
,
0000
3300
0000
0000
0000
0000
0000
0000
0000
0000
0000
0000
0000
0000
0000
0000
;

//---------------dance-single - ----------------
#NOTES:
     dance-single:
     :
     Medium:
     14:
     0.417935,0.621473,0.473970,0.355478,1.088906,716.000000,600.000000,116.000000,87.000000,0.000000,0.000000,0.417935,0.621473,0.473970,0.355478,1.088906,716.000000,600.000000,116.000000,87.000000,0.000000,0.000000:
0000
0000
0000
0000
,
0000
0000
0000
0000
,
0000
0000
0000
0000
,
0000
0000
0000
0000
,
0000
0000
0000
0000
0000
0000
0000
0010
0000
0010
0000
1000
0000
0001
0000
1000
,
0000
0000
0000
1001
0000
0000
0000
0010
0000
0010
0000
0100
0000
0001
0000
1000
,
0000
0001
0000
1001
0000
1001
0000
0001
0000
0010
0000
0100
0000
1000
0000
0010
,
0000
0100
0000
0001
0000
0000
0000
0200
0000
0000
0000
0320
0000
0000
0000
2030
,
0000
0000
0000
3002
0000
0000
0000
0103
0000
0001
0000
1000
0000
0001
0000
1001
,
0000
1001
0000
1001
0000
1000
0000
0010
0000
0100
0000
0001
0000
1000
0000
0001
,
0000
0100
0000
0020
0000
0000
0000
0130
0000
0000
0000
1000
0000
0001
0000
1000
,
0000
0000
0000
0100
0000
0010
0000
1000
0000
0000
0000
1100
0000
1000
0000
0001
,
0000
0100
0000
0001
0000
1000
0000
0001
0000
0000
0000
0010
0000
0001
0000
0100
,
0000
0010
0000
1000
0000
0001
0000
1000
0000
0100
0000
0010
0000
0001
0000
0000
,
0000
0002
0000
0003
0000
0002
0000
0000
0003
0000
0000
0001
0000
0010
0000
0100
,
0000
1000
0000
0010
0000
0100
0000
0001
0000
1000
0000
0002
0000
0000
0000
0003
,
0000
0000
0000
1001
0000
0000
0000
1000
0000
0010
0000
1000
0000
0001
0000
1000
,
0000
0000
0000
1001
0000
0000
0000
0001
0000
0100
0000
0001
0000
1000
0000
0001
,
0000
1001
0000
1001
0000
1001
0000
1000
0000
0010
0000
0100
0000
0001
0000
0010
,
0000
0100
0000
1000
0000
0010
0000
0200
0000
0000
0000
0302
0000
0000
0000
2003
,
0000
0000
0000
3020
0000
0000
0000
0130
0000
0001
0000
1000
0000
0010
0000
0110
,
0000
0110
0000
0110
0000
0100
0000
0001
0000
1000
0000
0001
0000
0010
0000
0100
,
0000
1000
0000
0001
0000
0100
0000
0010
0000
1000
0000
0010
0000
0100
0000
0001
,
0000
0000
0000
1001
0000
0000
0000
1000
0000
1000
0000
1000
0000
0010
0000
0100
,
0000
0000
0000
0101
0000
0101
0000
0001
0000
1000
0000
0001
0000
0010
0000
1010
,
0000
0000
0000
1100
0000
0000
0000
0110
0000
0110
0000
0110
0000
0000
0000
0010
,
0000
0001
0000
0100
0000
0020
0000
0000
0000
0030
0000
0100
0000
0010
0000
1000
,
0000
0001
0000
0010
0000
0100
0000
1000
0001
1000
0000
0001
1000
0001
0000
1000
,
0001
1000
0000
0001
1000
0001
1000
0001
0000
0100
0000
0010
0000
1000
0000
0010
,
0000
0000
0000
0001
1000
0001
0000
1000
0010
1000
0000
0100
0000
0000
0000
1000
,
0000
0001
0000
0100
0000
1000
0000
0100
0000
0001
0000
1000
0000
0010
0000
0001
,
0000
0010
0000
1000
0000
0100
0000
2100
0000
0000
0000
3010
0000
0000
0000
0022
,
0000
0033
0000
0202
0000
0303
0000
0001
0000
1000
0000
0010
0000
0100
0000
0010
,
0000
0000
0000
0001
1000
0001
0000
1000
0100
1000
0000
0001
0000
0000
0000
1000
,
0000
0010
0000
0001
0000
0010
0000
1000
0000
0000
0000
0100
0000
1000
0000
0001
,
0000
0010
0000
0001
0000
0100
0000
0102
0000
0000
0000
0013
0000
0000
0000
2020
,
0000
3030
0000
2200
0000
3300
0000
1000
0000
0010
0000
0100
0000
0001
0000
1001
,
0000
0000
0000
1001
0000
0000
0000
0001
0000
0010
0000
0001
0000
0100
0000
0010
,
0000
1000
0000
1001
0000
1001
0000
0000
0000
0100
0000
0010
0000
1000
0000
0100
,
0000
0000
0000
0101
0000
0000
0000
0020
1000
0000
0000
0230
0001
0000
0000
0302
,
0010
0000
0000
2003
0001
0000
0000
3100
0000
0010
0000
1000
0000
0100
0000
0010
,
0001
0010
0000
0100
0000
0000
0000
0110
0000
0000
0100
0010
0000
1000
0000
0200
,
0000
0001
0000
0010
0000
0001
0000
0310
0000
0000
0000
0110
0000
0010
0000
1000
,
0000
1001
0000
0000
0000
0101
0000
0000
0000
0200
0000
0320
0000
2030
0000
3002
,
0000
0023
0000
0230
0000
2300
0000
0000
0000
3000
0000
1000
0000
0010
0000
1000
,
0100
0010
0000
0001
0000
0200
0000
0300
0000
0010
0100
1000
0000
0100
0000
1010
,
0000
0000
0101
0000
0000
2200
0000
3300
0000
0000
0000
0100
0010
1000
0000
0010
,
0100
0001
0000
1001
0000
0000
0000
1100
0000
0110
0000
0011
0000
0000
0000
0001
,
0000
0010
0100
1000
0000
1010
0000
0002
0000
0100
0003
2000
0000
0100
3000
0020
,
0000
0100
0030
0110
0000
0100
0001
1000
0000
0100
0000
0010
0000
0001
0000
0010
,
0000
0100
0010
1000
0000
1010
0000
0101
0000
0100
0010
1000
0000
1100
0000
0011
,
0000
0000
0000
0202
0000
0303
0000
0001
0100
1000
0000
2200
0000
3300
0000
1100
,
0000
1000
0010
0100
0000
0010
0000
0002
0000
0010
0003
2000
0000
0010
3000
0200
,
0000
0010
0300
0110
0000
0010
0001
1000
0000
0001
0000
0100
0000
2000
0000
0000
,
0000
3000
0000
0001
0000
0010
0000
1000
0000
0100
0001
0010
0000
1000
0000
2200
,
0000
3300
0000
0202
0000
0303
0000
0022
0000
0033
0000
2020
0000
3030
0000
2000
,
0000
0000
0000
0000
0000
3200
0000
0000
0320
0000
0000
0032
0000
0000
0203
0000
,
0000
0320
0000
0000
0000
2030
0000
0000
0000
3000
0000
1010
0000
0110
0000
0101
,
0000
1001
0000
0001
0010
0100
1000
0000
0000
1100
0000
1010
0000
0101
0000
0022
,
0000
0000
0000
0000
0000
0000
0000
0033
0000
0000
0000
0000
0000
0000
0000
0001
,
0000
0010
0000
0100
0000
1000
0000
0100
0000
0010
0000
0001
0000
0000
0000
1000
,
0000
0100
0000
0010
0000
0001
0000
0010
0000
0100
0000
1000
0000
0000
0000
0010
,
0000
1000
0000
0100
0000
0001
0000
0010
0000
0100
0000
0001
0000
0000
0000
0001
,
1000
0001
1000
0000
0000
1000
0001
1000
0001
1000
0001
0100
0010
0000
0000
1100
,
0000
0000
0000
0101
0000
0000
0000
1100
0000
0000
0000
0101
0000
0000
0000
1100
,
0000
0000
0000
0101
0000
0000
0000
1100
0000
0000
0000
0101
0000
0000
0000
1100
,
0000
0000
0000
0101
0000
0000
0000
1100
0000
0000
0000
0101
0000
0000
0000
1100
,
0000
0000
0000
0101
0000
0000
0000
1100
0000
0000
0000
0101
0000
0000
0000
0011
,
0000
1010
0000
0011
0000
1010
0000
0011
0000
1010
0000
0011
0000
1010
0000
1010
,
0000
0011
0000
1010
0000
0011
0000
1010
0000
0011
0000
1010
0000
0011
0000
0000
,
0000
0000
0000
0001
0000
0000
0000
0000
0000
0100
0000
0000
0000
0000
0000
1000
0000
0000
0000
0000
0000
0000
0010
0000
0000
0000
0000
0000
0000
0000
0000
0000
0000
0100
0000
0000
0000
0000
0000
0100
0000
0000
0000
0000
0000
0001
0000
0000
,
0000
0000
0000
2002
0000
0000
0000
0000
0000
0000
0000
0000
0000
0000
0000
0000
0000
0000
0000
0000
0000
0000
0000
0000
0000
0000
0000
0000
0000
0000
3003
0000
,
0000
0000
0000
0000
,
0000
0000
0000
0000
,
0000
0000
0000
0000
0010
0000
0000
1000
0000
0000
0100
0000
0000
0001
0000
0000
,
0010
0000
0000
0200
0000
0000
0000
0000
0000
0300
0000
0000
0000
0000
0000
1001
,
1000
0000
0000
0000
0000
0000
0000
0000
0000
0000
0000
0000
0001
0000
0000
0000
0000
0000
0000
0000
0000
0000
0000
0000
0010
0000
0000
0000
0000
0000
0000
0000
0000
0000
0000
0000
0100
0000
0000
0000
0000
0000
1000
0000
0000
0000
0000
0000
0100
0000
0000
0000
0000
0000
0000
0000
0000
0000
0000
0000
0101
0000
0000
0000
0000
0000
0000
0000
0000
0000
0000
0000
0000
0000
0000
0000
0000
0000
0000
0000
0000
0000
0000
0000
0001
0000
0000
0000
0000
0000
0100
0000
0000
0000
0000
0000
0001
0000
0000
0000
0000
0000
0000
0000
0000
0000
0000
0000
0020
0000
0000
0000
0000
0000
0000
0000
0000
0000
0000
0000
0000
0000
0000
0000
0000
0000
0000
0000
0000
0000
0000
0000
0130
0000
0000
0000
0000
0000
0000
0000
0000
0000
0000
0000
0001
0000
0000
0000
0000
0000
0000
0000
0000
0000
0000
0000
1000
0000
0000
0000
0000
0000
0000
0000
0000
0000
0000
0000
0000
0000
0000
0000
0000
0000
0000
0000
0200
0000
0000
0000
0000
0000
0000
0000
0000
0000
0000
0000
0000
0000
0000
0000
,
1300
0010
0100
0001
0010
0100
1000
2002
0000
3003
0000
0220
0000
0330
0000
0110
,
0000
0010
0100
1000
0000
0001
0000
0200
0000
0001
0300
0020
0000
1000
0030
0100
,
0001
1000
0000
2000
0000
0000
3000
0010
0000
0100
0000
0001
0000
0010
0000
0000
,
0000
0000
0000
0110
0000
0100
0000
0001
0000
1000
0000
0010
0000
0100
0000
0010
,
1000
0001
0000
0010
0001
1000
0000
1000
0001
0100
0000
1001
0000
0000
0000
1100
,
0000
0100
1000
0010
0000
0010
0100
0001
0000
0000
0000
1000
0100
0001
0000
0101
,
0000
0000
0000
0020
0000
0000
0000
1030
0000
0100
0000
0010
0000
0001
0000
0020
,
0000
1030
0001
0100
0000
0101
0000
0001
0000
0010
0000
0100
0000
1000
0000
0020
,
0000
0000
0000
1030
0000
0000
0000
0200
0000
0000
0000
0301
0000
0000
0000
1001
,
0000
0001
0010
0100
0000
1000
0000
0010
0000
0000
0000
0100
0010
1000
0000
0010
,
0100
0001
0000
1001
0000
0000
0000
1000
0000
0100
0000
0010
0000
0001
0000
0000
,
0000
0000
0000
0001
0010
0100
0000
1100
0000
1000
0000
0010
0000
0100
0000
2000
,
0000
0000
0000
3100
0000
0000
0000
0002
0000
0000
0000
0013
0000
0000
0000
0010
,
0000
0010
0001
0010
0000
0200
0000
0001
0000
0000
0000
0301
0000
0101
0000
0100
,
0000
0010
0100
1000
0000
0001
0000
0010
0000
0100
0010
1000
0000
0000
0000
1100
,
0000
0000
0000
1000
0000
0000
0000
0000
0000
0010
0000
0000
0000
0000
0000
0100
0000
0000
0000
0000
0000
0001
0000
0000
0000
0000
0000
0010
0000
0000
0000
0000
0000
0000
0100
0000
0000
0000
0000
0000
0000
0000
1000
0000
0000
0000
0000
0000
,
0000
2002
0000
0000
0000
0000
0000
0000
0000
0000
0000
0000
0000
0000
0000
0000
0000
0000
0000
0000
0000
0000
0000
0000
0000
0000
0000
0000
0000
0000
0000
0000
,
0000
0000
0000
0000
,
0000
3003
0000
0000
0000
0000
0000
0000
0000
0000
0000
0000
0000
0000
0000
0000
;
