#TITLE:Faster Kill Pussycat;
#SUBTITLE:;
#ARTIST:Paul Oakenfold feat. Brittany Murphy;
#TITLETRANSLIT:;
#SUBTITLETRANSLIT:;
#ARTISTTRANSLIT:;
#GENRE:;
#CREDIT:;
#BANNER:Faster Kill Pussycat.png;
#BACKGROUND:Faster Kill Pussycat-bg.png;
#LYRICSPATH:;
#CDTITLE:;
#MUSIC:Faster Kill Pussycat.ogg;
#OFFSET:0.000000;
#SAMPLESTART:35.179001;
#SAMPLELENGTH:15.000000;
#SELECTABLE:YES;
#BPMS:0.000000=125.999992
;
#STOPS:
;
#BGCHANGES:;
#KEYSOUNDS:;
#ATTACKS:;

//---------------dance-single - ----------------
#NOTES:
     dance-single:
     :
     Beginner:
     1:
     0.099082,0.127637,0.000000,0.000000,0.000000,72.000000,72.000000,0.000000,0.000000,0.000000,0.000000,0.099082,0.127637,0.000000,0.000000,0.000000,72.000000,72.000000,0.000000,0.000000,0.000000,0.000000:
0000
0000
0000
0000
,
0000
0000
0000
0000
,
1000
0000
0000
0000
,
0001
0000
0000
0000
,
1000
0000
0000
0000
,
0001
0000
1000
0000
,
0100
0000
0000
0000
,
0010
0000
0000
0000
,
0100
0000
0000
0000
,
0100
0000
0010
0000
,
0001
0000
0000
0000
,
1000
0000
0010
0000
,
0100
0000
0000
0000
,
0001
0000
0000
0000
,
0010
0000
0100
0000
,
1000
0000
0000
0000
,
0001
0000
0000
0000
,
1000
0000
0001
0000
,
0100
0000
0001
0000
,
0001
0000
0001
0000
,
0010
0000
0000
0000
,
0100
0000
0000
0000
,
1000
0000
0010
0000
,
0010
0000
0010
0000
,
0100
0000
0000
0000
,
0001
0000
0000
0000
,
0010
0000
0000
0000
,
0100
0000
0000
0000
,
0010
0000
0000
0000
,
0100
0000
1000
0000
,
0100
0000
0100
0000
,
1000
0000
1000
0000
,
0001
0000
0001
0000
,
0100
0000
0100
0000
,
0010
0000
0000
0000
,
1000
0000
0001
0000
,
1000
0000
0000
0000
,
0100
0000
0000
0000
,
1000
0000
0000
0000
,
0001
0000
0100
0000
,
0010
0000
0000
0000
,
1000
0000
0000
0000
,
0001
0000
0100
0000
,
0100
0000
0100
0000
,
0010
0000
0000
0000
,
1000
0000
0000
0000
,
0100
0000
0010
0000
,
0010
0000
0010
0000
,
0001
0000
0000
0000
,
1000
0000
0000
0000
,
0100
0000
0000
0000
,
0001
0000
0000
0000
,
0100
0000
0000
0000
,
1000
0000
0000
0000
;

//---------------dance-single - ----------------
#NOTES:
     dance-single:
     :
     Easy:
     4:
     0.187155,0.232998,0.019266,0.221559,0.000000,136.000000,134.000000,2.000000,23.000000,0.000000,0.000000,0.187155,0.232998,0.019266,0.221559,0.000000,136.000000,134.000000,2.000000,23.000000,0.000000,0.000000:
0000
0000
0000
0000
,
0000
0000
0000
0000
,
0200
0300
0100
0000
,
0002
0003
0001
0000
,
0020
0030
0010
0000
,
2000
3000
1000
0000
,
0001
1000
0001
0000
,
1000
0100
0100
0000
,
0010
0100
0010
0000
,
0001
1000
1000
0001
,
1001
1000
0000
0010
,
0000
0100
0000
0010
,
1000
0001
0000
0010
,
0000
0100
0000
0010
,
0001
0100
0000
1000
,
0000
0100
0000
0001
,
1000
0001
0000
1000
,
0000
0001
0100
0100
,
0100
0000
0020
0030
,
2000
3000
0200
0300
,
1000
0010
0001
0000
,
0001
0010
1000
0000
,
1001
0000
0200
0300
,
0002
0003
0020
0030
,
0010
0001
0100
0000
,
0100
1000
0010
0000
,
1000
0000
1000
0000
,
0001
0000
0001
0000
,
0100
0000
0100
0000
,
0010
0000
0010
0000
,
2000
3000
1000
0000
,
0002
0003
0001
0000
,
0020
0030
0010
0000
,
0100
1000
0001
1000
,
0001
0000
0100
0000
,
1000
0000
0100
0000
,
0001
0010
0001
0000
,
1000
0010
1000
0000
,
0100
0000
0001
0000
,
0100
0000
1000
0000
,
0010
0100
0001
0000
,
0010
0100
1000
0001
,
1000
1000
0200
0300
,
0020
0030
0002
0003
,
1000
0001
1000
0000
,
1000
1000
0001
0001
,
0100
0100
0020
0030
,
2000
3000
0002
0003
,
1000
0100
1000
0000
,
0001
0100
0001
1000
,
0200
0300
1000
0000
,
0020
0030
0100
0000
,
0002
0003
1000
0000
,
0200
0300
0001
1000
;

//---------------dance-single - ----------------
#NOTES:
     dance-single:
     :
     Medium:
     7:
     0.294494,0.336552,0.077064,0.317888,0.000000,214.000000,206.000000,8.000000,33.000000,0.000000,0.000000,0.294494,0.336552,0.077064,0.317888,0.000000,214.000000,206.000000,8.000000,33.000000,0.000000,0.000000:
0000
0000
0000
0000
,
0000
0000
0000
0000
,
2000
0000
0000
0010
3010
0000
0000
0000
,
0002
0000
0000
0100
0103
0000
0000
0000
,
0020
0000
0000
0100
0130
0000
0000
0000
,
2000
0000
0000
0001
3001
0000
1001
0000
,
0010
0100
1000
0010
,
1000
0100
0010
0001
,
1000
0010
0001
0010
,
1000
1000
1000
0110
,
0100
0000
0000
0000
0001
1000
0001
0000
,
0010
0001
0100
0010
,
1000
0000
0001
0000
0100
0010
1000
0000
,
0100
0001
0010
1000
,
0100
0000
1000
0000
0010
1000
0100
0000
,
0001
0100
0010
0001
,
1000
0000
0001
0000
0010
0001
1000
0000
,
0010
0000
0100
0000
0001
0000
1000
0001
,
0100
0100
0202
0300
,
2000
3000
0020
0033
,
0001
0010
0001
0000
0100
0000
0001
0000
,
1000
0010
1000
0000
0100
0000
1000
0000
,
0001
1000
2020
0030
,
0002
0003
0200
3300
,
1000
0100
1000
0000
0100
0000
0010
0000
,
0001
0010
0001
0000
1000
0000
0100
0000
,
0020
0001
0031
0000
,
0200
0010
0310
0000
,
2000
0100
3100
0000
,
0200
0001
0301
0001
,
2000
0100
3100
0100
,
0020
0001
0031
0001
,
0200
0010
0310
0010
,
2000
0001
3001
1001
,
0100
0001
0010
1000
,
0100
1000
0010
0001
,
0002
0100
0100
0103
,
2000
0100
0100
3100
,
0001
0100
0010
1000
,
0100
1000
0001
0100
,
0200
0010
0010
0310
,
2002
0000
0000
3003
,
0001
0000
1000
0010
0100
0000
0001
0100
,
0010
0000
1000
0001
0100
0000
0010
1000
,
0002
0010
0010
0013
,
0200
1000
1000
1300
,
0010
0000
1000
0001
0100
0000
0010
0100
,
0001
0000
0010
0100
1000
0000
0001
1000
,
0200
0010
0010
0310
,
0002
1000
1000
1003
,
1020
0000
0000
1000
1030
0000
0000
0000
,
0002
0000
0000
0100
0103
0000
0000
0000
,
0020
0000
0000
0001
0031
0000
0000
0000
,
0200
0000
0000
1000
1300
0000
1001
0000
;

//---------------dance-single - ----------------
#NOTES:
     dance-single:
     :
     Hard:
     10:
     0.445870,0.414218,0.317888,0.298622,0.000000,324.000000,291.000000,33.000000,31.000000,0.000000,0.000000,0.445870,0.414218,0.317888,0.298622,0.000000,324.000000,291.000000,33.000000,31.000000,0.000000,0.000000:
0000
0000
0000
0000
,
0000
0000
0000
0000
,
1000
0000
0001
1000
1000
0000
0010
0000
,
0100
0000
0001
0100
0100
0000
0010
0000
,
1000
0000
0100
1000
1000
0000
0001
0000
,
0010
0000
0100
1000
1000
0000
1001
0000
,
0001
1000
0010
0100
0010
0000
0000
2000
,
0000
3100
0010
0001
1000
0000
0000
0002
,
0000
0103
0010
1000
0001
0000
0000
0020
,
0000
0130
1000
0001
0010
0000
0110
0000
,
1000
0010
0002
0000
0103
0000
1010
0000
,
0001
0010
2000
0000
3100
0000
0011
0000
,
0100
1000
0100
0000
0010
0001
0100
0000
,
0010
1000
0010
0000
0100
0001
0010
0100
,
0001
0100
2000
0000
3010
0000
0101
0000
,
1000
0100
0002
0000
0013
0000
1100
0000
,
0001
0100
0010
0000
1000
0100
0010
0000
,
1010
0000
0011
0000
0101
0000
0010
0100
,
0002
1003
1020
0031
,
0201
1300
1020
0031
,
0100
0001
0010
0001
0100
0010
1000
0000
,
0100
1000
0010
1000
0100
0010
0001
0000
,
2000
3100
1020
0130
,
0021
0130
0201
1300
,
0010
1000
0100
0010
0001
0010
0100
0000
,
1000
0010
0100
0001
0010
0001
0100
0010
,
0000
0010
0100
0000
1001
0000
0010
0100
,
0000
0100
0010
0000
1001
0000
0100
1000
,
0000
1000
0100
0000
1001
0000
0100
0001
,
0000
0001
0100
0000
1001
0000
0101
0200
,
0000
0301
0100
0001
0010
0000
0011
0020
,
0000
0031
0010
0001
1000
0000
1010
0020
,
0000
1030
0010
1000
0100
0000
1100
0200
,
0000
0301
0100
1000
0010
0000
0110
0000
,
0100
0001
1000
0001
0100
0000
0010
0000
,
1000
0001
0100
0001
1000
0000
0010
0000
,
0100
0001
0010
0001
0000
1000
0010
1000
,
0000
0001
0100
1000
0000
0100
0001
0010
,
0100
1000
0001
1000
0100
0000
0001
0000
,
1000
0001
0010
0001
1000
0000
0100
0000
,
0010
0001
0100
0001
0000
1000
0100
1000
,
0000
0001
0010
0100
1000
0010
0100
0001
,
1002
0103
0120
1030
,
2100
3010
0102
0013
,
0100
0010
0001
0100
1000
0000
0100
0000
,
0001
0010
0100
1000
0001
0000
1000
0001
,
0012
1003
1200
0310
,
0012
0103
2010
3100
,
0001
0100
1000
0010
1000
0100
0010
0000
,
0001
0100
1000
0100
0001
1000
0001
0002
,
0000
1003
0001
0010
0100
0000
0100
0020
,
0000
0031
0100
0010
1000
0000
1000
0020
,
0000
0130
0001
1000
0100
0000
0100
0002
,
0000
0103
1000
0010
0100
0000
0101
0000
;

//---------------dance-double - ----------------
#NOTES:
     dance-double:
     :
     Easy:
     3:
     0.189907,0.232998,0.028899,0.221559,0.000000,138.000000,135.000000,3.000000,23.000000,0.000000,0.000000,0.189907,0.232998,0.028899,0.221559,0.000000,138.000000,135.000000,3.000000,23.000000,0.000000,0.000000:
00000000
00000000
00000000
00000000
,
00000000
00000000
00000000
00000000
,
20000000
30000000
01000000
00000000
,
00020000
00030000
00001000
00000000
,
00000200
00000300
00000001
00000000
,
00002000
00003000
00000001
00001001
,
00000001
00000100
00000001
00000000
,
00000010
00000100
00001000
00000000
,
00010000
00001000
00010000
00000000
,
00001000
00010000
00001000
00100000
,
00010000
00100000
00000000
01000000
,
00000000
10000000
00000000
01000000
,
00010000
00100000
00000000
01000000
,
00000000
00010000
00000000
00001000
,
00000100
00000001
00000000
00000010
,
00000000
00000100
00000000
00000010
,
00000001
00001000
00000000
00000010
,
00000000
00000100
00000000
00001000
,
00010000
00001000
00020000
00030000
,
02000000
03000000
20000000
30000000
,
00100000
01000000
00100000
00000000
,
00010000
00001000
00010000
00000000
,
00001000
00000100
00002000
00003000
,
00000200
00000300
00000020
00000030
,
00000001
00001000
00000001
00000000
,
00000100
00000010
00000100
00000000
,
00001000
00000000
00010000
00000000
,
01000000
00000000
00010000
00000000
,
00001000
00000000
00000100
00000000
,
00001000
00000000
00010000
00000000
,
02000000
03000000
10000000
00000000
,
00200000
00300000
00010000
00000000
,
00002000
00003000
00000010
00000000
,
00000002
00000003
00001000
00001001
,
00000001
00000100
00000001
00000000
,
00000001
00000000
00001000
00000000
,
00000100
00000100
00000100
00000000
,
00010000
00010000
00010000
00000000
,
00001000
00000000
00100000
00000000
,
00010000
00000000
01000000
00000000
,
00100000
00100000
00100000
00000000
,
10000000
10000000
01000000
00100000
,
00010000
00010000
20000000
30000000
,
00200000
00300000
00020000
00030000
,
00001000
00001000
00001000
00000000
,
00010000
00010000
00010000
00000000
,
00000100
00001000
00000002
00000003
,
00000200
00000300
00002000
00003000
,
00010000
00001000
00010000
00000000
,
00001000
00010000
00001000
00010000
,
00011000
00000000
00100000
00000000
,
02000000
03000000
10000000
00000000
,
00200000
00300000
00010000
00000000
,
00002000
00003000
00000100
00000001
;

//---------------dance-double - ----------------
#NOTES:
     dance-double:
     :
     Medium:
     5:
     0.282109,0.284775,0.028899,0.366053,0.000000,205.000000,202.000000,3.000000,38.000000,0.000000,0.000000,0.282109,0.284775,0.028899,0.366053,0.000000,205.000000,202.000000,3.000000,38.000000,0.000000,0.000000:
00000000
00000000
00000000
00000000
,
00000000
00000000
00000000
00000000
,
00002000
00000000
00000000
00010000
00013000
00000000
00000000
00000000
,
00000020
00000000
00000000
00000100
00000130
00000000
00000000
00000000
,
00000002
00000000
00000000
00000010
00000013
00000000
00000000
00000000
,
00000200
00000000
00000000
00001000
00001300
00000000
00001001
00000000
,
00000010
00000100
00000002
00000003
,
00000100
00001000
00020000
00030000
,
00001000
00100000
00020000
00030000
,
01000000
01000000
01000000
01100000
,
00020000
00000000
00030000
00000000
10000000
01000000
10000000
00000000
,
00010000
01000000
00001000
00010000
,
00002000
00000000
00003000
00000000
00010000
00001000
00010000
00000000
,
00000100
00001000
00000001
00000010
,
00000200
00000000
00000300
00000000
00001000
00000010
00001000
00000000
,
00000001
00000100
00001000
00010000
,
00002000
00000000
00003000
00000000
00100000
00010000
00100000
00000000
,
00010000
00000000
01000000
00000000
00100000
00000000
10000000
00010000
,
10000000
01000000
20000000
31000000
,
00020000
00130000
02000000
13000000
,
01000000
00010000
00001000
00000100
,
00000001
00000100
00001000
00010000
,
01000000
10000000
00200000
01300000
,
00020000
10030000
02000000
03100000
,
01000000
10000000
00100000
00010000
,
00001000
00000010
00000001
00000100
,
00000002
00000000
00000000
00000100
00000103
00000000
00000000
00000000
,
00002000
00000000
00000000
00000100
00003100
00000000
00000000
00000000
,
00020000
00000000
00000000
00001000
00031000
00000000
00000000
00000000
,
02000000
00000000
00000000
00010000
03010000
00000000
00010000
00000000
,
00200000
00000000
00000000
01000000
01300000
00000000
10000000
00000000
,
00020000
00000000
00000000
01000000
01030000
00000000
00010000
00000000
,
00200000
00000000
00000000
00001000
00301000
00000000
00010000
00000000
,
00000200
00000000
00000000
00001000
00001300
00000000
00000101
00000000
,
00000001
00000010
00000001
00000100
,
00001000
00010000
01000000
10000000
,
00020000
00100000
00100000
00130000
,
20000000
01000000
01000000
31000000
,
10000000
00100000
10000000
01000000
,
00010000
00001000
00000100
00000001
,
00002000
00000100
00000100
00003100
,
00001000
00000000
00000001
00000000
00000100
00000010
00000100
00000010
,
00000100
00000001
00000020
00001030
,
00000200
00000301
00002000
00003100
,
00000010
00000100
00001000
00010000
,
00100000
10000000
00100000
00010000
,
00001000
00000100
00000002
00000013
,
00000200
00001300
00000020
00000130
,
00001000
00010000
00100000
01000000
,
00100000
00010000
00001000
00000010
,
00002000
00000001
00000001
00003100
,
00020000
00000100
00000100
00031000
,
00200000
00001000
00001000
00310000
,
20000000
01000000
01000000
30010000
;

//---------------dance-double - ----------------
#NOTES:
     dance-double:
     :
     Hard:
     7:
     0.385319,0.414218,0.086697,0.317888,0.000000,280.000000,271.000000,9.000000,33.000000,0.000000,0.000000,0.385319,0.414218,0.086697,0.317888,0.000000,280.000000,271.000000,9.000000,33.000000,0.000000,0.000000:
00000000
00000000
00000000
00000000
,
00000000
00000000
00000000
00000000
,
10000000
00000000
01000000
00010000
00020000
00000000
00030000
00000000
,
00001000
00000000
00000100
00000001
00000002
00000000
00000003
00000000
,
00000100
00000000
00001000
00010000
00020000
00000000
00030000
00000000
,
01000000
00000000
00010000
00001000
00001000
00000000
00011000
00000000
,
00000100
00001000
00000100
00000010
00000002
00000000
00001003
00000000
,
00000001
00000100
00000001
00001000
00000020
00000000
00000130
00000000
,
00001000
00010000
00001000
00100000
00020000
00000000
10030000
00000000
,
00100000
01000000
00010000
10000000
00010000
00000000
10010000
00000000
,
01000000
00010000
01000000
10000000
,
00100000
00010000
00001000
00000010
,
00000001
00000100
00000001
00000000
00000100
00001000
00000100
00000000
,
00001000
00010000
00001000
00000000
00010000
00100000
00010000
10000000
,
00100000
00010000
00100000
10000000
,
01000000
00010000
00001000
00000100
,
00000001
00000010
00000001
00000000
00000010
00001000
00000010
00000000
,
00001000
00010000
00001000
00000000
00100000
00010000
00100000
02000000
,
10000000
00010000
23000000
30100000
,
00020000
00031000
00000020
00000031
,
00000100
00001000
00000100
00000001
00001000
00000100
00010000
00000000
,
00001000
01000000
00010000
10000000
01000000
00010000
01000000
00200000
,
00001000
00010000
00302000
00000100
,
00023000
00100000
00032000
00000010
,
00013000
00001000
00100000
00010000
01000000
00100000
10000000
00000000
,
00100000
01000000
00010000
00100000
00001000
00010000
00000100
00001000
,
00000020
00000000
00000000
00000100
00000130
00000000
00000000
00000000
,
00000002
00000000
00000000
00000010
00000013
00000000
00000000
00000000
,
00002000
00000000
00000000
00010000
00013000
00000000
00000000
00000000
,
00200000
00000000
00000000
10000000
10300000
00000000
10010000
00000000
,
01000000
00000000
10000000
01000000
02000000
00000000
03010000
00000000
,
00001000
00000000
00000100
00000001
00000002
00000000
00000013
00000000
,
00001000
00000000
00010000
00100000
00200000
00000000
10300000
00000000
,
01000000
00000000
00010000
00001000
00001000
00000000
00011000
00000000
,
00001000
00000100
00000001
00000100
,
00001000
00000000
00010000
00100000
00000000
10000000
00000000
01000000
,
00000000
00100000
00010000
00100000
00000000
01000000
10000000
00010000
,
00000000
01000000
00100000
01000000
00010000
00000000
00011000
00000000
,
00001000
00000010
00000001
00000010
,
00001000
00000000
00010000
01000000
00000000
10000000
00000000
00100000
,
00000000
01000000
00010000
01000000
00000000
00100000
10000000
00100000
,
00000000
01000000
00010000
00100000
00010000
01000000
00001000
00020000
,
00000100
00001000
00030200
00000301
,
00002100
00003010
00000201
00001300
,
00010000
00100000
00010000
00001000
00100000
00001000
00010000
00000000
,
00001000
00000100
00001000
00010000
00000100
00010000
00001000
01000000
,
00200000
00010000
02300000
13000000
,
01020000
00130000
12000000
03010000
,
00001000
00100000
00001000
00010000
00100000
00010000
00001000
00000000
,
00010000
00000100
00010000
00001000
00000100
00001000
00010000
02000000
,
00000000
13000000
01000000
00100000
00010000
00000000
00000000
20000000
,
00000000
30010000
01000000
00001000
00010000
00000000
00000000
00000200
,
00000000
00001300
00000100
00000010
00000001
00000000
00000000
00000200
,
00000000
00000310
00001000
00000001
00000100
00001000
00000001
00000000
;

//---------------dance-single - ----------------
#NOTES:
     dance-single:
     :
     Challenge:
     16:
     0.824308,0.854325,0.057798,0.269724,1.127059,599.000000,593.000000,6.000000,28.000000,0.000000,0.000000,0.824308,0.854325,0.057798,0.269724,1.127059,599.000000,593.000000,6.000000,28.000000,0.000000,0.000000:
// measure 0
0000
0000
0000
0000
,  // measure 1
0000
0000
0000
0000
0000
0000
0000
0100
,  // measure 2
1000
0100
1000
0100
0020
0000
0030
0001
,  // measure 3
0000
0100
0001
1000
0002
0000
0003
1000
,  // measure 4
0000
0010
0100
1000
0200
0000
0300
1000
,  // measure 5
0000
0000
0100
0000
0010
0000
0001
0000
0020
0000
0000
0130
0010
0000
0100
0000
,  // measure 6
0001
0100
1000
0100
0002
0000
0003
1000
,  // measure 7
0000
0100
0001
0100
2000
0000
3000
0010
,  // measure 8
0000
0001
0010
1000
0020
0000
0030
0001
,  // measure 9
0000
0010
0100
0001
0200
0000
0310
0100
,  // measure 10
0010
0000
0000
0000
1010
0000
0000
0000
1000
0100
1000
0100
0010
0000
0001
0000
,  // measure 11
0100
0001
0100
2000
0000
3100
1001
0000
,  // measure 12
1001
0000
0000
0100
2000
0000
0000
0000
3100
0000
0100
0000
0000
0000
0202
0000
,  // measure 13
0000
0000
0303
0001
0010
0100
0000
2200
,  // measure 14
0000
0000
3300
0000
1000
0100
0001
0100
,  // measure 15
0000
1000
0100
1000
0000
0001
0200
0010
,  // measure 16
1300
0000
0000
0000
1100
0000
0000
0000
1000
0100
1000
0100
1000
0000
0100
0000
,  // measure 17
0000
0010
0001
0100
0000
0010
1000
0001
,  // measure 18
0010
0001
0010
0001
0010
0001
0010
0001
0010
1000
0010
0100
0010
1000
0010
0100
,  // measure 19
0010
0100
0010
1000
0010
0100
0010
1000
0010
0100
0010
0001
0010
0100
0010
0001
,  // measure 20
0010
0100
0010
0100
0010
0100
0010
0100
0010
1000
0010
1000
0010
1000
0010
1000
,  // measure 21
0010
0100
0010
1000
0010
0100
0010
0001
0010
0100
0010
1000
0010
0100
0010
0001
,  // measure 22
0100
0010
0100
0010
0100
0010
0100
0010
0100
0001
0100
0010
0100
0001
0100
0010
,  // measure 23
0100
1000
0100
0010
0100
1000
0100
0010
0100
1000
0100
0001
0100
1000
0100
0001
,  // measure 24
0100
1000
0100
1000
0100
1000
0100
1000
0100
0001
0100
0001
0100
0001
0100
0001
,  // measure 25
0100
0001
0100
0010
0100
1000
0100
0010
0100
0001
0100
0010
0100
1000
0100
0010
,  // measure 26
0100
0001
0010
0100
1000
0100
0010
0001
0200
0000
0000
0000
0310
1000
0100
0000
,  // measure 27
0010
0001
0100
0010
1000
0100
0010
0001
0200
0000
0000
0000
0301
0010
1000
0000
,  // measure 28
0010
0001
0100
0010
1000
0100
0010
0001
2000
0000
0000
0000
3001
0010
0100
0000
,  // measure 29
1000
0100
0010
0001
0100
0010
0200
0000
0000
0000
1300
0000
0020
0000
0031
0100
,  // measure 30
0010
1000
0001
0100
0010
1000
0001
0010
2000
0000
0000
0000
3001
0100
0010
0000
,  // measure 31
1000
0100
0001
0100
0010
1000
0001
0010
0002
0000
0000
0000
0103
0010
1000
0000
,  // measure 32
0010
0010
0010
0100
0100
0100
1000
1000
1000
0001
0001
0001
,  // measure 33
0001
0010
0100
1000
0100
0010
0002
0000
0000
0000
1003
0000
0020
0000
0030
0000
,  // measure 34
0100
0001
0100
0010
0100
0001
0100
0010
0100
0001
0100
0010
0100
0001
0100
0010
,  // measure 35
0100
1000
0100
0010
0100
1000
0100
0010
0100
1000
0100
0010
0100
1000
0100
0010
,  // measure 36
0100
0000
0001
0010
0100
1000
0100
0010
0001
0000
0100
0010
0100
0000
0010
0000
,  // measure 37
1000
0000
0010
0100
0001
0100
0010
1000
0100
0000
0010
0001
0100
0000
0010
0000
,  // measure 38
0010
0001
0010
1000
0010
0001
0010
1000
0010
0001
0010
1000
0010
0001
0010
1000
,  // measure 39
0010
1000
0010
0001
0010
1000
0010
0001
0010
1000
0010
0001
0010
1000
0010
0001
,  // measure 40
0010
0000
0001
0100
0010
1000
0100
0010
0001
0000
1000
0010
0100
0000
0001
0000
,  // measure 41
1000
0100
1000
0100
1000
0100
1000
0100
1000
0010
1000
0010
1000
0010
1000
0010
,  // measure 42
1000
0100
0010
0100
1000
0100
0010
0100
1000
0010
0100
0010
1000
0010
0100
0010
,  // measure 43
1000
0100
0001
0100
1000
0100
0001
0100
1000
0010
0001
0010
1000
0010
0001
0010
,  // measure 44
1000
0001
1000
0001
1000
0001
1000
0001
1000
0100
1000
0010
1000
0001
1000
0010
,  // measure 45
1000
0100
0010
0001
1000
0010
0100
0001
0010
0100
1000
0010
0100
0010
1000
0010
,  // measure 46
0001
0100
0001
0100
0001
0100
0001
0100
0001
0010
0100
0010
0001
0010
0100
0010
,  // measure 47
0001
0010
1000
0010
0001
0010
1000
0010
0001
0100
1000
0100
0001
0100
1000
0100
,  // measure 48
0001
1000
0001
1000
0001
1000
0001
1000
0001
0010
0001
0010
0001
0010
0001
0010
,  // measure 49
0001
0100
0001
0010
0001
0100
0001
1000
0001
0010
0100
1000
0100
0010
0001
0010
,  // measure 50
1000
0000
0100
1000
0001
0000
0100
0001
2000
0000
0000
0000
3100
0000
1000
0000
,  // measure 51
0100
0000
0001
0100
1000
0000
1000
0100
0002
0000
0000
0000
0103
0000
0001
0000
,  // measure 52
1000
0000
0001
0100
1000
0000
1000
0100
0020
0000
0000
0000
0130
0000
0010
0000
,  // measure 53
0001
0000
0010
0001
0100
0000
0010
1000
0200
0000
0000
0000
1300
0000
0000
0000
;
