#TITLE:FOLLOW ME;
#SUBTITLE:;
#ARTIST:LADY BABY;
#TITLETRANSLIT:;
#SUBTITLETRANSLIT:;
#ARTISTTRANSLIT:;
#GENRE:;
#CREDIT:;
#BANNER:FOLLOW ME.png;
#BACKGROUND:FOLLOW ME-bg.png;
#LYRICSPATH:;
#CDTITLE:;
#MUSIC:FOLLOW ME.ogg;
#OFFSET:0.000000;
#SAMPLESTART:51.060001;
#SAMPLELENGTH:15.000000;
#SELECTABLE:YES;
#DISPLAYBPM:158.000000;
#BPMS:0.000000=157.533997
,4.000000=158.018005
;
#STOPS:
;
#BGCHANGES:;
#KEYSOUNDS:;
#ATTACKS:;

//---------------dance-single - ----------------
#NOTES:
     dance-single:
     :
     Easy:
     4:
     0.262416,0.349720,0.082426,0.094201,0.000000,156.000000,149.000000,7.000000,8.000000,0.000000,0.000000,0.262416,0.349720,0.082426,0.094201,0.000000,156.000000,149.000000,7.000000,8.000000,0.000000,0.000000:
0000
0000
0000
0000
,
0000
0000
0000
0000
,
1000
1000
0001
0001
,
1000
1000
0001
0001
,
1000
1000
0100
0100
,
1000
1000
0001
1000
,
0001
0001
1000
1000
,
0001
0001
1000
1000
,
0001
0001
0100
0100
,
0001
0000
0000
1001
,
0100
0000
0010
0000
,
0100
0010
0100
0010
,
1000
0000
1000
0000
,
1000
0001
1000
0001
,
0100
0000
0001
0000
,
1000
0000
0010
0000
,
0100
0000
0000
0000
,
0100
0000
0000
1001
,
0001
0000
1000
0000
,
0010
0000
0100
0010
,
1000
0000
0001
0000
,
0100
0000
0100
0010
,
1000
0000
0010
0100
,
0001
0000
1000
0010
,
0100
0001
0001
0001
,
1000
0010
0100
0001
,
0100
0100
0100
0100
,
0001
0001
0001
0001
,
1000
1000
0010
0100
,
0001
0000
1000
1001
,
0100
0000
0010
0000
,
1000
0000
0001
0000
,
0100
0000
0100
0010
,
1000
1000
1000
1001
,
0001
0001
1000
1000
,
0001
0001
1000
1000
,
0200
0000
0300
0100
,
0000
0000
0110
0110
,
0010
0010
0100
0100
,
0010
0100
0010
0100
,
0002
0003
0001
1000
,
0010
0000
0100
0001
,
1000
0000
0000
0001
,
0100
0000
0100
0000
,
0001
0000
0001
0000
,
1000
0000
1000
0010
,
0200
0000
0000
0300
,
0002
0000
0003
1000
,
0010
0000
0010
0000
,
1000
1000
1000
1001
,
2000
0000
0000
3000
,
2000
0000
0000
3000
,
0020
0000
0000
0030
,
0200
0000
0300
0001
,
1000
0000
0000
0000
;

//---------------dance-single - ----------------
#NOTES:
     dance-single:
     :
     Medium:
     9:
     0.420539,0.476891,0.565205,0.117751,0.000000,250.000000,202.000000,48.000000,10.000000,0.000000,0.000000,0.420539,0.476891,0.565205,0.117751,0.000000,250.000000,202.000000,48.000000,10.000000,0.000000,0.000000:
0000
0000
0000
0000
,
0000
0000
0000
0000
,
1000
0010
0100
0001
,
1000
0010
0100
0001
,
0010
0001
0010
0001
,
1000
0100
1000
1001
,
0010
0001
1000
0100
,
0010
0001
1000
0100
,
0010
0100
0010
0001
,
1000
0010
0100
0001
,
1000
1100
0001
0101
,
1000
0101
0001
1100
,
0010
0011
0100
0101
,
1000
1010
0100
0101
,
2000
0010
0000
0010
,
0000
0001
0000
3001
,
1000
0020
0030
1000
,
0001
1000
1001
1001
,
1000
1010
0001
0011
,
0010
1010
0010
0011
,
0100
0110
1000
1100
,
0100
1100
0010
0011
,
2000
0001
0000
0001
,
0000
0010
0000
3010
,
1000
1000
0010
0100
,
0001
0101
1000
1010
,
0200
0010
0310
0010
,
2000
0001
3001
0001
,
1000
1010
0001
0011
,
0100
1100
0001
0101
,
0200
0302
2003
3020
,
0230
0001
0301
0001
,
0010
0010
0100
0100
,
0001
0101
1100
0101
,
1000
1010
0001
0011
,
1000
1010
0001
0011
,
0100
0110
1000
1010
,
0100
0101
0010
1010
,
0001
0101
1000
1100
,
0001
0101
1000
1100
,
0010
0110
0001
0101
,
0010
1000
1000
0001
,
1000
0010
0100
0001
,
1000
0010
0100
0001
,
0010
0001
0010
0001
,
1000
0100
1000
1001
,
0010
0001
1000
0100
,
0010
0001
1000
0100
,
0010
0100
0010
0001
,
1000
0010
0100
0101
,
0010
1000
1000
1000
,
0001
0100
0100
0100
,
0010
1010
0010
0011
,
0100
1100
0100
0101
,
1000
0000
0000
0000
;

//---------------dance-single - ----------------
#NOTES:
     dance-single:
     :
     Hard:
     11:
     0.523151,0.544230,0.129526,0.235502,0.000000,311.000000,300.000000,11.000000,20.000000,0.000000,0.000000,0.523151,0.544230,0.129526,0.235502,0.000000,311.000000,300.000000,11.000000,20.000000,0.000000,0.000000:
0000
0000
0000
0000
,
0000
0000
0000
0000
,
0001
1000
0020
0000
,
0030
0000
0100
0000
0001
1000
0100
0010
,
2000
0100
0000
0100
3000
0001
0001
0001
,
2000
0100
0000
0100
3000
1000
0000
1000
,
0010
0100
0010
1000
,
1000
0010
1000
0001
,
0100
0001
1000
0010
,
0100
0000
1001
1000
,
0001
0100
0001
0000
1000
0100
1000
0000
,
0001
0010
0001
0000
1000
0010
1000
0000
,
0100
1000
0100
0000
0010
0001
0010
0000
,
0001
0100
0001
0000
0100
0010
0100
0000
,
0001
0100
1000
0000
0001
0100
1000
0000
,
0001
0100
1000
0100
0001
0000
0001
0000
,
0200
0001
0001
0001
0301
0000
0001
0000
,
2000
0010
0010
0010
3010
0000
1010
0000
,
1000
0010
1000
0000
0001
0010
0001
0000
,
1000
0100
1000
0000
0001
0100
0001
0000
,
0010
0001
0010
0000
0100
1000
0100
0000
,
1000
0010
1000
0000
0010
0100
0010
0000
,
1000
0100
0001
0000
1000
0100
0001
0000
,
1000
0100
0001
0100
1000
0000
1000
0000
,
0020
1000
1000
1000
1030
0000
1000
0000
,
0002
0100
0100
0100
0103
0000
1001
0000
,
0100
0010
0100
0001
1000
0000
1001
0000
,
1000
0001
1000
0010
0100
0000
0110
0000
,
1000
0100
1000
0001
0100
0001
0100
0001
,
0000
1000
0000
0010
1000
0000
1001
0000
,
0001
0100
0001
1000
0010
0000
0010
0000
,
0100
0001
1000
0010
0100
0000
1001
0000
,
0200
0001
0000
0010
0000
1000
0300
0010
,
1000
0010
0100
0001
1000
0010
0100
0001
,
1000
0100
1000
0100
0010
0001
0010
0001
,
1000
0100
1000
0100
0010
0001
0010
0001
,
1000
0000
1000
0010
0100
0001
0100
0010
,
1000
0000
1100
0000
0001
0100
0010
1000
,
0001
0010
0001
0010
0100
1000
0100
1000
,
0001
0010
0001
0010
0100
1000
0100
1000
,
0001
0010
0001
1000
0010
0000
1000
0001
,
0100
0000
0101
0000
1000
0100
0010
0000
,
0001
1000
0020
0200
,
0330
0000
0110
0000
1000
0001
0100
0010
,
2000
0100
0100
0100
3000
0001
0001
0001
,
2000
0100
0100
0100
3000
0001
0001
1000
,
0001
1000
0020
0200
,
0330
0000
0110
0000
1000
0001
0100
0010
,
2000
0100
0100
0100
3000
0001
0001
0001
,
2000
0100
0100
0100
3000
0001
0001
1000
,
0020
0100
0000
0100
0000
0100
0030
0100
,
0020
1000
0000
1000
0000
1000
0030
1000
,
0200
0300
0200
0300
,
0010
0001
1000
0100
,
1000
0000
0000
1000
0000
0000
0000
0000
;

//---------------dance-double - ----------------
#NOTES:
     dance-double:
     :
     Easy:
     3:
     0.254006,0.349720,0.129526,0.082426,0.000000,151.000000,140.000000,11.000000,7.000000,0.000000,0.000000,0.254006,0.349720,0.129526,0.082426,0.000000,151.000000,140.000000,11.000000,7.000000,0.000000,0.000000:
00000000
00000000
00000000
00000000
,
00000000
00000000
00000000
00000000
,
10000000
00000000
00010000
00000000
,
01000000
00000000
00100000
00000000
,
10000000
00000000
00010000
00000000
,
00010000
00000000
00000100
00000000
,
00001000
00000000
00000001
00000000
,
00000100
00000000
00000010
00000000
,
00000001
00000000
00001000
00000000
,
00001000
00000000
01000000
00100000
,
00100000
00000000
01000000
00000000
,
00100000
00000000
00100000
01000000
,
00010000
00000000
00010000
00000000
,
01000000
00000000
00001000
00001000
,
00010000
00000010
00000100
00000010
,
00001000
00001000
00000001
00000001
,
00000100
00000000
00000000
00000000
,
00000010
00000000
00000010
00001001
,
00000010
00000000
00000100
00000000
,
00000010
00000000
00000010
00000100
,
00001000
00000000
00001000
00000000
,
00000100
00000000
00010000
00010000
,
00001000
00100000
01000000
00100000
,
00010000
00010000
10000000
10000000
,
01000000
00000000
00000000
00000000
,
00100000
00000000
00100000
10010000
,
00000000
00000000
02000000
03010000
,
00000000
00000000
00020000
00031000
,
00000010
00000000
00000010
00001000
,
00000001
00000000
00002000
00003001
,
00001000
00000000
00001000
00000000
,
00010000
00010000
00010000
00010000
,
01000000
01000000
01000000
00100000
,
10000000
00010000
10010000
10010000
,
00010000
00000000
00011000
00000000
,
00000010
00000000
00000110
00000000
,
00000100
00000000
00000001
00001000
,
00000010
00000010
00000100
00000110
,
00000001
00000000
00001001
00000000
,
00001000
00000000
00011000
00000000
,
00010000
00000000
01000000
00100000
,
10000000
10000000
00010000
10010000
,
00100000
00000000
01000000
00000000
,
00100000
00000000
00100000
01000000
,
00010000
00000000
00010000
00000000
,
01000000
00000000
00001000
00001000
,
00010000
00000010
00000100
00000010
,
00001000
00001000
00000001
00000001
,
00000100
00000000
00000000
00000000
,
00000010
00000000
00000010
00001001
,
00001000
00000002
00000000
00000003
,
00000100
00000020
00000000
00000030
,
00020000
00030000
00020000
00030000
,
00001000
00001000
00001000
00001000
,
01000000
00000000
00000000
00000000
,
00000000
00000000
00000000
00000000
;

//---------------dance-double - ----------------
#NOTES:
     dance-double:
     :
     Medium:
     6:
     0.312881,0.352959,0.035325,0.247277,0.000000,186.000000,183.000000,3.000000,21.000000,0.000000,0.000000,0.312881,0.352959,0.035325,0.247277,0.000000,186.000000,183.000000,3.000000,21.000000,0.000000,0.000000:
00000000
00000000
00000000
00000000
,
00000000
00000000
00000000
00000000
,
00020000
00000000
00030000
00001000
,
00000200
00000000
00000300
00000010
,
00002000
00003000
00002000
00003000
,
00000001
00000000
00000001
00000000
00000100
00000010
00000100
00000000
,
00000002
00000000
00000003
00001000
,
00000200
00000000
00000300
00010000
,
00002000
00003000
00002000
00003000
,
00100000
00100000
00010000
10000000
,
00010000
00010000
10000000
10000000
,
00010000
01000000
00001000
01000000
,
00001000
00001000
00010000
00010000
,
00000010
00001000
00000100
00001000
,
00000001
00000100
00001000
00000100
,
00000001
00000100
00010000
00001000
,
00100000
00100000
01000000
01000000
,
00010000
10000000
00100000
01000000
,
00010000
00000000
10000000
00000000
,
00010000
01000000
00001000
01000000
,
00001000
00001000
00010000
00010000
,
00000010
00001000
00000100
00001000
,
00000001
00000100
00001000
00000100
,
00000001
00000100
00010000
00001000
,
00100000
00100000
01000000
01000000
,
00010000
01010000
01000000
11000000
,
00100000
00000000
01000000
00000000
,
00001000
00000000
01000000
00001000
,
00010000
00010000
00001000
00001000
,
00010000
00000010
00000100
00000001
,
00002000
00003100
00000002
00000103
,
00001000
00000000
01000000
01000000
,
20000000
31000000
00020000
01030000
,
00100000
00000000
00000000
00000000
10000000
00010000
10000000
00010000
,
02000000
00000000
03000000
00001000
,
00002000
00000000
00003000
00010000
,
00020000
00000000
00030000
00000010
,
00000020
00000000
00000030
00000100
,
00000001
00001000
00000010
00001000
,
00000010
00010000
00001000
00011000
,
01000000
00100000
00100000
10000000
,
00010000
01000000
00010000
10000000
,
00010000
00010000
10000000
10000000
,
00010000
01000000
00001000
01000000
,
00001000
00001000
00010000
00010000
,
00000010
00001000
00000100
00001000
,
00000001
00000100
00001000
00000100
,
00000001
00000100
00010000
00001000
,
00100000
00100000
01000000
01000000
,
00010000
00000000
10000000
00000000
00010000
10000000
00010000
10000000
,
00100000
00100000
02000000
03000000
,
00001000
00001000
00020000
00030000
,
00000020
00000030
00000020
00000030
,
00001000
00000010
00000100
00000001
,
00002000
00000000
00003000
00000000
,
00000000
00000000
00000000
00000000
;

//---------------dance-double - ----------------
#NOTES:
     dance-double:
     :
     Hard:
     8:
     0.566887,0.545481,0.282602,0.164851,0.000000,337.000000,313.000000,24.000000,14.000000,0.000000,0.000000,0.566887,0.545481,0.282602,0.164851,0.000000,337.000000,313.000000,24.000000,14.000000,0.000000,0.000000:
00000000
00000000
00000000
00000000
,
00000000
00000000
00000000
00000000
,
10000000
01000000
10000000
01000000
10000000
00000000
10010000
00000000
,
00010000
01000000
00010000
01000000
00010000
00000000
10010000
00000000
,
00100000
00010000
00000010
00001000
00000010
00000000
00000110
00000000
,
00001000
00000100
00001000
00000100
00001000
00000000
00001001
00000000
,
00000001
00000100
00000001
00000100
00000001
00000000
00001001
00000000
,
00000100
00001000
00000100
00001000
00000100
00000000
00001001
00000000
,
00000010
00001000
00100000
00010000
00100000
00000000
01100000
00000000
,
00010000
01000000
00010000
01000000
00010000
00000000
10010000
00000000
,
10000000
01000000
00010000
01000000
10000000
01000000
00010000
01000000
,
10000000
01000000
00010000
01000000
00001000
00010000
00001000
00010000
,
00001000
00000100
00000001
00000100
00001000
00000100
00000001
00000100
,
00001000
00000100
00010000
00001000
01000000
00001000
00010000
00001000
,
00010000
01000000
10000000
01000000
00010000
01000000
10000000
01000000
,
00010000
01000000
10000000
01000000
00001000
00010000
00001000
00010000
,
00000020
00000100
00000100
00000130
,
00000001
00001100
00000101
00001100
,
00000001
00000100
00001000
00000100
00000001
00000100
00001000
00000100
,
00000001
00000100
00001000
00000100
00010000
00001000
00010000
00001000
,
00010000
01000000
10000000
01000000
00010000
01000000
10000000
01000000
,
00010000
01000000
00001000
00010000
00000100
00010000
00001000
00010000
,
00001000
00000100
00000001
00000100
00001000
00000100
00000001
00000100
,
00001000
00000100
00000001
00000100
00010000
00001000
00010000
00001000
,
00200000
00000000
01000000
00000000
01300000
00100000
01000000
00000000
,
00010000
10000000
00010000
00000000
00010000
01000000
10000000
01000000
,
00020000
00002000
00030000
00003000
,
00002000
00000200
00003000
00000300
,
00000001
00000001
00000001
00000100
00000010
00000000
00001000
00000000
,
00000100
00010000
00000000
01010000
00000000
00000000
10010000
00000000
,
01000000
00100000
01000000
00100000
10000000
00000000
00010000
00000000
,
01000000
00000000
00010000
00000000
00000010
00000000
00000100
00000010
,
00000001
00000000
00001000
00000000
00000010
00000100
00000001
00001000
,
00000010
00000010
00000100
00001001
,
00000010
00000001
00000010
00000000
00001000
00010000
00001000
00000000
,
00100000
00010000
00100000
00000000
01000000
10000000
01000000
00000000
,
20000000
00000000
30200000
00000000
02300000
00000000
03010000
00010000
,
01000000
00000000
00001000
00000000
00010000
00000100
00010000
00000010
,
00001000
00000100
00001000
00000000
00000001
00000100
00000001
00000000
,
00001000
00000010
00001000
00000000
00001000
00010000
00001000
00000000
,
02000000
00000000
03020000
00000000
20030000
00000000
30100000
00100000
,
10000000
11000000
00010000
01010000
,
10000000
01000000
10000000
01000000
10000000
00000000
10010000
00000000
,
00010000
01000000
00010000
01000000
00010000
00000000
10010000
00000000
,
00100000
00010000
00000010
00001000
00000010
00000000
00000110
00000000
,
00001000
00000100
00001000
00000100
00001000
00000000
00001001
00000000
,
00000001
00000100
00000001
00000100
00000001
00000000
00001001
00000000
,
00000100
00001000
00000100
00001000
00000100
00000000
00001001
00000000
,
00000010
00001000
00100000
00010000
00100000
00000000
01100000
00000000
,
00010000
01000000
00010000
01000000
00010000
00000000
10010000
00000000
,
01000000
00010000
01000000
00001000
,
00010000
00000010
00010000
00000100
,
00000001
00000001
00001000
00001000
,
00000010
00000100
00000001
00001000
00000001
00000001
00000001
00001000
,
00000020
00000000
00000000
00000200
00000330
00000000
00000000
00000000
,
00000000
00000000
00000000
00000000
;

//---------------dance-single - ----------------
#NOTES:
     dance-single:
     :
     Beginner:
     2:
     0.089154,0.192081,0.000000,0.129526,0.000000,53.000000,53.000000,0.000000,11.000000,0.000000,0.000000,0.089154,0.192081,0.000000,0.129526,0.000000,53.000000,53.000000,0.000000,11.000000,0.000000,0.000000:
0000
0000
0000
0000
,
0000
0000
0000
0000
,
0100
0000
0100
0000
,
0010
0000
0010
0000
,
1000
0000
1000
0000
,
0001
1000
0001
0000
,
0010
0000
0010
0000
,
0100
0000
0100
0000
,
1000
0000
1000
0000
,
1000
0001
1000
0000
,
0002
0000
0000
0000
,
0003
0000
0000
0000
,
0200
0000
0000
0000
,
0300
0000
0000
0000
,
2000
0000
0000
0000
,
3000
0000
0000
0000
,
0020
0000
0000
0000
,
0030
0000
0000
0000
,
0200
0000
0000
0000
,
0300
0000
0000
0000
,
0002
0000
0000
0000
,
0003
0000
0000
0000
,
2000
0000
0000
0000
,
3000
0000
0000
0000
,
0000
0000
0000
0000
,
0100
0000
0000
0000
,
0001
0000
0000
0000
,
1000
0000
0000
0000
,
0100
0000
0000
0000
,
0010
0000
0000
0000
,
0001
0000
0000
0000
,
0010
0000
0000
0000
,
0100
0000
0000
0000
,
1000
0000
0000
0000
,
0010
0000
0000
0000
,
0100
0000
0000
0000
,
0002
0000
0000
0000
,
1003
0000
0000
0000
,
0001
0000
0000
0000
,
0010
0000
0000
0000
,
1000
0000
0000
0000
,
0010
0000
0000
0000
,
0001
0000
0000
0000
,
0100
0000
0000
0000
,
1000
0000
0000
0000
,
0100
0000
0000
0000
,
0001
0000
0000
0000
,
1000
0000
0000
0000
,
0010
0000
0000
0000
,
0100
0000
0000
0000
,
0002
0000
0000
0000
,
0003
0000
0000
0000
,
0200
0000
0000
0000
,
0300
0000
0000
0000
,
2000
0000
0000
3000
0000
0000
0000
0000
;

//---------------dance-single - ----------------
#NOTES:
     dance-single:
     :
     Challenge:
     13:
     0.556794,0.576244,0.235502,0.188402,0.117751,331.000000,311.000000,20.000000,16.000000,128.000000,0.000000,0.556794,0.576244,0.235502,0.188402,0.117751,331.000000,311.000000,20.000000,16.000000,128.000000,0.000000:
// measure 0
0000
0000
0000
0000
,  // measure 1
0000
0000
0000
0000
,  // measure 2
1000
0001
0010
0100
1000
0001
0100
0010
,  // measure 3
0010
0010
0100
0001
1000
0000
MMMM
0000
,  // measure 4
1000
0001
0010
0100
1000
0001
0010
0100
,  // measure 5
0100
0100
1000
0001
0010
0000
MMMM
0000
,  // measure 6
0010
0001
0100
0010
1000
0001
0100
0010
,  // measure 7
1000
0001
0010
0001
1000
0000
MMMM
0000
,  // measure 8
1000
0001
0010
0001
0100
0010
1000
0001
,  // measure 9
0020
0001
0000
0001
0000
0001
0001
0031
,  // measure 10
0011
0000
0001
0100
0010
0000
1010
0000
,  // measure 11
MMMM
0000
1000
0100
0000
0011
0000
1100
,  // measure 12
0000
MMMM
0000
0000
1001
0000
0000
0000
1000
0000
0010
0000
0100
0000
0000
0000
,  // measure 13
MMMM
0000
0001
0100
0000
0110
0000
1010
,  // measure 14
0000
MMMM
0000
0000
1100
0000
0000
0000
0100
0000
1000
0000
0001
0000
0000
0000
,  // measure 15
MMMM
1000
0010
0100
0001
0010
0100
0100
,  // measure 16
2000
0000
0010
0000
0100
0000
3001
1000
,  // measure 17
0020
0000
0100
0000
1000
0000
0130
1000
,  // measure 18
0001
0010
0001
0100
0010
1000
0001
1000
,  // measure 19
MMMM
0000
0001
1000
0000
1010
0000
0101
,  // measure 20
0000
MMMM
0000
0000
1000
0000
0001
0000
0010
0000
0010
0000
0001
0000
1000
0000
,  // measure 21
MMMM
0000
1000
0010
0000
0110
0000
0101
,  // measure 22
0000
MMMM
0000
0000
0001
0000
0010
0000
0100
0000
1000
0000
0001
0000
0100
0000
,  // measure 23
MMMM
0100
0010
1000
0000
1010
0000
0101
,  // measure 24
0002
0000
0010
0000
0100
0000
1003
0001
,  // measure 25
0200
0000
0010
0000
1000
0000
0310
1000
,  // measure 26
0001
0010
0001
0010
0000
1001
0000
1000
,  // measure 27
0100
0000
0001
0000
0100
0000
0010
0000
0000
0000
0110
0000
0000
MMMM
0000
0000
,  // measure 28
0100
1000
0001
0100
0010
1000
0001
1000
,  // measure 29
MMMM
0100
MMMM
1000
0000
MMMM
0100
0100
,  // measure 30
1000
0001
0100
0010
0100
0000
MMMM
0000
,  // measure 31
0010
0010
0100
0001
1000
0000
MMMM
0000
,  // measure 32
2001
0000
0010
0010
0000
0100
0100
0000
,  // measure 33
3010
0000
1000
0000
0001
0000
0010
0000
0100
0000
1000
0001
1000
0000
0001
0000
,  // measure 34
MMMM
0000
0001
1000
0001
0000
1000
0000
MMMM
0000
1000
0001
1000
0000
0001
0000
,  // measure 35
MMMM
0000
0001
1000
0001
0000
1000
0000
0000
0000
MMMM
0000
1001
0000
0001
0000
,  // measure 36
2000
0000
0000
0000
0010
0000
0000
0000
3100
1000
0001
0000
0100
0000
0010
0000
,  // measure 37
0000
0000
0110
0000
0000
0000
MMMM
0000
0000
0000
0010
0001
0010
0000
0001
0000
,  // measure 38
MMMM
0000
1000
0100
1000
0000
0100
0000
MMMM
0000
1000
0010
0100
0000
0001
0000
,  // measure 39
0000
0000
0001
0100
0010
0000
1000
0000
0000
0000
MMMM
0000
1001
0000
0000
0000
,  // measure 40
0002
0000
0100
0203
0010
0000
0310
1000
,  // measure 41
0200
0000
1000
2300
0000
0001
3001
0000
,  // measure 42
1000
0001
0010
0100
1000
0001
1000
0100
,  // measure 43
0001
0000
0010
0000
0100
0000
1000
0100
0010
0000
0000
0000
MMMM
0000
0000
0000
,  // measure 44
0010
0100
0001
1000
0001
0100
0010
1000
,  // measure 45
0001
0000
0010
0000
0100
0000
1000
0001
0010
0000
0000
0000
MMMM
0000
0000
0000
,  // measure 46
1000
0010
0100
0001
1000
0001
0010
0100
,  // measure 47
1000
0000
0001
0000
0001
0000
1000
0001
0010
0000
0000
0000
MMMM
0000
0000
0000
,  // measure 48
0010
0100
0001
1000
0001
0010
0100
1000
,  // measure 49
0001
0001
MMMM
1000
MMMM
1000
1000
0100
,  // measure 50
0020
0000
0000
0000
0001
0000
0000
0000
0100
0000
0000
0000
0031
0000
0000
0001
,  // measure 51
2000
0000
0000
0000
0100
0000
0000
0000
0001
0000
0000
0000
3010
0000
0000
1000
,  // measure 52
0020
0000
0000
0000
1000
0000
0000
0000
0100
0000
0000
0000
1030
0000
0000
1000
,  // measure 53
0002
1000
0000
0100
0000
0010
0013
0100
,  // measure 54
0200
0010
0000
1300
0000
0000
0000
0000
;
