#TITLE:FANTASY;
#SUBTITLE:;
#ARTIST:MELISSA;
#TITLETRANSLIT:;
#SUBTITLETRANSLIT:;
#ARTISTTRANSLIT:;
#GENRE:;
#CREDIT:;
#BANNER:FANTASY.png;
#BACKGROUND:FANTASY-bg.png;
#LYRICSPATH:;
#CDTITLE:;
#MUSIC:FANTASY.ogg;
#OFFSET:0.000000;
#SAMPLESTART:50.990002;
#SAMPLELENGTH:15.000000;
#SELECTABLE:YES;
#DISPLAYBPM:160.000000;
#BPMS:0.000000=159.425003
,4.000000=160.009003
;
#STOPS:
;
#BGCHANGES:;
#KEYSOUNDS:;
#ATTACKS:;

//---------------dance-single - ----------------
#NOTES:
     dance-single:
     :
     Beginner:
     3:
     0.149283,0.259021,0.055584,0.011117,0.000000,94.000000,89.000000,5.000000,1.000000,0.000000,0.000000,0.149283,0.259021,0.055584,0.011117,0.000000,94.000000,89.000000,5.000000,1.000000,0.000000,0.000000:
0000
0000
0000
0000
,
0000
0000
0000
0000
,
0000
0000
0000
0000
,
0000
0000
0000
0000
,
1001
0000
0000
0000
,
0000
0000
0000
0000
,
1001
0000
0000
0000
,
0000
0000
0000
0000
,
1001
0000
0000
0000
,
0000
0000
0000
0000
,
0001
0001
0000
0000
,
0001
0001
0000
0000
,
0100
0100
0100
0000
,
1000
1000
1000
1000
,
1000
1000
0000
0000
,
1000
1000
0000
0000
,
0100
0100
0100
0000
,
0001
0000
0000
0000
,
1000
0000
0000
0000
,
1000
0000
0100
0000
,
0110
0000
0000
0000
,
0100
0000
0001
0000
,
0001
0000
0000
0000
,
0001
0000
0100
0000
,
0110
0000
0000
0000
,
0100
0000
1000
0000
,
0100
0000
0000
0000
,
0100
0000
0100
0000
,
0010
0000
0000
0000
,
0010
0000
0010
0000
,
0100
0000
0000
0000
,
0100
0000
0100
0000
,
0010
0000
0000
0000
,
0010
0000
0000
0000
,
0001
0000
0000
0000
,
1000
0000
0001
0000
,
0100
0000
0000
0000
,
0010
0000
0010
0000
,
0001
0000
0000
0000
,
1000
0000
0001
0000
,
0100
0000
0000
0000
,
0010
0000
0010
0000
,
0001
0000
0000
0000
,
1000
0000
0001
0000
,
0100
0000
0000
0000
,
0010
0000
0010
0000
,
0001
0000
0000
0000
,
1000
0000
0001
0000
,
0100
0000
0000
0000
,
0010
0000
0010
0000
,
0001
0001
0000
0000
,
0001
0001
0000
0000
,
0100
0100
0100
0000
,
1000
1000
1000
1000
,
1000
1000
0000
0000
,
1000
1000
0000
0000
,
0100
0100
0100
0000
,
0001
0000
0002
0000
,
0000
0003
0000
0000
;

//---------------dance-single - ----------------
#NOTES:
     dance-single:
     :
     Easy:
     5:
     0.198514,0.291399,0.011117,0.111168,0.000000,125.000000,124.000000,1.000000,10.000000,0.000000,0.000000,0.198514,0.291399,0.011117,0.111168,0.000000,125.000000,124.000000,1.000000,10.000000,0.000000,0.000000:
0000
0000
0000
0000
,
0000
0000
0000
0000
,
0000
0000
0000
0000
,
1000
0000
0000
0000
,
0001
0000
0000
0000
,
0100
0000
0100
0000
,
0010
0000
0000
0000
,
1000
0000
0000
0000
,
0001
0000
0000
0000
,
0100
0000
0100
0000
,
0001
0001
0000
0000
,
1000
1000
0000
0000
,
0010
0010
0000
0000
,
0100
0100
0100
0000
,
0001
1000
0000
0000
,
1000
0001
0000
0000
,
0010
0100
0000
0000
,
1000
0000
0000
0000
,
0100
0100
0100
0100
,
0100
0100
0100
0100
,
1000
1000
0100
0100
,
0100
0100
0100
0100
,
0010
0010
0010
0010
,
0010
0010
0010
0010
,
0001
0001
1000
1000
,
0100
0100
0100
0100
,
0002
0000
0000
0000
,
0000
0003
1000
1000
,
2000
0000
0000
0000
,
0000
3000
0010
0010
,
0020
0000
0000
0000
,
0000
0030
0100
0100
,
0100
0000
0010
0000
,
1000
0000
1000
0000
,
0001
0000
0000
0000
,
0001
0000
0000
0000
,
0100
0001
1000
0010
,
0200
0300
0010
0010
,
1000
0000
0000
0000
,
1000
0000
0000
0000
,
0010
0100
0001
1000
,
0020
0030
0200
0300
,
0010
0000
0000
0000
,
0010
0000
0000
0000
,
1000
0010
0100
0001
,
2000
3000
0001
0001
,
0100
0000
0000
0000
,
0100
0000
0100
0100
,
0002
0003
0001
0001
,
2000
0000
3000
1001
,
1000
1000
0000
0000
,
0001
0001
0000
0000
,
0100
0100
0000
0000
,
0010
0010
0010
1000
,
0001
0001
0000
0000
,
0100
0100
0000
0000
,
0010
0000
1000
0000
,
0001
0000
0000
1000
0000
2000
0000
0000
,
0000
3000
0000
0000
;

//---------------dance-single - ----------------
#NOTES:
     dance-single:
     :
     Medium:
     7:
     0.300153,0.388532,0.088934,0.433555,0.000000,189.000000,181.000000,8.000000,39.000000,0.000000,0.000000,0.300153,0.388532,0.088934,0.433555,0.000000,189.000000,181.000000,8.000000,39.000000,0.000000,0.000000:
0000
0000
0000
0000
,
0000
0000
0000
0000
,
0000
0000
0000
0000
,
2000
0000
0000
3000
,
0002
0000
0000
0003
,
0200
0300
0020
0030
,
2000
0000
0000
3000
,
0002
0000
0000
0003
,
0020
0000
0000
0030
,
0200
0300
2000
3000
,
0001
0001
0100
0100
,
0001
0001
1000
1000
,
0100
0100
1000
1000
,
0001
1000
0001
1000
,
0010
0010
0100
0100
,
0010
0010
1000
1000
,
0001
0001
0010
0010
,
0001
0000
0000
1000
0000
1001
0000
0000
,
2000
0100
0100
3100
,
0020
0001
0001
0031
,
0200
0010
0310
0100
,
0002
1000
1000
1003
,
2000
3020
0230
0302
,
2003
3000
0002
0003
,
0200
0000
0300
1001
,
0100
0100
0100
0100
,
0001
0000
0001
0000
,
1000
0000
1000
1001
,
0100
0100
0010
1000
,
0001
0000
0001
0000
,
0100
0000
0010
0000
,
1000
0000
0001
1000
,
0010
0010
0100
0000
,
0001
0000
0001
1001
,
1000
2002
3003
1001
,
0100
0220
0330
0110
,
0100
0001
1000
0010
,
0100
0000
0100
0000
0100
0010
0100
0000
,
0001
2000
3000
0010
,
0100
0001
0001
1000
,
0020
1030
2000
3001
,
0100
0010
1000
0001
,
0100
0002
1000
1003
,
1000
0000
0010
0000
0100
0000
0001
1000
,
0002
0100
0100
0103
,
2000
0010
0010
3010
,
0002
0103
2000
3100
,
0002
0103
2000
3100
,
0002
0003
0002
0003
,
2000
3000
0002
1003
,
0100
0100
0001
0001
,
1000
1000
0010
0010
,
0100
0001
0100
0001
,
1000
1000
1000
1000
,
0010
0010
1000
1000
,
0001
0001
0100
0100
,
0010
0000
1000
0000
0001
0000
0100
0010
,
0000
0000
0000
1000
0000
2000
0000
0000
,
0000
3000
0000
0000
;

//---------------dance-single - ----------------
#NOTES:
     dance-single:
     :
     Hard:
     14:
     0.595542,0.679931,0.277920,0.344621,0.400205,375.000000,350.000000,25.000000,31.000000,0.000000,0.000000,0.595542,0.679931,0.277920,0.344621,0.400205,375.000000,350.000000,25.000000,31.000000,0.000000,0.000000:
0000
0000
0000
0000
,
0000
0000
0000
0000
,
0000
0000
0000
0000
,
0000
0000
0000
0000
,
1000
0000
0000
0000
,
0001
0000
0001
0000
,
1000
0000
0000
0000
0001
0000
1000
0000
0000
0000
0000
0000
0000
0000
0010
0100
,
0010
0000
0000
0000
0000
0000
0000
0000
0000
0000
0000
0000
0000
0000
0001
0010
,
0001
0000
0000
0000
0000
0000
0000
0000
0000
0000
0000
0000
0000
0000
0010
1000
,
0010
0000
0000
0000
0000
0000
0000
0000
0001
0000
1000
0001
0000
0000
1000
0001
,
0100
0000
0010
0100
0000
0001
1000
0000
0001
1000
0001
0200
0000
0000
0300
0000
,
0001
0000
0100
0001
0000
0100
0001
0000
1000
0010
1000
0020
0000
0000
0030
0000
,
1000
0000
0001
1000
0000
0001
0100
0000
0010
0100
0010
0200
0000
0000
0300
0000
,
0001
0010
0011
0000
1000
0100
1100
0001
,
0010
0000
0100
0010
0000
0100
0010
0000
0001
1000
0001
2000
0000
0000
3000
0000
,
0001
0000
0010
0001
0000
0010
0001
0000
1000
0001
1000
0002
0000
0000
0003
0000
,
0010
0000
0100
0010
0000
0100
0010
0000
0001
0010
0001
0020
0000
0000
0030
0000
,
0002
0000
0003
0010
0001
1000
0000
0000
,
0010
0100
0010
0000
1000
0001
0100
0010
,
1000
0010
1000
0001
0000
0010
0100
1000
,
0001
0010
0100
1000
0001
0020
0000
0230
,
0000
1000
1300
0000
1100
0000
0101
0000
,
0100
0010
1000
0001
0100
0010
1000
0001
,
0001
0100
0000
0010
0000
1000
0010
0000
,
0100
0001
0100
0010
1000
0200
0000
2300
,
0000
0001
3001
0000
0110
0110
1000
0001
,
0200
0010
0010
0010
0000
0001
0301
1000
,
0000
1100
0000
0001
0000
0101
0100
0000
,
0020
1000
1000
1000
0000
0100
0130
0001
,
0000
0011
0000
1010
0000
0101
0000
0000
,
1000
0010
1000
0010
0100
0001
0100
0001
,
0010
0100
0010
0100
1000
0001
0101
0000
,
1000
0000
1000
0010
0000
0100
0000
0001
,
0000
1001
0000
0110
0000
2002
0000
3003
,
0001
0000
1000
0010
0000
2000
0000
0010
,
3000
0000
0100
0000
0001
0000
0000
0000
1000
0010
1000
0010
0100
0001
0100
0001
,
1000
1000
0000
0100
0000
0010
1000
0000
,
0000
1100
0000
0010
0000
1010
0000
0000
,
0100
1000
0001
0000
0100
0001
1000
0010
,
0000
0000
0100
0000
0001
0000
0001
0000
1000
0001
1000
0001
0010
0100
0010
0100
,
0010
0100
1000
0020
0000
2030
0000
3002
,
0000
0000
0003
0200
0000
0000
0300
0000
,
0001
0000
0100
0010
0000
0200
0000
0001
,
0300
0000
1000
0000
0001
0000
0000
0000
1000
0010
1000
0010
0100
0001
0100
0001
,
0010
0010
0000
0001
0000
0100
0001
1000
,
0000
1010
0000
0100
0000
0101
0000
0000
,
1000
1001
0010
0000
0001
1001
0100
0010
,
0000
0000
0100
0000
0010
0000
1000
0000
0001
1000
0001
1000
0001
1000
0001
0000
,
0001
1000
0001
0002
0000
0203
0000
0320
,
0000
0000
0030
0100
0010
0110
1001
0000
,
1000
0000
0010
1000
0000
0010
1000
0000
0010
0100
0010
0200
0000
0000
0300
0000
,
0001
0000
0100
0001
0000
0100
0001
0000
1000
0010
1000
0020
0000
0000
0030
0000
,
1000
0000
0001
1000
0000
0001
1000
0000
0010
0100
0010
0200
0000
0000
0300
0000
,
0010
0001
0011
0000
0100
1000
1100
0010
,
0100
0000
0010
0100
0000
0010
1000
0000
0001
1000
0001
2000
0000
0000
3000
0000
,
0001
0000
0010
0001
0000
0010
0001
0000
0100
0001
0100
0002
0000
0000
0003
0000
,
0010
0000
0100
0010
0000
0100
0010
0000
0001
0010
0001
0020
0000
0000
0030
0000
,
0001
1000
0001
1000
0001
0000
1000
0100
1000
0100
2000
0000
0000
0000
0000
0000
,
0000
3000
0000
0000
;

//---------------dance-double - ----------------
#NOTES:
     dance-double:
     :
     Easy:
     1:
     0.106404,0.160499,0.000000,0.122285,0.000000,67.000000,67.000000,0.000000,11.000000,0.000000,0.000000,0.106404,0.160499,0.000000,0.122285,0.000000,67.000000,67.000000,0.000000,11.000000,0.000000,0.000000:
00000000
00000000
00000000
00000000
,
00000000
00000000
00000000
00000000
,
00000000
00000000
00000000
00000000
,
00000000
00000000
00000000
00000000
,
00000000
00000000
00000000
00000000
,
00000000
00000000
00000000
00000000
,
10000000
00000000
00000000
00000000
,
00001000
00000000
00000000
00000000
,
00000001
00000000
00000000
00000000
,
00010000
00000000
00001000
00000000
,
01000000
00000000
01000000
00000000
,
00010000
00000000
00010000
00000000
,
10000000
00000000
10000000
00000000
,
00100000
00000000
00100000
00000000
,
00001000
00000000
00000000
00000000
,
00000100
00000000
00000000
00000000
,
00000001
00000000
00000000
00000000
,
00002000
00000000
00000000
00003000
,
00000010
00000000
00000000
00000000
,
00001000
00000000
00000000
00000000
,
00000010
00000000
00000000
00000000
,
00010000
00000000
00000000
00000000
,
01000000
00000000
01000000
00000000
,
10000000
00000000
00100000
00000000
,
01000000
00000000
00000000
00000000
,
01000000
00000000
00001000
00000000
,
00020000
00000000
00000000
00030000
,
00000000
00000000
00000100
00000000
,
00000020
00000000
00000000
00000030
,
00000000
00000000
00000001
00000000
,
00001000
00000000
00001000
00000000
,
00000100
00000000
00000000
00000000
,
00010000
00000000
00000000
00000000
,
01000000
00000000
00000000
00000000
,
00200000
00300000
00000000
00000000
,
02000000
03000000
00000000
00000000
,
00002000
00003000
00000000
00000000
,
00000000
00000000
00000000
00000000
,
00000020
00000030
00000000
00000000
,
00000002
00000003
00000000
00000000
,
00002000
00003000
00000000
00000000
,
00000000
00000000
00000000
00000000
,
00000100
00000100
00000000
00000000
,
00010000
00010000
00000000
00000000
,
00100000
00100000
00000000
00000000
,
10000000
10000000
00000000
00000000
,
01000000
00000000
00000000
01000000
,
00001000
00000000
00000000
00001000
,
00000010
00000000
00000000
00000010
,
00002000
00000000
00003000
00000000
,
00000001
00000000
00000000
00000000
,
00000001
00000000
00000000
00000000
,
00001000
00000000
00000000
00000000
,
00001000
00000000
00000000
00000000
,
00010000
00000000
00000000
00010000
,
10000000
00000000
00000000
00000000
,
10000000
00000000
00000000
00000000
,
02000000
00000000
00000000
03000000
,
00000000
00000000
00000000
00000000
;

//---------------dance-double - ----------------
#NOTES:
     dance-double:
     :
     Medium:
     6:
     0.368442,0.448424,0.211219,0.322387,0.000000,232.000000,213.000000,19.000000,29.000000,0.000000,0.000000,0.368442,0.448424,0.211219,0.322387,0.000000,232.000000,213.000000,19.000000,29.000000,0.000000,0.000000:
00000000
00000000
00000000
00000000
,
00000000
00000000
00000000
00000000
,
00000000
00000000
00000000
00000000
,
00000000
00000000
00000000
00000000
,
00000000
00000000
00000000
00000000
,
00000000
00000000
00000000
00000000
,
10000000
00000000
10000000
00000000
,
01000000
00000000
01000000
00000000
,
00001000
00000000
00001000
00000000
,
00000010
00000010
00001000
00001000
,
00000002
00000100
00000100
00000103
,
00020000
00100000
00100000
00130000
,
02000000
00000000
13000000
00000000
00020000
00000000
01030000
00100000
,
10000000
01000000
00010000
00000000
00010000
00000010
00000100
00000000
,
00000002
00000103
00002000
00003100
,
00000020
00000130
00002000
00003001
,
00000010
00000000
00010000
00000000
00001000
00000000
00100000
00020000
,
00000000
00000000
00000000
10000000
00000000
10000000
00030000
00000000
,
01000000
00000000
00001000
00000000
00010000
00000000
00000010
00000100
,
00000001
00000000
00000001
00001000
00000001
00000000
00001001
00000000
,
00000001
00001000
00010000
10000000
,
00100000
00100000
01000000
10010000
,
10000000
00010000
00001000
00000001
,
00000001
00000000
00001000
00000000
00010000
00000000
10000000
00100000
,
01000000
00010000
10000000
00000000
10000000
00010000
01000000
00000000
,
01000000
00000000
00001000
00000000
00010000
00000000
00000010
00000100
,
00000002
00000003
00001001
00000000
00002000
00003000
00001001
00000000
,
00000001
00001000
00010000
10000000
,
00200000
00300000
01100000
00000000
02000000
03000000
01100000
00000000
,
01000000
00001000
00010000
00000010
,
00001000
00000100
00001000
00000000
00000001
00000100
00000001
00000000
,
00001000
00001100
00001001
00000101
,
00000001
00001000
00010000
10000000
,
00100000
10000000
00000000
11000000
00000000
02020000
03030000
00000000
,
02001000
00200000
03300000
00001000
,
00010000
00000010
00000100
00000001
,
00000100
00000010
00010000
00100000
,
10000000
10010000
00100000
01100000
,
10000000
00010000
00001000
00000001
,
00000200
00000001
00000301
00001010
,
00001000
00000100
00000001
00000000
00001000
00000000
00000100
00000000
,
00010000
00001000
01000000
00001000
,
00020000
00000020
00030030
00010000
,
00001000
00100000
01000000
10000000
,
01000000
00100000
00001000
00000010
,
00000001
00001001
00000010
00000110
,
00000001
00001000
00010000
10000000
,
02000000
10000000
13000000
00110000
,
00010000
01000000
10000000
00000000
01000000
00000000
00001000
00000000
,
00010000
00000000
00000000
00110000
,
00002000
00010000
00010000
00013000
,
00000020
00001000
00001000
00001030
,
00000200
00000000
00000301
00000000
00002000
00000000
00003100
00000010
,
00000001
00000100
00001000
00000000
00001000
00100000
01000000
00000000
,
20000000
31000000
00020000
01030000
,
00200000
01300000
00020000
10030000
,
00100000
00000000
00001000
00000000
00010000
00000000
00000010
00001000
,
00001000
00000000
00000000
00000001
00000000
00000001
00000000
00000000
,
00000000
00000000
00000000
00000000
;

//---------------dance-double - ----------------
#NOTES:
     dance-double:
     :
     Hard:
     9:
     0.490727,0.582798,0.188985,0.289037,0.000000,309.000000,292.000000,17.000000,26.000000,0.000000,0.000000,0.490727,0.582798,0.188985,0.289037,0.000000,309.000000,292.000000,17.000000,26.000000,0.000000,0.000000:
00000000
00000000
00000000
00000000
,
00000000
00000000
00000000
00000000
,
00000000
00000000
00000000
00000000
,
00000000
00000000
00000000
00000000
,
00000001
00000000
00000000
00000000
,
00010000
00000000
00000000
00000000
,
02000000
00000000
00000000
03000000
,
00002000
00000000
00000000
00003000
,
00000020
00000000
00000000
00000030
,
00000200
00000300
00020000
00030000
,
01000000
00100000
10000000
01000000
00010000
00001000
00000010
00000001
,
00001000
00000100
00000010
00000001
00000100
00001000
00010000
00100000
,
10000000
01000000
00100000
00010000
10000000
01000000
00010000
00001000
,
00010000
00000010
00001000
00000100
00010000
00100000
01000000
00010000
,
00100000
00001000
00010000
00000010
00001000
00000001
00001000
00000100
,
00000010
00000001
00000100
00000001
00000010
00000100
00001000
00000001
,
00001000
00000001
00000100
00000010
00010000
00001000
00200000
00010000
,
00000000
00000000
00300000
00010000
00000000
00010000
00000000
00000000
,
10000000
01000000
00010000
00001000
01000000
00010000
01000000
00100000
,
10000000
01000000
10000000
00010000
10000000
01000000
10000000
00010000
,
10000000
00100000
10000000
01000000
10000000
00100000
10000000
01000000
,
10000000
01010000
10010000
11000000
,
00100000
00001000
00000010
00001000
00100000
00000000
00001000
00000010
,
00000010
00000001
00000100
00000001
00000010
00000001
00000100
00000001
,
00001000
00000001
00000010
00000001
00001000
00000001
00000010
00000001
,
00001000
00000000
00000101
00000000
00001001
00000000
00001100
00000100
,
00020000
00001000
00000000
00000100
00000000
00001000
00000000
00000100
,
00030000
00001000
00000000
00110000
00000000
10010000
00000000
00000000
,
00020000
01000000
00000000
00100000
00000000
01000000
00000000
00100000
,
00030000
01000000
00000000
00101000
00000000
00010010
00000000
00000000
,
00000002
00000100
00000000
00000010
00000000
00000100
00000000
00000010
,
00000003
00001000
00000000
00001010
00000000
00010100
00000000
00000000
,
00101000
01020000
20000000
30030000
,
00000000
01000000
00000000
00001000
00000000
00000020
00000000
00000030
,
00001000
00000001
00000100
00000010
00020000
00000000
00030000
00100000
,
01000000
00010000
20000000
00000000
00100000
00000000
30100000
10000000
,
01000000
00010000
00000000
00002000
00000000
00010000
00003000
00000000
,
00000000
00001000
00000000
00000100
00000000
00010000
00000000
00000000
,
10000000
00100000
01000000
00010000
00100000
00001000
00010000
00000010
,
00001000
00000001
00000020
00000000
00000001
00000001
00000031
00000000
,
00001000
00000100
00010000
00100000
00000000
20000000
00000000
00020000
,
30000000
00000000
00000000
01000000
00030000
00000000
01001000
00000000
,
00010000
00000010
00000100
00000001
00002000
00000000
00003000
00000010
,
00001000
00000001
00000002
00000000
00000010
00000000
00000013
00000100
,
00010000
00100000
00000000
20000000
00000000
00010000
30000000
00000000
,
00000000
10000000
00000000
01000000
00000000
00001000
00000000
00000000
,
00000001
00000010
00000100
00001000
00000010
00000100
00000001
00001000
,
00000100
00010000
00200000
00000000
10000000
10000000
10300000
00000000
,
00010000
01000000
00001000
00000010
00000000
00000002
00000000
00002000
,
00000003
00000000
00000000
00000100
00003000
00001100
00001100
00000000
,
00000010
00000001
00001000
00000100
00010000
00100000
10000000
01000000
,
00100000
00010000
00100000
01000000
10000000
00010000
00100000
00001000
,
00010000
00000010
00000100
00000001
00001000
00000100
00010000
00100000
,
10000000
00010000
00100000
01000000
00001000
00000100
00000010
00000001
,
00000010
00000100
00010000
00001000
00100000
00010000
10000000
01000000
,
10000000
00010000
00100000
01000000
00100000
01000000
10000000
00010000
,
10000000
00010000
01000000
00001000
00010000
00000100
00000020
00000001
,
00000000
00000000
00000030
00000001
00000000
00002000
00000000
00000000
,
00000000
00003000
00000000
00000000
,
00000000
00000000
00000000
00000000
;

//---------------dance-single - ----------------
#NOTES:
     dance-single:
     :
     Challenge:
     15:
     0.798821,0.967161,0.478022,0.566956,0.705916,503.000000,460.000000,43.000000,51.000000,0.000000,0.000000,0.798821,0.967161,0.478022,0.566956,0.705916,503.000000,460.000000,43.000000,51.000000,0.000000,0.000000:
// measure 0
0000
0000
0000
0000
,  // measure 1
0000
0000
0000
0000
,  // measure 2
0000
0000
0000
0000
,  // measure 3
0000
0000
0000
0000
,  // measure 4
2000
0000
0000
0100
0000
0100
0000
0000
,  // measure 5
3002
0100
0000
0100
0000
0100
0000
0000
,  // measure 6
0023
0000
1000
0100
0000
0100
0000
0130
,  // measure 7
2000
0001
0000
0001
0000
0001
0000
0100
,  // measure 8
3200
0000
0010
0000
0000
0000
1000
0000
0000
0000
0010
0000
0000
0000
0310
0100
,  // measure 9
0010
0000
0010
0000
0000
0000
0100
0000
0001
0000
1000
0100
0000
0001
0100
0000
,  // measure 10
0010
1000
0010
1000
0001
1000
0001
1000
0100
1000
0001
0020
0000
0000
0030
0000
,  // measure 11
1000
0100
1000
0100
0010
0100
0010
0100
1000
0100
0010
0200
0000
0000
0300
0000
,  // measure 12
1000
0001
0100
0001
0010
0001
0100
0001
1000
0001
0010
0002
0000
0000
0003
0000
,  // measure 13
0001
0010
0001
0010
0100
0000
0010
0100
0010
0100
1000
0000
0100
0000
1000
0000
,  // measure 14
0010
1000
0010
1000
0001
0100
0001
0100
0010
1000
0001
0200
0000
0000
0300
0000
,  // measure 15
1000
0010
1000
0010
0100
0010
0100
0010
1000
0010
0100
0002
0000
0000
0003
0000
,  // measure 16
0010
0001
0010
0001
0100
0010
0100
0010
1000
0100
0020
0001
0000
0000
0030
0000
,  // measure 17
0000
0000
0000
0101
0000
2002
0000
3003
,  // measure 18
1000
0010
1000
0001
1000
0010
1000
0001
,  // measure 19
1000
0100
1000
0001
1000
0100
1000
0001
,  // measure 20
1000
0010
0100
0010
0001
0100
0010
0100
,  // measure 21
1000
0010
0100
0010
0001
0100
0010
0100
,  // measure 22
1000
1100
0100
0110
0010
0001
0010
0001
,  // measure 23
0011
0001
0100
0010
1000
0001
1000
0001
,  // measure 24
0101
0100
0010
1000
0001
1000
0000
0101
,  // measure 25
0000
0000
0010
0000
1000
0000
0100
0000
0010
0000
0000
0000
0110
0000
0100
0001
,  // measure 26
0100
0000
1000
0000
0100
0000
0010
0000
0100
1000
0100
0000
1000
0000
0200
0000
,  // measure 27
0000
0000
2000
0000
0300
0000
0020
0000
3000
0000
0230
0000
0000
0000
0301
0100
,  // measure 28
0010
0000
1000
0000
0100
0000
0010
0000
0001
0010
0001
0000
0100
0000
0020
0000
,  // measure 29
0000
0000
2000
0000
0030
0000
0002
0000
3000
0000
0200
0000
0003
0000
0301
0100
,  // measure 30
0010
0000
1000
0000
0010
0000
0100
0000
0001
1000
0100
0000
0020
0000
0002
0000
,  // measure 31
0030
0000
0020
0000
0003
0000
0230
0000
0000
0000
0020
0000
0300
0000
0031
0010
,  // measure 32
0100
0000
0010
0000
0001
0000
0100
0000
0010
1000
0100
0010
0001
0000
0202
0000
,  // measure 33
0303
2020
3030
2200
3300
0022
0000
0033
,  // measure 34
1001
0000
0101
0000
1001
0000
1100
0000
1000
0000
0010
0100
0001
0100
0010
0000
,  // measure 35
1000
0000
0100
0000
0010
0000
0001
0000
1000
0001
0100
0001
1000
0001
0100
0001
,  // measure 36
0010
0001
0000
0011
0000
0110
0000
1100
,  // measure 37
0000
0000
0110
0000
0000
0000
0011
0000
0000
0000
2002
0000
3003
0000
0001
1000
,  // measure 38
0100
0000
1100
0000
0110
0000
0011
0000
0001
0000
1000
0100
0010
0000
0001
0000
,  // measure 39
0100
0000
0010
0000
2000
0000
3000
0000
0001
0010
0100
1000
0001
0010
0100
1000
,  // measure 40
0010
0000
1000
0000
0001
0000
1000
0000
0100
0000
0010
0000
0001
0000
1000
0001
,  // measure 41
1000
0100
1000
0001
1000
0100
1000
0001
1000
0010
1000
0001
1000
0010
1000
0001
,  // measure 42
1000
0000
1100
0000
1001
0000
0101
0000
0100
0000
0001
0100
0010
0000
1000
0010
,  // measure 43
0100
0000
0010
0000
0100
0000
0001
0000
0010
0001
0010
0001
0100
0010
0100
0010
,  // measure 44
1000
0100
0000
1010
0000
1001
0000
0101
,  // measure 45
0000
0000
1001
0000
0000
0000
1010
0000
0000
0000
0202
0000
0303
0000
0001
1000
,  // measure 46
0100
0000
1010
0000
0101
0000
0011
0000
0001
0000
0010
0100
1000
0000
1000
0100
,  // measure 47
0010
0000
0001
0000
0100
0000
0010
0000
1000
0010
1000
0010
0100
0001
0100
0001
,  // measure 48
1000
0001
0100
1000
0000
0110
0000
2002
,  // measure 49
0000
0000
3003
0000
0000
0000
0001
1000
0000
0002
2000
0000
0000
0000
3003
0000
,  // measure 50
1000
0100
0010
0100
1000
0100
0001
0100
1000
0010
0100
0002
0000
0000
0003
0000
,  // measure 51
0001
0100
0010
0100
0001
0100
1000
0100
0010
0001
0100
0020
0000
0000
0030
0000
,  // measure 52
1000
0010
0100
0010
1000
0100
0010
0100
1000
0010
0200
0010
0000
0000
0300
0000
,  // measure 53
0100
1000
0010
0000
0110
0000
0100
0001
0010
0000
0110
0000
0100
1000
0100
0000
,  // measure 54
0001
0010
0100
0010
0001
0100
0010
0100
0001
1000
0100
0020
0000
0000
0030
0000
,  // measure 55
0100
0010
0100
0010
1000
0010
1000
0010
0100
0010
1000
0200
0000
0000
0300
0000
,  // measure 56
0010
1000
0010
1000
0100
1000
0100
1000
0010
0100
2000
0100
0000
0000
3000
0000
,  // measure 57
0000
0000
0000
1100
0000
0202
0000
0000
,  // measure 58
0303
0000
0000
0000
;
