#VERSION:0.83;
#TITLE:FAINT;
#SUBTITLE:;
#ARTIST:PEGASUS;
#TITLETRANSLIT:;
#SUBTITLETRANSLIT:;
#ARTISTTRANSLIT:;
#GENRE:;
#ORIGIN:;
#CREDIT:;
#BANNER:FAINT.png;
#BACKGROUND:FAINT-bg.png;
#PREVIEWVID:;
#JACKET:FAINT-jacket.png;
#CDIMAGE:;
#DISCIMAGE:;
#LYRICSPATH:;
#CDTITLE:;
#MUSIC:FAINT.ogg;
#OFFSET:0.000000;
#SAMPLESTART:55.119999;
#SAMPLELENGTH:15.000000;
#SELECTABLE:YES;
#DISPLAYBPM:135.000000;
#BPMS:0.000=135.000;
#STOPS:;
#DELAYS:;
#WARPS:;
#TIMESIGNATURES:0.000=4=4;
#TICKCOUNTS:0.000=4;
#COMBOS:0.000=1;
#SPEEDS:0.000=1.000=0.000=0;
#SCROLLS:0.000=1.000;
#FAKES:;
#LABELS:0.000=Song Start;
#BGCHANGES:;
#KEYSOUNDS:;
#ATTACKS:
;

//---------------dance-single - ----------------
#NOTEDATA:;
#CHARTNAME:;
#STEPSTYPE:dance-single;
#DESCRIPTION:;
#CHARTSTYLE:;
#DIFFICULTY:Beginner;
#METER:3;
#RADARVALUES:0.115740,0.187354,0.000000,0.009645,0.000000,84.000000,84.000000,0.000000,1.000000,0.000000,0.000000,0.000000,0.000000,0.000000,0.115740,0.187354,0.000000,0.009645,0.000000,84.000000,84.000000,0.000000,1.000000,0.000000,0.000000,0.000000,0.000000,0.000000;
#CREDIT:;
#DISPLAYBPM:135.000000;
#NOTES:
0000
0000
0000
0000
,
0000
0000
0000
0000
,
0010
0000
0000
0000
,
0100
0000
0000
0000
,
0001
0000
0001
0000
,
0001
0000
0001
0000
,
1000
0000
0000
0000
,
0010
0000
0000
0000
,
0100
0000
0100
0000
,
0200
0000
0000
0300
,
0000
0000
0000
0000
,
1000
0000
0001
0000
,
1000
0000
0100
0000
,
1000
0000
0001
0000
,
0100
0000
0010
0000
,
1000
0000
0001
0000
,
0010
0000
0000
0000
,
0100
0000
0000
0000
,
1000
0000
0000
0000
,
0001
0000
0000
0000
,
0010
0000
0010
0000
,
0010
0000
0010
0000
,
0100
0000
0000
0000
,
1000
0000
0000
0000
,
0010
0000
0010
0000
,
0010
0000
0010
0000
,
0001
0000
0000
0000
,
1000
0000
0000
0000
,
0100
0000
0010
0000
,
0100
0000
0010
0000
,
0000
0000
0000
0000
,
0001
0000
0000
0000
,
1000
0000
0001
0000
,
1000
0000
0001
0000
,
1000
0000
0010
0000
,
0100
0000
0000
0000
,
0010
0000
0100
0000
,
0010
0000
0100
0000
,
0010
0000
0000
0000
,
1000
0000
0001
0000
,
0010
0000
0000
0000
,
1000
0000
0100
0000
,
1000
0000
0100
0000
,
0001
0000
1000
0000
,
0010
0000
0000
0000
,
0100
0000
0001
0000
,
0100
0000
0001
0000
,
1000
0000
0000
0000
,
0001
0000
0000
0000
,
0010
0000
0000
0000
,
0100
0000
0000
0000
,
1000
0000
0000
0000
,
0010
0010
0010
0000
,
0100
0100
0100
0000
,
0001
0001
0001
0000
,
1000
0000
0001
0000
,
0000
0000
0000
0000
;

//---------------dance-single - ----------------
#NOTEDATA:;
#CHARTNAME:;
#STEPSTYPE:dance-single;
#DESCRIPTION:;
#CHARTSTYLE:;
#DIFFICULTY:Easy;
#METER:4;
#RADARVALUES:0.186010,0.215083,0.009645,0.086805,0.000000,135.000000,134.000000,1.000000,9.000000,0.000000,0.000000,0.000000,0.000000,0.000000,0.186010,0.215083,0.009645,0.086805,0.000000,135.000000,134.000000,1.000000,9.000000,0.000000,0.000000,0.000000,0.000000,0.000000;
#CREDIT:;
#DISPLAYBPM:135.000000;
#NOTES:
0000
0000
0000
0000
,
0000
0000
0000
0000
,
1000
0000
0001
0000
,
0100
0100
0000
0000
,
0020
0030
0010
0000
,
0002
0003
0001
0001
,
1000
0000
0100
0000
,
0010
0010
0000
0000
,
0002
0003
0001
0100
,
0000
0000
0000
0000
,
1000
1000
0010
0000
,
0001
0100
1000
0000
,
0010
0000
0100
0000
,
1000
0001
1000
0000
,
0001
0001
0010
0000
,
1000
0100
0001
0000
,
1000
0000
0010
0000
,
0110
0000
0000
0000
,
0010
0000
1000
0000
,
0001
0001
0000
0000
,
0020
0030
0010
0000
,
0200
0300
0100
0100
,
1000
0000
0001
0000
,
1000
1000
0000
0000
,
0020
0030
0010
0000
,
0020
0030
0010
0001
,
1000
0000
0001
0000
,
0100
0100
0000
0000
,
0002
0003
0001
0000
,
2000
3000
1000
0100
,
0001
0000
1000
0001
,
0100
0001
0100
0000
,
1000
0010
1000
0000
,
0100
0100
0100
0000
,
0010
0000
0001
1000
,
0010
0100
0010
0000
,
1000
0100
1000
0000
,
0001
0001
0001
0000
,
0100
0000
0010
0000
,
1000
0000
0010
0000
,
0001
0000
0010
0100
,
1000
0000
0100
0000
,
1000
0100
1000
0100
,
0001
0000
0010
0000
,
1000
0000
0010
0001
,
0100
0001
1000
0001
,
0010
0000
0100
0000
,
0010
0000
0100
0000
,
1000
0000
0001
0000
,
1000
0100
0001
0000
,
1000
0000
0010
0000
,
0001
0100
1000
0000
,
0010
0000
0100
0000
,
0010
0001
0100
0000
,
1000
0000
0010
0000
,
0001
0100
1000
0010
,
0000
0000
0000
0000
;

//---------------dance-single - ----------------
#NOTEDATA:;
#CHARTNAME:;
#STEPSTYPE:dance-single;
#DESCRIPTION:;
#CHARTSTYLE:;
#DIFFICULTY:Medium;
#METER:7;
#RADARVALUES:0.300372,0.324071,0.067515,0.125385,0.000000,218.000000,211.000000,7.000000,13.000000,0.000000,0.000000,0.000000,0.000000,0.000000,0.300372,0.324071,0.067515,0.125385,0.000000,218.000000,211.000000,7.000000,13.000000,0.000000,0.000000,0.000000,0.000000,0.000000;
#CREDIT:;
#DISPLAYBPM:135.000000;
#NOTES:
0000
0000
0000
0000
,
0000
0000
0000
0000
,
0001
0000
0200
0000
,
1300
0000
0010
1000
,
0100
1000
0100
0000
0001
0000
0001
0000
,
1000
0100
1000
0000
0100
0000
0100
0000
,
1000
0010
0001
1000
,
0010
0000
0100
0001
,
0010
0001
0010
0000
0100
1000
0100
0000
,
0000
1000
0000
0001
0000
0010
0100
0000
,
1000
0000
1000
0000
0001
0010
0001
0000
,
0200
0000
0310
1000
,
0001
0000
0001
0000
0010
0100
0010
0000
,
0100
0000
1000
0000
0100
0010
0001
0000
,
1000
0000
1000
0000
0010
1000
0010
0000
,
0200
0000
0301
0010
,
0100
1000
0100
0001
,
0010
0000
0000
0000
1000
0000
0010
0100
,
0001
0010
0100
1000
,
0001
0010
0100
1000
,
0022
0033
1000
0100
,
1000
0010
0100
0001
,
1000
0100
0010
0001
,
1000
0100
0010
0001
,
0220
0330
0001
1000
,
0010
0100
0001
0010
,
0001
0100
0000
0010
,
1000
0000
0100
0000
0000
0010
0001
0000
,
0100
1000
0001
0100
,
0010
1000
0100
0001
,
2002
0000
0000
3003
,
0100
1000
0001
0010
,
0000
0001
1000
0001
1000
0000
0100
0000
,
0000
1000
0001
0010
0100
0000
1000
0000
,
0001
0000
0000
1000
0000
0000
0010
0000
,
0100
1000
0001
0010
,
0000
1000
0001
1000
0001
0000
0010
0000
,
0000
0001
1000
0001
1000
0000
0010
0000
,
1001
0000
0000
0100
0000
0000
0010
0000
,
1000
0100
0010
2002
,
0000
0000
0000
3003
,
0000
1000
1000
0100
0020
0000
0031
0000
,
0001
0000
0000
1000
0000
0000
1001
0000
,
0200
0000
0310
0000
,
0001
0100
1000
0000
,
0000
0001
0001
0100
0010
0000
1000
0000
,
0010
1000
0010
0000
0100
0000
0100
0000
,
1001
0000
0100
1000
,
0010
0000
0010
0000
1000
0100
0000
0000
,
0001
1000
0010
0100
,
0010
0000
0010
0000
0001
0100
0000
0000
,
0001
0010
0100
0010
,
1000
0100
1000
0000
0001
0000
0000
0000
,
0010
0000
1000
0000
0100
0010
0001
0000
,
1000
0100
0010
0001
,
1000
0000
0100
0000
0010
0001
0010
0000
,
0100
0000
0000
0000
,
0000
0000
0000
0000
;

//---------------dance-single - ----------------
#NOTEDATA:;
#CHARTNAME:;
#STEPSTYPE:dance-single;
#DESCRIPTION:;
#CHARTSTYLE:;
#DIFFICULTY:Hard;
#METER:9;
#RADARVALUES:0.387177,0.439811,0.241124,0.183254,0.000000,281.000000,256.000000,25.000000,19.000000,0.000000,0.000000,0.000000,0.000000,0.000000,0.387177,0.439811,0.241124,0.183254,0.000000,281.000000,256.000000,25.000000,19.000000,0.000000,0.000000,0.000000,0.000000,0.000000;
#CREDIT:;
#DISPLAYBPM:135.000000;
#NOTES:
0000
0000
0000
0000
,
0000
0000
0000
0000
,
0001
0100
1000
0000
0000
0010
0100
0000
,
1000
0000
0001
0000
0000
0010
0001
0000
,
0020
1030
0020
0031
,
0020
1030
0020
0031
,
1000
0010
0001
0000
0000
0100
0010
0000
,
0001
0000
1000
0000
0000
0100
1000
0010
,
0200
0301
0200
1300
,
0001
0010
0000
0100
0010
0000
0011
0000
,
1000
0100
0001
0100
,
1000
0100
1000
0000
0101
0000
0101
0000
,
0001
0100
1000
0100
,
1000
0100
1000
0000
0101
0000
0101
0000
,
1000
0100
0001
0100
,
1000
0100
1000
0000
0101
0000
0101
0000
,
0001
0100
1000
0100
,
0010
0000
0100
0001
0000
1000
0100
0000
,
1000
0110
0001
0110
,
1000
0101
1000
0011
,
2000
3100
0020
0130
,
2000
3010
0200
1300
,
0100
0001
0010
0000
0000
0001
1000
0000
,
0010
0000
0100
0000
0000
0010
0010
0000
,
2000
3001
2000
3010
,
0200
1300
0200
0301
,
0010
0000
1000
0000
0000
0100
1000
0000
,
0010
0000
0100
0000
0000
0001
1000
0000
,
1000
0100
0010
0000
0102
0000
1003
0000
,
0100
1000
0010
0000
0100
0001
0100
0010
,
0200
0000
0000
0000
0000
0000
1300
0100
,
0000
0010
0100
0001
0000
1000
0100
0000
,
0000
0010
0001
0010
0100
1000
0100
0000
,
0000
1000
0100
1000
0001
0100
1000
0000
,
1000
0010
0000
0100
0000
0010
0010
0000
,
0100
0100
0010
1000
0000
0001
0010
0000
,
0000
0100
1000
0100
0010
0001
0010
0000
,
0000
1001
0010
1000
0001
0010
1001
0000
,
0100
0001
0000
1000
0000
0100
0100
0000
,
1100
0000
0000
0110
0000
0000
2100
0000
,
0001
0010
0010
3010
,
0010
0100
0001
0100
0001
0100
1000
0000
,
1000
0100
0000
0010
0000
0100
0100
0000
,
0110
0000
0000
0011
0000
0000
0102
0000
,
1000
0010
0010
0013
,
0001
0100
0000
0010
0000
1000
1000
0000
,
0000
0010
1000
0010
1000
0010
0001
0000
,
1000
0001
0000
0100
0000
1000
1000
0000
,
0110
0000
0100
0000
0001
0100
0000
0010
,
0000
1001
0000
0000
0001
1000
0000
0000
,
0100
0000
0010
0000
1001
0000
0000
0100
,
0000
0010
0100
0000
1000
0010
0100
0001
,
1000
0100
1000
0000
0010
0100
0000
1001
,
0000
0100
0001
0000
1001
0100
0000
0000
,
0010
0000
0100
0000
0001
1000
0000
0001
,
0000
1000
0010
0100
1000
0001
0010
0100
,
2000
0000
0000
0000
,
3000
0000
0000
0000
;

//---------------dance-double - ----------------
#NOTEDATA:;
#CHARTNAME:;
#STEPSTYPE:dance-double;
#DESCRIPTION:;
#CHARTSTYLE:;
#DIFFICULTY:Easy;
#METER:4;
#RADARVALUES:0.190144,0.215083,0.019290,0.115740,0.000000,138.000000,136.000000,2.000000,12.000000,0.000000,0.000000,0.000000,0.000000,0.000000,0.190144,0.215083,0.019290,0.115740,0.000000,138.000000,136.000000,2.000000,12.000000,0.000000,0.000000,0.000000,0.000000,0.000000;
#CREDIT:;
#DISPLAYBPM:135.000000;
#NOTES:
00000000
00000000
00000000
00000000
,
00000000
00000000
00000000
00000000
,
00001000
00000000
00000001
00000000
,
00000010
00000010
00000000
00000000
,
00002000
00003000
00020000
00030000
,
02000000
03000000
00100000
00000000
,
10000000
00000000
00010000
00000000
,
00100000
00100000
00000000
00000000
,
00020000
00030000
00002000
00003000
,
00000200
00000300
00000010
00000000
,
00000100
00000100
00000010
00000000
,
00000001
00000100
00001000
00000000
,
00010000
00000000
00100000
00000000
,
00001000
00010000
00001000
00000000
,
01000000
01000000
00100000
00000000
,
10000000
01000000
00010000
00000000
,
00001000
00000000
00000010
00000000
,
00001001
00000000
00000000
00000000
,
00000010
00000000
00001000
00000000
,
00000100
00000100
00000000
00000000
,
00020000
00030000
00010000
00000000
,
00002000
00003000
00001000
00001000
,
00100000
00000000
00010000
00000000
,
01000000
01000000
00000000
00000000
,
00002000
00003000
00001000
00000000
,
00020000
00030000
00010000
00000010
,
00000001
00000000
00000100
00000100
,
00001000
00001000
00000000
00000000
,
00200000
00300000
00100000
00000000
,
00002000
00003000
00001000
00010000
,
00000100
00000000
00001000
00000010
,
00000100
00000001
00001000
00000000
,
00000100
00000001
00000100
00000000
,
00001000
00010000
01000000
00000000
,
00010000
10000000
00010000
00000000
,
01000000
10000000
00010000
00000000
,
01000000
10000000
01000000
00000000
,
00010000
00001000
00000100
00000000
,
00001000
00000001
00001000
00000000
,
00000001
00000000
00000010
00000000
,
00000100
00000000
00001000
00010000
,
01000000
00000000
10000000
00000000
,
00100000
01000000
00100000
01000000
,
10000000
00000000
00100000
00000000
,
01000000
00000000
00010000
00001000
,
00000100
00000000
00000001
00000000
,
00000010
00000100
00000010
00000100
,
00001001
00000000
00000100
00000000
,
00010000
00000000
00001000
00000000
,
00100000
00010000
01000000
00000000
,
00001000
00000000
00010000
00000000
,
00000010
00001000
00000100
00000000
,
00010000
00000000
01000000
00000000
,
00100000
00010000
00001000
00000000
,
00001000
00000000
00000100
00000000
,
00000010
00001000
00010000
01000000
,
00000000
00000000
00000000
00000000
;

//---------------dance-double - ----------------
#NOTEDATA:;
#CHARTNAME:;
#STEPSTYPE:dance-double;
#DESCRIPTION:;
#CHARTSTYLE:;
#DIFFICULTY:Medium;
#METER:8;
#RADARVALUES:0.365131,0.378083,0.125385,0.173609,0.000000,265.000000,252.000000,13.000000,18.000000,0.000000,0.000000,0.000000,0.000000,0.000000,0.365131,0.378083,0.125385,0.173609,0.000000,265.000000,252.000000,13.000000,18.000000,0.000000,0.000000,0.000000,0.000000,0.000000;
#CREDIT:;
#DISPLAYBPM:135.000000;
#NOTES:
00000000
00000000
00000000
00000000
,
00000000
00000000
00000000
00000000
,
00001000
00000010
00000100
00000000
00000000
00000001
00001000
00000000
,
00000010
00000000
00000001
00000000
00000000
00000010
00001000
00000000
,
00000200
00010300
00002000
00013000
,
00200000
00310000
20000000
30010000
,
00010000
00100000
01000000
00000000
00000000
10000000
00010000
00000000
,
00100000
00000000
10000000
00000000
00000000
00100000
00010000
00000000
,
02000000
03001000
00020000
00031000
,
00010000
00001000
00000100
00000000
00001001
00000000
00000000
00000000
,
00001000
00000100
00000010
00000000
00000000
00001000
00001000
00000000
,
00010000
00000000
00100000
00000000
01000000
10000000
01000000
00000000
,
00010000
01000000
00100000
00000000
00000000
00010000
00010000
00000000
,
10000000
00000000
00100000
00000000
01000000
00010000
01000000
00000000
,
00010000
01000000
00100000
00000000
00000000
00010000
00010000
00000000
,
00001000
00000000
00000010
00000000
00000100
00000001
00000100
00000000
,
00000001
00000000
00000010
00000000
00000100
00001000
00000100
00000000
,
00001000
00000100
00000010
00000000
00000000
00001000
00001000
00000000
,
00001000
00000011
00001000
00000101
,
00000010
00011000
01000000
00011000
,
00002000
00103000
00020000
10030000
,
00200000
01300000
00020000
10030000
,
01000000
10000000
00100000
00000000
00000000
01000000
00010000
00000000
,
00100000
00000000
00001000
00000000
00000000
00010000
00010000
00000000
,
00002000
00013000
00000200
00001300
,
00000020
00001030
00000020
00000031
,
00001000
00000000
00000001
00000000
00000000
00000100
00000001
00000000
,
00000010
00000000
00000100
00000000
00000000
00000100
00000010
00000000
,
00001100
00010000
00012000
00103000
,
00010000
00001000
00100000
00000000
00010000
10000000
00010000
00000000
,
00200000
00000000
00000000
00300000
,
10000000
01000000
00100000
00000000
00010000
00000000
01000000
00000000
,
00000000
10000000
00010000
10000000
10000000
00010000
10000000
00000000
,
00000000
00100000
00001000
00100000
00100000
00001000
00100000
00000000
,
00010000
00001000
00000010
00000001
,
00000001
00000100
00000010
00000000
00001000
00000000
00000100
00000000
,
00000000
00000001
00001000
00000001
00000001
00001000
00000001
00000000
,
00000000
00000010
00010000
00000010
00000010
00010000
00000010
00000000
,
00001000
00010000
00100000
10000000
,
00110000
00000000
00000000
00011000
00000000
00000000
00020100
00000000
,
00000000
00000010
00000010
00030010
,
00000000
00000001
00001000
00000001
00000001
00001000
00000001
00000000
,
00000010
00000100
00000000
00000001
00000000
00001000
00001000
00000000
,
00001010
00000000
00000000
00011000
00000000
00000000
01002000
00000000
,
00000000
00100000
00100000
00103000
,
00000000
10000000
00010000
10000000
10000000
00010000
10000000
00000000
,
00000000
00100000
01000000
00100000
00100000
01000000
00100000
00000000
,
00010000
00100000
00000000
01000000
00000000
00010000
00010000
00000000
,
00001000
00000000
00010000
00000000
00001000
00000100
00000010
00000000
,
00000000
00001000
00000100
00000000
00000100
00000010
00000001
00000000
,
00000100
00000000
00000100
00000000
00000010
00000100
00000001
00000000
,
00000000
00000010
00000100
00001000
00000000
00000010
00000100
00001000
,
00010000
01000000
00100000
00000000
01000000
10000000
00010000
00000000
,
00000000
00100000
01000000
00000000
01000000
10000000
00010000
00000000
,
00100000
00000000
01000000
00000000
00001000
00010000
00001000
00000000
,
00000000
00000100
00000010
00001000
00000100
00000010
00000001
00000000
,
00000100
00000000
00000000
00000000
,
00000000
00000000
00000000
00000000
;

//---------------dance-double - ----------------
#NOTEDATA:;
#CHARTNAME:;
#STEPSTYPE:dance-double;
#DESCRIPTION:;
#CHARTSTYLE:;
#DIFFICULTY:Hard;
#METER:10;
#RADARVALUES:0.400955,0.430166,0.376154,0.424379,0.000000,291.000000,252.000000,39.000000,44.000000,0.000000,0.000000,0.000000,0.000000,0.000000,0.400955,0.430166,0.376154,0.424379,0.000000,291.000000,252.000000,39.000000,44.000000,0.000000,0.000000,0.000000,0.000000,0.000000;
#CREDIT:;
#DISPLAYBPM:135.000000;
#NOTES:
00000000
00000000
00000000
00000000
,
00000000
00000000
00000000
00000000
,
00001000
00000000
00000001
00000000
00000010
00000001
00000100
00000000
,
00000010
00000000
00001000
00000000
00000001
00000100
00001000
00000000
,
00020000
00031000
00002000
00013000
,
00200000
00301000
02000000
03001000
,
00010000
00000000
10000000
00000000
00100000
10000000
01000000
00000000
,
00100000
00000000
00010000
00000000
10000000
01000000
00010000
00000000
,
00002000
00013000
00020000
00031000
,
00000020
00010030
00000200
00010300
,
00010000
00000000
00001000
00000000
00000010
00000001
00000100
00000000
,
00000010
00000000
00001000
00000000
00000010
00000100
00000001
00000000
,
00001000
00000000
00001000
00000000
00001000
00010000
01000000
00000000
,
10000000
00000000
00010000
00000000
00100000
00010000
00001000
00000000
,
00001000
00000000
00010000
00000000
00100000
10000000
01000000
00000000
,
00100000
00000000
00010000
00000000
00100000
01000000
10000000
00000000
,
00010000
00000000
00010000
00000000
00010000
00001000
00000100
00000000
,
00001000
00000100
00000010
00000000
00001000
00000100
00000001
00000000
,
00001000
00000010
00000001
00000100
,
00000020
00010000
00010000
00010030
,
00020000
00031000
00002000
01003000
,
02000000
03100000
00200000
00310000
,
00010000
00100000
01000000
00010000
,
00200000
00001000
00001000
00301000
,
00002000
00013000
00020000
00030100
,
00000200
00000310
00000020
00001030
,
00011000
00010000
00001000
00000000
00010000
01000000
10000000
00000000
,
00100000
00000000
00010000
00000000
00100000
10000000
01000000
00000000
,
00010000
00000000
00001000
00000000
00000010
00000001
00000100
00000000
,
00001000
00010000
01000000
00000000
00010000
00001000
00000010
00000000
,
00002002
00000000
00000000
00000000
00003003
00000010
00000100
00000000
,
00002002
00000000
00003003
00000220
00000000
00000330
00002002
00000000
,
00003003
00000001
00000100
00000001
00001000
00000100
00001000
00000000
,
00000000
00010000
00001000
00010000
00100000
10000000
00100000
00000000
,
00010000
01000000
00000000
10100000
00000000
01010000
01010000
00000000
,
02200000
00000000
03300000
20020000
00000000
30030000
02200000
00000000
,
03300000
10000000
01000000
10000000
00010000
01000000
00010000
00000000
,
00000000
00010000
00001000
00000100
00000010
00000001
00000010
00000000
,
00001000
00000100
00000000
00000011
00000000
00001100
00001100
00000000
,
00020200
00000000
00030300
00022000
00000000
00033000
00201000
00000000
,
00010000
01000000
00010000
01300000
,
00000000
10000000
00100000
10000000
00010000
00100000
00010000
00000000
,
10000000
01000000
00000000
00110000
00000000
11000000
01010000
00000000
,
02002000
00000000
03003000
00022000
00000000
00033000
00010020
00000000
,
00001000
00000100
00001000
00000130
,
00000001
00001100
00000010
00000101
,
00000000
00000001
00000100
00000001
00000100
00001000
00000100
00000000
,
00001000
00010000
00000000
00011000
00000000
00011000
00011000
00000000
,
00102000
01000000
01000000
00103000
,
00110000
10010000
01010000
10010000
,
00100000
10000000
01000000
00000000
01000000
10000000
00100000
00000000
,
00100000
00010000
00100000
00010000
00000000
00000000
00001000
00000000
,
00020100
00000010
00000010
00030100
,
00001100
00001001
00000101
00000110
,
00000100
00000001
00001000
00000000
00001000
00000001
00000010
00000000
,
00000010
00001000
00010000
00001000
00000000
00000000
00011000
00000000
,
00000000
00000000
00000000
00000000
;

//---------------dance-single - ----------------
#NOTEDATA:;
#CHARTNAME:;
#STEPSTYPE:dance-single;
#DESCRIPTION:;
#CHARTSTYLE:;
#DIFFICULTY:Challenge;
#METER:15;
#RADARVALUES:0.788132,0.852133,0.434024,0.183254,0.781242,572.000000,527.000000,45.000000,19.000000,0.000000,0.000000,0.000000,0.000000,0.000000,0.788132,0.852133,0.434024,0.183254,0.781242,572.000000,527.000000,45.000000,19.000000,0.000000,0.000000,0.000000,0.000000,0.000000;
#CREDIT:;
#DISPLAYBPM:135.000000;
#NOTES:
// measure 0
0000
0000
0000
0000
,  // measure 1
0000
0000
0000
0000
,  // measure 2
1100
1000
0010
0000
1010
1000
1100
0000
,  // measure 3
1000
0001
0100
0010
1000
0001
1001
0000
,  // measure 4
1000
0200
0010
0300
0001
0020
0100
0030
,  // measure 5
0001
0020
1000
0030
0100
2000
0001
3000
,  // measure 6
0010
1000
1001
0000
0010
0001
0101
0000
,  // measure 7
0100
0010
1000
0010
0001
0100
0110
0000
,  // measure 8
0010
0000
2000
0000
0100
0000
3000
0000
0001
0000
0200
0000
0010
0000
0310
0100
,  // measure 9
0001
0001
0001
0010
1000
1000
1000
0010
0001
0001
1000
1000
0001
1000
0001
1000
,  // measure 10
1001
1000
0100
0000
0101
0100
0010
0000
,  // measure 11
1010
0010
0001
1000
0010
0100
0001
0000
,  // measure 12
1000
0100
0010
1000
0001
0100
0010
0000
,  // measure 13
0010
0001
1000
0010
0100
0100
0010
0000
,  // measure 14
0011
1000
0010
0000
0101
0010
1000
0000
,  // measure 15
1000
0100
0010
1000
0001
0010
1000
0000
,  // measure 16
1010
0000
0100
0001
0000
1000
0100
0000
,  // measure 17
0010
0000
0001
0000
0000
0000
0001
0000
1000
0001
1000
0000
1001
0000
0000
0000
,  // measure 18
1000
0100
1000
0000
0001
1000
0001
0000
0010
0001
0100
0010
0100
0000
0000
0000
,  // measure 19
0010
1000
0010
0000
0001
0100
0001
0000
1000
0100
0010
0001
0100
0000
0000
0000
,  // measure 20
0010
1000
0100
0010
0002
0000
0000
0000
0013
0001
0100
0010
2000
0000
0000
0000
,  // measure 21
3100
1000
0010
0100
0002
0000
0000
0000
0013
0001
1000
0100
0020
0000
0000
0000
,  // measure 22
0031
0100
0001
0000
0010
1000
0010
0000
0001
0100
0010
1000
0100
0000
0000
0000
,  // measure 23
1000
0100
1000
0000
0010
0001
0010
0000
1000
0100
0010
0001
1000
0000
0000
0000
,  // measure 24
0001
0010
0100
1000
0200
0000
0000
0000
0310
0001
1000
0010
0002
0000
0000
0000
,  // measure 25
0103
0010
0001
1000
0020
0000
0000
0000
0031
0100
1000
0010
0200
0000
0000
0000
,  // measure 26
1300
0010
1000
0000
0001
0100
0001
0000
1000
0100
0010
0001
1000
0000
0000
0000
,  // measure 27
0001
0010
0001
0000
0100
0001
0100
0000
0010
1000
0100
0010
0001
0000
0000
0000
,  // measure 28
0001
0010
0100
1000
0010
0000
1010
0000
1000
0000
0100
0010
0000
0010
0001
0000
,  // measure 29
1000
0001
1000
0000
0001
1000
0001
0000
1000
0001
1000
0001
2000
0000
0000
0000
,  // measure 30
0000
0000
0001
0000
0001
0001
3001
0000
,  // measure 31
1000
0100
0010
0001
1000
0000
0001
0010
0100
1000
0010
0000
1000
0010
0100
0001
,  // measure 32
1000
0010
0100
0001
1000
0000
0001
0000
1001
0000
1001
0000
1001
0000
0001
0010
,  // measure 33
0100
1000
0010
0100
0001
0000
1000
0100
0010
0000
0001
0010
0100
0010
1000
0010
,  // measure 34
0100
0000
0000
1010
0000
0000
0101
0000
1001
0000
1000
0100
0001
0000
0000
0000
,  // measure 35
0001
0010
1000
0100
0010
0000
1000
0010
0001
0100
0010
0000
1000
0100
0010
0001
,  // measure 36
1000
0010
0001
0100
0010
0000
0100
0000
0110
0000
0110
0000
0110
0000
0010
1000
,  // measure 37
0100
0010
0001
0100
0010
0000
1000
0010
0100
0000
0001
0010
1000
0100
0010
0001
,  // measure 38
1000
0000
0000
0011
0000
0000
1100
0000
1010
0000
1000
0010
0101
0000
0000
0000
,  // measure 39
1000
0100
0010
0001
1000
0000
0001
0100
0010
1000
0100
0000
0010
1000
0100
0010
,  // measure 40
0001
0000
0100
0001
1000
0000
0010
1000
0001
0010
1000
0000
1100
0000
0000
0000
,  // measure 41
1000
0000
0010
0100
0001
0000
0010
0000
1000
0010
1000
0000
1010
0000
0000
0000
,  // measure 42
0001
0000
0000
0101
0000
0000
1001
0000
0010
0001
1000
0000
1001
0000
0000
0000
,  // measure 43
1000
0100
0010
0100
1000
0000
0010
0100
0001
0100
0010
0000
1000
0001
0010
1000
,  // measure 44
0100
0001
0010
1000
0100
0001
0010
1000
0100
0000
0011
0000
0011
0000
0000
0000
,  // measure 45
1000
0001
0100
0010
1000
0100
0010
0000
0011
0000
1001
0000
1010
0000
0000
0000
,  // measure 46
1000
0000
0010
0100
0001
0000
0101
0000
0100
0001
1000
0000
1001
0000
0000
0000
,  // measure 47
1010
0000
0000
0011
0000
0000
0101
0000
1000
0100
0001
0000
1001
0000
0000
0000
,  // measure 48
1000
0010
1000
0010
1000
0010
1000
0010
1000
0010
1000
0001
0100
0000
0010
1000
,  // measure 49
0100
0000
0010
0001
1000
0000
0010
1000
0100
0000
0010
0001
1000
0000
0000
0000
,  // measure 50
1000
0010
0100
0001
1000
0100
0010
0001
1000
0010
0001
0100
0010
1000
0100
0010
,  // measure 51
0001
0100
0010
0000
0010
1000
0100
0000
0001
0100
0010
1000
0100
0000
2000
0000
,  // measure 52
0200
0000
0000
0000
0000
0000
0000
0000
3300
0000
1100
0000
0000
0000
1000
0001
,  // measure 53
0100
0000
0000
0000
0010
0000
1000
0000
0100
0000
0000
0000
0001
0000
1000
0000
0100
0000
0000
0000
0010
0000
0100
0000
0010
0100
0010
0000
0100
0000
0000
0000
,  // measure 54
0001
0010
1000
0100
0010
0001
0100
1000
0010
0001
1000
0100
0010
0001
1000
0010
,  // measure 55
0001
1000
0100
0000
0010
1000
0100
0000
1000
0100
0010
0001
0020
0000
0000
0000
,  // measure 56
0002
0000
0000
0000
,  // measure 57
0033
0000
0000
0000
;
