#TITLE:FACE;
#SUBTITLE:;
#ARTIST:N.R.G;
#TITLETRANSLIT:;
#SUBTITLETRANSLIT:;
#ARTISTTRANSLIT:;
#GENRE:;
#CREDIT:;
#BANNER:FACE.png;
#BACKGROUND:FACE-bg.png;
#LYRICSPATH:;
#CDTITLE:;
#MUSIC:FACE.mp3;
#OFFSET:1.686000;
#SAMPLESTART:32.362000;
#SAMPLELENGTH:15.000000;
#LASTBEATHINT:1.429167;
#SELECTABLE:YES;
#DISPLAYBPM:125.000000;
#BPMS:0.000000=124.999992
,100.000000=126.999992
,102.000000=124.999992
,144.000000=125.999992
,146.000000=124.999992
,150.000000=124.000000
,152.000000=124.999992
,166.000000=125.500000
,168.000000=124.999992
;
#STOPS:
;
#BGCHANGES:;
#KEYSOUNDS:;
#ATTACKS:;

//---------------dance-single - ----------------
#NOTES:
     dance-single:
     :
     Easy:
     5:
     0.258823,0.333665,0.201306,0.030196,0.000000,180.000000,160.000000,20.000000,3.000000,0.000000,0.000000,0.258823,0.333665,0.201306,0.030196,0.000000,180.000000,160.000000,20.000000,3.000000,0.000000,0.000000:
0000
0000
0000
0000
,
0000
0000
0000
0000
,
0000
0000
0000
0000
,
0000
0000
0000
0000
,
1001
1000
0100
0100
,
0001
0100
1000
0010
,
1001
0100
0001
0001
,
0010
0100
0001
0001
,
1000
0100
0001
0001
,
0010
1000
0100
1001
,
0010
1000
1000
0100
,
0001
0100
0100
0001
,
0010
1000
1000
0100
,
1000
1000
1000
1000
,
0010
0001
0001
0100
,
1000
0100
0100
1000
,
0010
0001
0001
0100
,
0001
0001
0001
0001
,
1000
0100
1001
0001
,
0001
0100
1001
1000
,
1001
0100
1001
0100
,
0010
0010
0010
0010
,
0001
0100
1001
1000
,
1000
0100
1001
0001
,
1001
0100
1001
0100
,
0010
0010
0010
0010
,
0010
0000
0000
0000
,
1000
0000
1000
0000
,
0100
0000
0100
0000
,
0001
0000
0001
0000
,
0100
0000
0100
0000
,
1000
0000
1000
0000
,
0100
0000
0001
0000
,
0100
0000
1000
0000
,
0100
0000
0001
0000
,
0100
0000
1000
0000
,
0100
0000
0001
0100
,
0110
0001
0010
1000
,
0110
0001
0010
1000
,
0110
1000
0100
0001
,
0110
1000
0100
0001
,
0002
0000
0000
0003
,
0110
0001
1000
1000
,
0100
0001
0100
0100
,
0110
1000
0001
0001
,
0100
1000
0100
0100
,
1001
1000
0100
0100
,
1001
0001
0100
0100
,
0010
1000
0001
0010
,
0100
1000
0001
0100
,
2002
0000
0000
0000
,
3003
0000
0000
0000
;

//---------------dance-single - ----------------
#NOTES:
     dance-single:
     :
     Medium:
     9:
     0.320652,0.410665,0.372417,0.020131,0.000000,223.000000,186.000000,37.000000,2.000000,0.000000,0.000000,0.320652,0.410665,0.372417,0.020131,0.000000,223.000000,186.000000,37.000000,2.000000,0.000000,0.000000:
0000
0000
0000
0000
,
0000
0000
0000
0000
,
0000
0000
0000
0000
,
0000
0000
0000
0000
,
0010
0010
0101
1100
,
0001
0100
1000
0000
0010
1000
0001
0000
,
0010
0001
0100
0000
1000
0000
1000
0000
,
0010
1000
0100
0000
0001
0000
0001
0000
,
0100
0001
1000
0000
0010
0000
0010
0000
,
0010
1000
0001
0000
0100
0000
0100
0000
,
1010
0100
0001
0010
,
1001
0100
1001
0100
,
1000
1100
0001
0101
,
1010
0101
1000
1000
,
0011
0100
1000
0010
,
1001
0100
1001
0100
,
0110
0001
0100
1000
,
0011
0101
1000
0001
,
1001
0000
0100
0000
0010
1000
0100
0000
,
1001
0000
0100
0000
0010
0001
0100
0000
,
1000
0101
1000
1100
,
0001
0000
0100
0000
1000
0001
0100
0000
,
1001
0000
0100
0000
0010
0001
0100
0000
,
1001
0000
0100
0000
0010
1000
0100
0000
,
0001
1100
0001
0101
,
1000
0000
0100
0000
0001
1000
0100
0000
,
0100
0000
0000
0000
,
1000
0000
0100
0000
,
0001
0000
0010
0000
,
1000
0000
0010
0000
,
0001
0000
0100
0000
,
1000
0000
0100
0000
,
0001
0100
0010
0000
,
1000
0100
0010
0000
,
0001
0100
0010
0000
,
1000
0100
0010
0000
,
0001
0100
0010
1000
,
0010
0100
0011
1000
,
0010
0100
1010
0001
,
1100
0001
0010
1000
,
0101
1000
0010
0001
,
0200
0000
0000
0300
,
0010
0100
0001
0000
1010
0000
0001
0000
,
1000
0001
0100
0000
1001
0000
1100
0000
,
0001
1000
0100
0000
1001
0000
0101
0000
,
0010
0100
1000
0000
0011
0000
1000
0000
,
0010
1000
0001
0000
0100
0000
0100
0000
,
0010
0001
1000
0000
0100
0000
0100
0000
,
0110
0000
1001
0000
0010
1000
0001
0000
,
0110
0000
1001
0000
0010
0001
1000
0100
,
0020
0000
0000
0000
,
0030
0000
0000
0000
;

//---------------dance-single - ----------------
#NOTES:
     dance-single:
     :
     Hard:
     12:
     0.378169,0.513332,0.110719,0.040261,0.090588,263.000000,252.000000,11.000000,4.000000,0.000000,0.000000,0.378169,0.513332,0.110719,0.040261,0.090588,263.000000,252.000000,11.000000,4.000000,0.000000,0.000000:
0000
0000
0000
0000
,
0000
0000
0000
0000
,
0000
0000
0000
0000
,
0000
0000
0000
0000
,
0001
0100
1000
0000
0001
0010
1000
0000
,
0001
0100
1000
0100
0001
0100
1000
0000
,
0010
1000
0100
1000
0001
1000
1001
0000
,
0010
0001
0100
0001
1000
0001
1001
0000
,
0010
1000
0001
0010
0001
1000
0010
0000
,
0100
0001
0010
0100
1000
0010
0100
0000
,
0001
0100
0000
1000
0100
0000
0001
0100
0000
0000
0001
0000
1000
0000
0000
0000
,
1000
0100
0000
0001
0100
0000
1000
0100
0000
0000
1000
0000
0001
0000
0000
0000
,
0010
1000
0000
0010
0100
0000
0010
0001
0000
0000
0010
0000
0100
0000
0000
0000
,
0101
1000
1100
0001
,
1000
0100
0000
0001
0100
0000
1000
0100
0000
0000
1000
0000
0001
0000
0000
0000
,
0001
0100
0000
1000
0100
0000
0001
0100
0000
0000
0001
0000
1000
0000
0000
0000
,
0010
0001
0000
0010
0100
0000
0010
1000
0000
0000
0010
0000
0100
0000
0000
0000
,
0101
1100
0001
0001
,
1000
0100
0000
0100
0000
1000
0001
0000
,
0010
0100
0000
0010
0000
0100
0001
0000
,
1000
0001
0000
1000
0000
0100
0001
0000
,
0010
1000
0100
0001
,
1000
0100
0000
0100
0000
1000
0001
0000
,
0010
0100
0000
0010
0000
0100
0001
0000
,
1000
0001
0000
1000
0000
0100
0001
0000
,
0010
0001
0100
1000
,
0100
0000
0000
0000
,
1000
0010
0100
0000
,
1000
0100
0001
0000
,
0001
0010
0100
0000
,
0001
0100
1000
0000
,
0010
1000
0100
0000
,
1000
0001
0100
0000
,
0010
0001
0100
0000
,
0001
1000
0100
0000
,
0010
1000
0001
0000
,
0010
1000
0100
0001
,
1000
0100
0000
0100
0000
1000
0001
0000
,
0010
0100
0000
0010
0000
0100
0001
0000
,
1000
0001
0000
1000
0000
0100
0001
0000
,
0010
1000
0100
0002
,
2000
0000
0000
3003
,
1000
0100
1000
0010
0100
0001
0010
0001
,
0100
0001
0100
1000
0001
0010
1000
0100
,
0001
0100
0001
1000
0010
0001
1000
0010
,
0100
0001
0010
0100
0010
1000
0010
0001
,
1000
0001
0010
0100
0010
0001
1000
1001
,
0100
0010
0001
0010
0100
0001
1000
1001
,
0001
0100
1000
0100
0001
0010
0100
0110
,
0010
0001
0100
0010
1000
0100
0010
0110
,
2002
0000
0000
0000
,
3003
0000
0000
0000
;

//---------------dance-double - ----------------
#NOTES:
     dance-double:
     :
     Easy:
     5:
     0.289019,0.333665,0.251633,0.020131,0.000000,201.000000,176.000000,25.000000,2.000000,0.000000,0.000000,0.289019,0.333665,0.251633,0.020131,0.000000,201.000000,176.000000,25.000000,2.000000,0.000000,0.000000:
00000000
00000000
00000000
00000000
,
00000000
00000000
00000000
00000000
,
00000000
00000000
00000000
00000000
,
00000000
00000000
00000000
00000000
,
00100000
10000000
01000000
10010000
,
01000000
00010000
00000010
00000100
,
00000001
00000010
00001000
00000010
,
00000001
00000100
00001000
00000100
,
00010000
01001000
00010000
01000000
,
10000000
10010000
01000000
01000000
,
00010000
01000000
10000000
01000000
,
00100000
00010000
00001000
01000000
,
10000000
10010000
01000000
10010000
,
01100000
00001000
00000010
00000001
,
00001000
00000100
00000001
00000100
,
00000010
00001000
00010000
00000100
,
00000001
00001001
00000100
00001001
,
00000110
00010000
00100000
10000000
,
01100000
10000000
00010000
00010000
,
01100000
00010000
10000000
10000000
,
01000000
01000000
00010000
01000000
,
01001000
00010000
00010100
00001000
,
00000001
00001001
00000100
00001000
,
00000110
00000001
00000010
00000100
,
00010100
00001000
00000100
00000001
,
00000110
00010000
00100000
10000000
,
00100000
00000000
00000000
00000000
,
01100000
00010000
01000000
10000000
,
01000000
10000000
01000000
10000000
,
01000000
00010000
01000000
00010000
,
01000000
10000000
01000000
10000000
,
01000000
00010000
01000000
00010000
,
00100000
00010000
00001000
01000000
,
00100000
00010000
00000100
00000001
,
00000100
00001000
00000100
00000001
,
00000010
00001000
00001000
00001000
,
00001000
00000000
00000000
00000000
,
00000010
00001000
00010000
00000100
,
00000010
00001000
01000000
10000000
,
00100000
00010000
00001000
01000000
,
00100000
00010000
00000100
00000001
,
00000002
00000000
00000000
00000003
,
00000110
00010000
01000000
00100000
,
01100000
00001000
00000100
00000010
,
00000110
00010000
00001000
00000100
,
00010000
01000000
10000000
01100000
,
00001000
00000100
00000001
00000110
,
00010000
01000000
00010000
00001000
,
01001000
00010000
01000000
10000000
,
01100000
00001000
00010000
00000100
,
00000002
00000000
00000000
00000000
,
00000003
00000000
00000000
00000000
;

//---------------dance-double - ----------------
#NOTES:
     dance-double:
     :
     Medium:
     8:
     0.355162,0.384999,0.382482,0.020131,0.000000,247.000000,209.000000,38.000000,2.000000,0.000000,0.000000,0.355162,0.384999,0.382482,0.020131,0.000000,247.000000,209.000000,38.000000,2.000000,0.000000,0.000000:
00000000
00000000
00000000
00000000
,
00000000
00000000
00000000
00000000
,
00000000
00000000
00000000
00000000
,
00000000
00000000
00000000
00000000
,
00100000
01000000
00010000
00000000
10010000
00000000
00100000
00000000
,
01000000
00001000
00010000
00000000
01000000
00000000
10000000
00000000
,
00100000
01000000
00010000
00000000
00100000
01000000
10000000
00000000
,
00100000
00010000
00001000
00000000
00010100
00000000
00001000
00000000
,
00000010
00000100
00000001
00000000
00000010
00000100
00001000
00000000
,
00000001
00000100
00001000
00000000
01001000
00000000
00010000
00000000
,
00100000
00001000
00010000
01000000
,
00100000
00010000
01000000
00000000
01001000
00000000
00010000
00000000
,
00010100
00001000
00000100
00000110
,
00000001
00001100
00000101
00001000
,
00000010
00010000
00001000
00000100
,
00000010
00001000
00000100
00000000
00010100
00000000
00001000
00000000
,
00101000
00000000
00010000
00000000
10000000
00010000
01000000
00000000
,
11000000
00010000
01000000
10000000
,
00100000
01000000
00010000
00000000
10000000
00000000
11000000
00000000
,
00100000
01000000
10000000
00000000
00010000
00000000
01010000
00000000
,
00100000
00001000
00010000
00000000
00000110
00000000
00000001
00000000
,
00001001
00000100
00000001
00000100
,
00000010
00000100
00001000
00000000
00000001
00000000
00000101
00000000
,
00000010
00000100
00000001
00000000
00001000
00000000
00001100
00000000
,
00000001
00001000
00000100
00000000
00010100
00000000
01000000
00000000
,
11000000
00010000
01000000
01001000
,
00010000
00000000
00000000
00000000
,
01001000
00010000
00010100
00001000
,
00101000
00010000
00001000
00010000
,
00010100
00001000
00010100
00001000
,
00010010
00001000
00010000
00001000
,
01001000
00010000
01001000
00010000
,
01000000
00100000
00001000
00010000
,
00000100
00000010
00010000
00001000
,
01000000
00100000
00001000
00010000
,
00000100
00000010
00010000
00001000
,
01000000
00000000
00000000
00000000
,
00100000
00001000
00010000
00000000
00010100
00000000
00001000
00000000
,
00000010
00010000
00001000
00000000
01001000
00000000
00010000
00000000
,
00000010
00001000
00000100
00000000
00000010
00000100
00001000
00000000
,
00000010
00000100
00000001
00000000
00000010
00000001
00000100
00000000
,
00002000
00000000
00000000
00003000
,
00001000
00000001
00000100
00000000
00001010
00000000
00010010
00000000
,
00001000
01000000
00100000
00000000
01010000
00000000
10000000
00000000
,
00100000
01000000
00010000
00000000
00100000
01000000
10000000
00000000
,
00110000
10000000
11000000
00010000
,
00100000
01000000
10000000
00000000
00110000
00000000
00101000
00000000
,
00010000
00000010
00001000
00000000
00000101
00000000
00001000
00000000
,
00000010
00000100
00000001
00000000
00000010
00000100
00001000
00000000
,
00000010
00010000
00001000
00000000
01000000
00010000
00100000
00000000
,
00200000
00000000
00000000
00000000
,
00300000
00000000
00000000
00000000
;

//---------------dance-double - ----------------
#NOTES:
     dance-double:
     :
     Hard:
     12:
     0.408365,0.410665,0.291894,0.010065,0.000000,284.000000,255.000000,29.000000,1.000000,0.000000,0.000000,0.408365,0.410665,0.291894,0.010065,0.000000,284.000000,255.000000,29.000000,1.000000,0.000000,0.000000:
00000000
00000000
00000000
00000000
,
00000000
00000000
00000000
00000000
,
00000000
00000000
00000000
00000000
,
00000000
00000000
00000000
00000000
,
00100000
01000000
10000000
00000000
00100000
00001000
00010000
00000000
,
00000010
00010000
00001000
00100000
00001000
00010000
00001000
00000000
,
00000010
00001000
00000100
00000001
00000100
00001000
00000010
00000000
,
00000100
00000001
00000010
00001000
00000010
00000001
00000100
00000000
,
00000010
00010000
00001000
00100000
00010000
01000000
00100000
00000000
,
00100000
10000000
00100000
00010000
00001000
00010000
01000000
00000000
,
01100000
00001000
00010000
01000000
,
00010000
00000100
00001000
00000000
00000011
00000000
00000101
00000000
,
00000010
00000100
00001000
00000000
00000001
00000100
00001000
00000000
,
00000010
00010000
00001000
00000100
00000001
00000100
00001000
00000000
,
00000110
00010000
00001000
00000100
,
00001000
01000000
00010000
00000000
10100000
00000000
11000000
00000000
,
00100000
01000000
10000000
00100000
01000000
00010000
10000000
00000000
,
00100000
01000000
00001000
00010000
00000010
00001000
00000100
00000000
,
00000001
00000010
00000100
00001000
00000000
00000010
00010000
00000000
,
00001000
01000000
00010000
00100000
00000000
01000000
10000000
00000000
,
10000000
00100000
01000000
00010000
00000000
00100000
00001000
00000000
,
00010000
00000100
00001000
00000010
00000000
00000100
00000001
00000000
,
00000010
00000100
00000001
00000010
00000000
00000100
00001000
00000000
,
00000010
00010000
00001000
00100000
00000000
00001000
00010000
00000000
,
00001000
00010000
00000010
00010000
00000000
00001000
00100000
00000000
,
00010000
01000000
00100000
10000000
00000000
01000000
00100000
00000000
,
01100000
00000000
00000000
00000000
,
01100000
10010000
11000000
01010000
,
10000000
11000000
00010000
01010000
,
00100000
00101000
00010000
01001000
,
00010000
00010100
00001000
00010010
,
00001000
00001100
00000001
00000101
,
00000001
00000101
00001000
00001100
,
00000010
00010010
00001000
00010100
,
00001000
01001000
00010000
00101000
,
00010000
01010000
10000000
11000000
,
01010000
00000000
00000000
00000000
,
10000000
10000000
01000000
01000000
00000000
00100000
00010000
00000000
,
00100000
00100000
00010000
00010000
00000000
00001000
00010000
00000000
,
00001000
00001000
00010000
00010000
00000000
00000100
00000001
00000000
,
00000100
00000100
00000001
00000001
00000000
00000010
00001000
00000000
,
00000101
00000000
00000000
00000000
,
00000010
00000100
00000001
00000010
00000100
00001000
00000010
00000000
,
00000100
00010000
00001000
01000000
00100000
10000000
00010000
00000000
,
00100000
01000000
10000000
00100000
01000000
00010000
00100000
00000000
,
01000000
00001000
00010000
00000100
00000010
00000001
00001000
00000000
,
00000001
00000100
00001000
00000100
00000010
00010000
00001000
00000000
,
00010000
00001000
00100000
01000000
00010000
01000000
10000000
00000000
,
00100000
00010000
00000010
00001000
00000100
00010000
00001000
00000000
,
00010000
00001000
01000000
00010000
00100000
00001000
00000010
00000001
,
00002000
00000000
00000000
00000000
,
00003000
00000000
00000000
00000000
;

//---------------dance-solo - ----------------
#NOTES:
     dance-solo:
     :
     Easy:
     4:
     0.258823,0.327123,0.201306,0.000000,0.000000,180.000000,160.000000,20.000000,0.000000,0.000000,0.000000,0.258823,0.327123,0.201306,0.000000,0.000000,180.000000,160.000000,20.000000,0.000000,0.000000,0.000000:
000000
000000
000000
000000
,
000000
000000
000000
000000
,
000000
000000
000000
000000
,
000000
000000
000000
000000
,
010010
100000
001000
001000
,
000001
001000
100000
000010
,
010001
001000
000001
000001
,
000100
001000
000001
000001
,
010000
001000
000001
000001
,
000100
010000
001000
100001
,
000100
100000
100000
001000
,
000001
001000
001000
000010
,
000100
100000
100000
001000
,
010000
010000
010000
010000
,
000100
000001
000001
001000
,
100000
001000
001000
010000
,
000100
000010
000010
001000
,
000001
000001
000001
000001
,
100000
001000
010001
000010
,
000010
001000
100001
010000
,
100010
001000
100001
001000
,
000100
000100
000100
000100
,
000010
001000
100001
010000
,
010000
001000
100001
000010
,
010001
001000
100001
001000
,
000100
000100
000100
000100
,
000100
000000
000000
000000
,
100000
000000
100000
000000
,
001000
000000
001000
000000
,
000001
000000
000001
000000
,
001000
000000
001000
000000
,
100000
000000
100000
000000
,
001000
000000
000010
000000
,
001000
000000
010000
000000
,
001000
000000
000001
000000
,
001000
000000
100000
000000
,
001000
000000
000001
001000
,
001100
000010
000100
010000
,
001100
000001
000100
100000
,
001100
100000
001000
000001
,
001100
010000
001000
000001
,
000001
000000
000000
000000
,
001100
000010
100000
100000
,
001000
000001
001000
001000
,
001100
010000
000001
000001
,
001000
100000
001000
001000
,
010001
100000
001000
001000
,
010001
000010
001000
001000
,
000100
100000
000010
000100
,
001000
010000
000001
001000
,
100010
000000
000000
000000
;

//---------------dance-solo - ----------------
#NOTES:
     dance-solo:
     :
     Medium:
     6:
     0.320652,0.402613,0.372417,0.000000,0.000000,223.000000,186.000000,37.000000,0.000000,0.000000,0.000000,0.320652,0.402613,0.372417,0.000000,0.000000,223.000000,186.000000,37.000000,0.000000,0.000000,0.000000:
000000
000000
000000
000000
,
000000
000000
000000
000000
,
000000
000000
000000
000000
,
000000
000000
000000
000000
,
000100
000100
001010
101000
,
000001
001000
010000
000000
000100
100000
000010
000000
,
000100
000001
001000
000000
100000
000000
100000
000000
,
000100
100000
001000
000000
000001
000000
000001
000000
,
001000
000010
100000
000000
000100
000000
000100
000000
,
000100
010000
000001
000000
001000
000000
001000
000000
,
100010
001000
000001
000100
,
010010
001000
100001
001000
,
010000
001010
000001
001010
,
100100
001001
100000
100000
,
000110
001000
100000
000100
,
010001
001000
100010
001000
,
001100
000001
001000
100000
,
000110
001001
100000
000001
,
010010
000000
001000
000000
000100
100000
001000
000000
,
010001
000000
001000
000000
000100
000001
001000
000000
,
100000
001010
100000
011000
,
000001
000000
001000
000000
100000
000010
001000
000000
,
100001
000000
001000
000000
000100
000001
001000
000000
,
100010
000000
001000
000000
000100
100000
001000
000000
,
000001
011000
000001
001010
,
100000
000000
001000
000000
000001
010000
001000
000000
,
001000
000000
000000
000000
,
100000
000000
001000
000000
,
000001
000000
000100
000000
,
010000
000000
000100
000000
,
000010
000000
001000
000000
,
100000
000000
001000
000000
,
000001
001000
000100
000000
,
100000
001000
000100
000000
,
000001
001000
000100
000000
,
100000
001000
000100
000000
,
000010
001000
000100
100000
,
000010
001000
000101
010000
,
000100
001000
100010
000001
,
011000
000001
000100
010000
,
001010
100000
000100
000010
,
001000
000000
000000
000000
,
000100
001000
000001
000000
100100
000000
000001
000000
,
010000
000010
001000
000000
100001
000000
011000
000000
,
000001
100000
001000
000000
010001
000000
001010
000000
,
000100
001000
010000
000000
000101
000000
100000
000000
,
000100
010000
000001
000000
001000
000000
001000
000000
,
000100
000010
100000
000000
001000
000000
001000
000000
,
001100
000000
010001
000000
000100
100000
000001
000000
,
001100
000000
100010
000000
000100
000001
010000
001000
,
000100
000000
000000
000000
;

//---------------dance-solo - ----------------
#NOTES:
     dance-solo:
     :
     Hard:
     8:
     0.376731,0.503266,0.100653,0.000000,0.090588,262.000000,252.000000,10.000000,0.000000,0.000000,0.000000,0.376731,0.503266,0.100653,0.000000,0.090588,262.000000,252.000000,10.000000,0.000000,0.000000,0.000000:
000000
000000
000000
000000
,
000000
000000
000000
000000
,
000000
000000
000000
000000
,
000000
000000
000000
000000
,
000010
001000
010000
000000
000001
000100
100000
000000
,
000010
001000
010000
001000
000001
001000
100000
000000
,
000100
100000
001000
010000
000001
100000
100001
000000
,
000100
000001
001000
000010
100000
000001
100001
000000
,
000100
010000
000010
000100
000001
100000
000100
000000
,
001000
000001
000100
001000
010000
000100
001000
000000
,
000010
001000
000000
010000
001000
000000
000001
001000
000000
000000
000001
000000
100000
000000
000000
000000
,
010000
001000
000000
000010
001000
000000
100000
001000
000000
000000
100000
000000
000001
000000
000000
000000
,
000100
100000
000000
000010
001000
000000
000100
000001
000000
000000
000100
000000
001000
000000
000000
000000
,
001010
100000
011000
000001
,
100000
001000
000000
000010
001000
000000
100000
001000
000000
000000
100000
000000
000001
000000
000000
000000
,
000001
001000
000000
010000
001000
000000
000001
001000
000000
000000
000001
000000
100000
000000
000000
000000
,
000100
000001
000000
000010
001000
000000
000100
100000
000000
000000
000100
000000
001000
000000
000000
000000
,
001001
101000
000001
000001
,
010000
001000
000000
001000
000000
100000
000010
000000
,
000100
001000
000000
010000
000000
001000
000001
000000
,
100000
000001
000000
010000
000000
001000
000001
000000
,
000100
100000
001000
000001
,
100000
001000
000000
001000
000000
010000
000001
000000
,
000100
001000
000000
000010
000000
001000
000001
000000
,
010000
000001
000000
100000
000000
001000
000001
000000
,
000100
000010
001000
100000
,
001000
000000
000000
000000
,
010000
000100
001000
000000
,
100000
001000
000001
000000
,
000010
000100
001000
000000
,
000001
001000
100000
000000
,
000100
010000
001000
000000
,
100000
000001
001000
000000
,
000100
000010
001000
000000
,
000001
100000
001000
000000
,
000100
010000
000001
000000
,
000100
100000
001000
000001
,
010000
001000
000000
001000
000000
100000
000001
000000
,
000100
001000
000000
010000
000000
001000
000001
000000
,
100000
000001
000000
010000
000000
001000
000001
000000
,
000100
100000
001000
000001
,
010000
000000
000000
000000
,
100000
001000
100000
000100
001000
000010
000100
000001
,
001000
000010
001000
000010
000001
000100
100000
001000
,
000001
001000
000001
001000
000100
000001
100000
000100
,
001000
000001
000100
001000
010000
000001
000100
000010
,
100000
000001
000100
001000
000100
000001
100000
100001
,
001000
000100
000001
010000
001000
000100
000001
100010
,
010000
001000
100000
001000
000100
000001
001000
001100
,
000100
100000
001000
010000
000001
001000
000010
100000
,
001100
000000
000000
000000
;

//---------------dance-single - ----------------
#NOTES:
     dance-single:
     :
     Beginner:
     1:
     0.018693,0.050327,0.000000,0.000000,0.000000,13.000000,13.000000,0.000000,0.000000,0.000000,0.000000,0.018693,0.050327,0.000000,0.000000,0.000000,13.000000,13.000000,0.000000,0.000000,0.000000,0.000000:
0000
0000
0000
0000
,
0000
0000
0000
0000
,
0000
0000
0000
0000
,
0000
0000
0000
0000
,
1000
0000
0000
0000
,
0000
0000
0000
0000
,
0000
0000
0000
0000
,
0000
0000
0000
0000
,
0001
0000
0000
0000
,
0000
0000
0000
0000
,
0000
0000
0000
0000
,
0000
0000
0000
0000
,
0010
0000
0000
0000
,
0000
0000
0000
0000
,
0000
0000
0000
0000
,
0000
0000
0000
0000
,
1000
0000
0000
0000
,
0000
0000
0000
0000
,
0000
0000
0000
0000
,
0000
0000
0000
0000
,
0010
0000
0000
0000
,
0000
0000
0000
0000
,
0000
0000
0000
0000
,
0000
0000
0000
0000
,
0100
0000
0000
0000
,
0000
0000
0000
0000
,
0000
0000
0000
0000
,
0000
0000
0000
0000
,
0001
0000
0000
0000
,
0000
0000
0000
0000
,
0000
0000
0000
0000
,
0000
0000
0000
0000
,
1000
0000
0000
0000
,
0000
0000
0000
0000
,
0000
0000
0000
0000
,
0000
0000
0000
0000
,
0001
0000
0000
0000
,
0000
0000
0000
0000
,
0000
0000
0000
0000
,
0000
0000
0000
0000
,
0010
0000
0000
0000
,
0000
0000
0000
0000
,
0000
0000
0000
0000
,
0000
0000
0000
0000
,
0001
0000
0000
0000
,
0000
0000
0000
0000
,
0000
0000
0000
0000
,
0000
0000
0000
0000
,
0100
0000
0000
0000
,
0000
0000
0000
0000
,
0010
0000
0000
0000
;

//---------------dance-single - ----------------
#NOTES:
     dance-single:
     :
     Challenge:
     15:
     0.730455,0.846997,0.412678,0.100653,0.830389,508.000000,467.000000,41.000000,10.000000,0.000000,0.000000,0.730455,0.846997,0.412678,0.100653,0.830389,508.000000,467.000000,41.000000,10.000000,0.000000,0.000000:
// measure 0
0000
0000
0000
0000
,  // measure 1
0000
0000
0000
0000
0000
0000
0000
0000
0000
0000
0000
0000
0000
0000
0001
1000
,  // measure 2
0001
0000
1001
0000
0000
0000
0001
1000
0010
1000
0010
1000
0001
0000
0100
1000
,  // measure 3
0001
0000
1001
0000
0000
0000
1000
0001
0100
0001
0100
0001
1000
0000
0001
1000
,  // measure 4
0001
0000
1001
0000
0000
0000
1000
0010
0100
0010
0100
0010
1000
0000
0001
0010
,  // measure 5
0001
0100
0010
1000
0001
1000
0010
1000
0001
0100
0010
1000
0100
1000
0001
0100
,  // measure 6
0010
0100
0000
0100
0001
0000
0001
1000
0010
1000
0001
0000
1000
0000
1001
0000
,  // measure 7
0001
0010
0100
0100
0010
0001
0100
0010
1000
0001
0100
0001
0010
0000
0011
0000
,  // measure 8
0001
0010
0100
1000
0001
0000
1000
0100
0010
0001
0010
0001
1000
0001
0100
0001
,  // measure 9
0010
1000
0001
1000
0100
1000
0010
0100
0001
1000
0001
0000
2002
0000
3003
0000
,  // measure 10
0001
1000
0000
1000
0001
0000
1000
0100
0000
0100
1000
0000
1001
0000
0001
0100
,  // measure 11
0010
0100
0000
0100
0001
0000
0001
1000
0000
1000
0001
0000
1001
0000
0001
0010
,  // measure 12
0100
1000
0000
1000
0100
0000
0010
0001
0000
0001
0010
0000
0011
0000
0001
0100
,  // measure 13
0010
1000
0000
1000
0001
0000
0001
1000
0020
0000
0000
0000
0130
0000
0000
0000
,  // measure 14
0100
0001
0000
1000
0010
0000
0001
0010
0000
0100
1000
0000
1001
0000
0001
1000
,  // measure 15
0100
1000
0000
0010
0001
0000
0010
1000
0000
0001
0010
0000
0110
0000
0010
0100
,  // measure 16
1000
0001
0000
0010
0100
0000
0001
0010
0000
1000
0100
0000
0110
0000
0010
0000
,  // measure 17
0011
0000
0101
0000
1100
0000
1010
1000
,  // measure 18
0001
0100
0010
0000
0000
0000
1010
0000
0000
0000
0010
1000
0001
0000
1000
0000
,  // measure 19
0001
1000
0010
0000
0000
0000
0011
0000
0000
0000
0001
1000
0100
0000
1000
0000
,  // measure 20
0010
0100
0010
0100
0010
0000
0110
0000
0000
0000
0110
0000
0100
0000
0001
0000
,  // measure 21
1000
0001
1000
0001
1000
0000
1001
0000
0000
0000
1001
0000
0001
1000
0001
0000
,  // measure 22
0010
0100
1000
0000
0000
0000
1100
0000
0000
0000
0100
1000
0001
0000
0100
0000
,  // measure 23
0010
0100
0001
0000
0000
0000
0101
0000
0000
0000
0001
1000
0010
0000
0100
0000
,  // measure 24
0010
1000
0001
1000
0100
0000
1001
0000
0000
0000
0110
0000
0010
0000
0001
0010
,  // measure 25
0200
1000
1000
1000
1000
1000
1000
1000
,  // measure 26
1300
0000
0000
0000
0000
0000
0000
0000
0100
0000
1000
0000
0001
0000
0100
0010
,  // measure 27
0000
0000
0000
0000
0110
0000
0000
0100
,  // measure 28
0010
0000
0000
0000
0010
1000
0001
0100
,  // measure 29
0010
0000
1000
0100
0000
0011
0000
0101
,  // measure 30
0000
1001
0000
2020
0000
3030
0000
0001
,  // measure 31
1000
0000
0001
0100
0000
0110
0000
1010
,  // measure 32
0000
1000
0100
0010
0000
0000
0110
0000
,  // measure 33
0011
0000
0001
1000
0000
0010
0100
1000
,  // measure 34
0001
0000
0000
0000
0100
0010
1000
0001
,  // measure 35
0200
0001
0001
0001
0001
0001
0001
0001
,  // measure 36
0301
0000
0000
0000
0000
0000
0000
0000
0000
0000
0000
0000
0001
1000
0001
0000
,  // measure 37
1000
0100
0010
0000
0000
0000
0110
0000
0000
0000
0100
0000
1000
0001
0100
0000
,  // measure 38
0001
0100
0010
0000
0000
0000
0110
0000
0000
0000
0010
1000
0100
0010
0001
0000
,  // measure 39
1000
0001
1000
0001
0100
0000
1001
0000
0000
0000
0011
0000
0001
0010
0100
1000
,  // measure 40
0001
0000
1000
0000
0001
0000
1000
0000
0001
1000
0001
1000
0001
1000
0001
1000
,  // measure 41
0002
0000
0000
0000
0003
0000
0000
0001
1000
0001
0000
0000
1001
0000
1000
0001
,  // measure 42
0010
0001
0010
0001
0010
0000
0001
1000
0010
1000
0100
1000
0001
1000
0100
0010
,  // measure 43
0001
0100
0100
0010
0100
0001
1000
0001
1000
0100
1000
0100
0010
0001
0100
0010
,  // measure 44
1000
0010
1000
0001
0100
0010
1000
0100
0010
0001
0010
0100
1000
0001
0100
0010
,  // measure 45
0100
0001
1000
0001
0010
0001
0010
0001
0100
0001
0010
0001
0010
0000
0000
0000
,  // measure 46
0001
0100
0010
0100
0001
1000
0100
0010
0001
0001
0010
0100
1000
0001
0100
0010
,  // measure 47
1000
0100
0010
0100
1000
1000
0100
0010
0001
1000
0001
0100
0010
0100
0010
0100
,  // measure 48
0001
1000
0100
1000
0100
0010
0001
0010
0001
0000
0000
0000
1000
0001
0010
0001
,  // measure 49
1000
0100
0000
0100
0010
0000
0010
0100
0000
0100
1000
0000
0001
0100
1000
0000
,  // measure 50
0220
0000
0000
0000
,  // measure 51
0330
0000
0000
0000
;
