#VERSION:0.83;
#TITLE:Enchanted;
#SUBTITLE:(Taylor's Version);
#ARTIST:Taylor Swift;
#TITLETRANSLIT:;
#SUBTITLETRANSLIT:;
#ARTISTTRANSLIT:;
#GENRE:;
#ORIGIN:;
#CREDIT:;
#BANNER:;
#BACKGROUND:Enchanted (Taylor's Version)-bg.png;
#PREVIEWVID:;
#JACKET:Enchanted (Taylor's Version)-jacket.png;
#CDIMAGE:;
#DISCIMAGE:;
#LYRICSPATH:;
#CDTITLE:;
#MUSIC:Enchanted (Taylor's Version).mp3;
#OFFSET:0.000000;
#SAMPLESTART:100.000000;
#SAMPLELENGTH:12.000000;
#SELECTABLE:YES;
#BPMS:0.000=82.000,
129.500=164.000,
195.500=82.000,
266.500=164.000,
524.500=41.000,
532.500=56.000,
542.500=82.000,
543.000=110.000,
543.500=164.000,
700.500=82.000;
#STOPS:;
#DELAYS:;
#WARPS:;
#TIMESIGNATURES:0.000=4=4;
#TICKCOUNTS:0.000=4;
#COMBOS:0.000=1;
#SPEEDS:0.000=1.000=0.000=0;
#SCROLLS:0.000=1.000;
#FAKES:;
#LABELS:0.000=Song Start;
#BGCHANGES:0.000=Enchanted (Taylor's Version)-bg.png=1.000=0=0=0=StretchNoLoop====,
1.000=Enchanted (Taylor's Version).mp4=1.000=0=0=1=====,
716.000=Enchanted (Taylor's Version)-bg.png=1.000=0=0=1=====,
99999=-nosongbg-=1.000=0=0=0 // don't automatically add -songbackground-
;
#KEYSOUNDS:;
#ATTACKS:
;

//---------------dance-single - ----------------
#NOTEDATA:;
#CHARTNAME:;
#STEPSTYPE:dance-single;
#DESCRIPTION:;
#CHARTSTYLE:;
#DIFFICULTY:Hard;
#METER:14;
#RADARVALUES:0.314251,0.638875,0.212970,0.423137,0.085468,785.000000,709.000000,76.000000,151.000000,0.000000,0.000000,0.000000,0.000000,0.000000,0.314251,0.638875,0.212970,0.423137,0.085468,785.000000,709.000000,76.000000,151.000000,0.000000,0.000000,0.000000,0.000000,0.000000;
#CREDIT:;
#NOTES:
// measure 0
0000
0000
0000
0000
,  // measure 1
0000
0000
0000
0000
,  // measure 2
0000
0000
0000
0000
,  // measure 3
0000
0000
0000
0000
,  // measure 4
0000
0000
0000
0000
0000
0010
0100
0010
,  // measure 5
0100
0001
1000
0001
0000
1000
0001
1000
,  // measure 6
0100
0010
0001
0200
0300
0010
1000
0010
,  // measure 7
0001
0100
0010
2000
0000
0000
3000
0000
,  // measure 8
0000
0000
0000
0000
0000
0100
0010
0100
,  // measure 9
0010
1000
0001
1000
0000
0001
1000
0001
,  // measure 10
0010
0100
1000
0020
0030
0100
0001
0100
,  // measure 11
1000
0010
0100
0002
0000
0003
1000
0001
,  // measure 12
0100
0001
0010
0200
0300
2000
0000
3001
,  // measure 13
1000
0001
0100
0010
2000
0000
0002
0000
,  // measure 14
0000
0000
0000
0000
,  // measure 15
3003
0000
0000
0000
0000
0200
0000
0010
,  // measure 16
0000
0010
0000
0310
0000
0010
1000
0001
,  // measure 17
0100
0001
0010
0002
0003
1000
0100
1000
,  // measure 18
0010
1000
0100
0020
0030
0010
0100
0010
,  // measure 19
0001
1000
0001
0010
0200
0000
0300
0000
,  // measure 20
0000
0000
0000
0000
0000
0000
0000
0000
0000
1000
0200
0000
0010
0000
0010
0000
,  // measure 21
0310
0000
0001
0000
1000
0000
1001
0000
0000
0010
0002
0000
1000
0000
1000
0000
,  // measure 22
1003
0000
0010
0000
0100
0010
0000
0000
0110
0000
0000
0000
0010
0100
0010
0000
,  // measure 23
1000
0010
0100
0002
2000
0000
3003
0000
,  // measure 24
0000
0000
0100
0010
0000
1000
1000
0010
,  // measure 25
0010
0100
0010
0000
0100
0000
0100
0000
0100
0000
0000
0000
0020
0000
0000
0000
,  // measure 26
0000
0000
0200
0000
,  // measure 27
0000
0000
0330
0000
0000
0000
0100
0010
,  // measure 28
1000
0000
0100
0000
0010
0000
0001
0000
1000
0000
0010
0000
1000
0001
1000
0000
,  // measure 29
0010
0100
0010
0000
0001
0000
0001
0000
2000
0000
0000
0000
0002
0000
0000
0000
,  // measure 30
0000
0000
0000
0000
3003
0001
0001
0001
,  // measure 31
0010
1000
1000
1000
0100
0010
0000
0110
,  // measure 32
0000
1001
0000
0110
0000
0000
0000
2010
,  // measure 33
0000
0000
0000
0100
0000
0000
0000
0001
,  // measure 34
0000
0000
0000
3010
0000
0000
0000
0200
,  // measure 35
0000
0000
0000
0310
0000
0000
0000
0010
,  // measure 36
0000
0001
0000
0100
0000
1000
0000
0020
,  // measure 37
0000
0030
0000
0200
0000
0300
0000
2000
,  // measure 38
0000
3000
0000
0002
0000
0003
0000
0020
,  // measure 39
0000
0030
0000
0100
0000
0100
0000
1000
,  // measure 40
0000
0001
1000
0001
0000
0100
0000
0020
,  // measure 41
0000
0000
0000
2030
0000
0000
0000
3002
,  // measure 42
0000
0000
0000
0203
0000
0000
0000
0320
,  // measure 43
0000
0000
0000
0130
0000
0000
0000
1000
,  // measure 44
0000
0001
0010
0001
0000
0010
0000
0210
,  // measure 45
0000
0001
0000
0001
0000
0010
0000
0010
,  // measure 46
0000
0310
0000
1000
0010
2000
0000
0000
,  // measure 47
0000
3020
0000
0000
0000
0032
0000
0000
,  // measure 48
0000
0103
0000
0010
0000
1000
0000
0110
,  // measure 49
0000
0011
0000
0101
0000
1100
0000
1000
,  // measure 50
0001
0000
0000
0000
0100
0010
0100
0010
0100
0000
0010
0000
0100
0000
0000
0000
0001
0000
0000
0000
0100
0000
0000
0000
0010
0000
1000
0000
0020
0000
0000
0000
,  // measure 51
0100
0000
1000
0000
0130
0000
0110
0000
0011
0000
0101
0000
0100
0010
0200
0000
,  // measure 52
0010
0000
0001
0000
0310
0000
0110
0000
1100
0000
1010
0000
0000
2000
0000
0000
,  // measure 53
3001
1000
0001
0000
0100
0000
0010
0000
1000
0000
0100
0000
0020
0000
0000
0000
,  // measure 54
0030
0000
0000
0000
0000
0000
0100
1000
0100
0010
0001
0010
1000
0100
0010
0000
,  // measure 55
0001
0000
0100
0000
1000
0000
1100
0000
0101
0000
0011
0000
0000
0010
0001
0000
,  // measure 56
0100
0000
1000
0000
0100
0000
0101
0000
0011
0000
1010
0000
0000
0002
0000
0000
,  // measure 57
1003
0001
1000
0000
1100
0000
1010
0000
0110
0000
0101
0000
0022
0000
0000
0000
,  // measure 58
0033
0000
0000
2000
0000
0200
3300
0020
,  // measure 59
0100
0000
0130
0000
0010
0100
0020
0000
0001
0000
0031
0010
0001
0000
0000
0000
,  // measure 60
0200
0000
0000
0020
,  // measure 61
0000
0000
0000
0330
,  // measure 62
0000
0010
1000
0001
0100
0010
0000
2000
,  // measure 63
0001
0000
3001
0000
1000
0001
0200
0000
0010
0000
0310
0000
0010
0100
0002
0000
,  // measure 64
1000
0000
1003
0000
0001
0100
0020
0000
1000
0000
1030
0000
0100
0010
0002
0000
,  // measure 65
2000
0000
0000
3003
0000
0000
0000
0210
,  // measure 66
0000
0010
0000
0010
0000
0310
0000
0000
,  // measure 67
0000
0012
0000
0000
0000
0100
0000
0000
,  // measure 68
0000
1000
0000
0000
0000
0013
0000
0000
,  // measure 69
0000
0200
0000
0000
0000
0310
0000
0000
,  // measure 70
0000
0010
0000
1000
0000
0100
0000
0001
,  // measure 71
0000
0020
0000
0030
0000
0020
0000
0000
,  // measure 72
0000
2030
0000
0000
0000
3200
0000
0000
,  // measure 73
0000
0302
0000
0000
0000
1000
0000
1003
,  // measure 74
0000
0001
0000
0010
0001
0100
0000
0110
,  // measure 75
0000
0200
0000
0000
0000
0320
0000
0000
,  // measure 76
0000
2030
0000
0000
0000
3002
0000
0000
,  // measure 77
0000
0203
0000
0000
0000
0310
0000
0000
,  // measure 78
0000
0010
0000
0001
0000
0100
0000
1000
,  // measure 79
0000
0002
0000
0000
0000
0000
0000
2003
,  // measure 80
0000
0000
0000
0000
0000
3020
0000
0200
,  // measure 81
0000
0000
0000
0000
0000
0000
0000
0330
,  // measure 82
0000
0000
0000
0000
,  // measure 83
0000
0120
0000
0000
0000
1000
0000
0000
,  // measure 84
0000
0100
0000
0000
0000
0031
0000
0000
,  // measure 85
0010
0200
0000
0000
0000
0310
0000
0000
,  // measure 86
0000
1000
0000
0100
0000
0010
0000
0001
,  // measure 87
0000
2000
0000
3000
0000
0200
0000
0000
,  // measure 88
0000
0320
0000
0000
0000
0032
0000
0000
,  // measure 89
0000
2003
0000
0000
0000
3001
1000
0001
,  // measure 90
0100
0010
0000
1010
0000
1100
0000
0101
,  // measure 91
0000
0021
0000
0000
0000
0130
0000
0000
,  // measure 92
0000
1200
0000
0000
0000
0301
0000
0010
,  // measure 93
0000
2001
0000
0000
0000
3100
0000
0000
,  // measure 94
0000
0010
0000
0100
0000
0001
0000
1000
,  // measure 95
0000
0120
0000
0100
0000
0100
0000
1000
,  // measure 96
0000
1000
0000
0001
0000
0031
0000
0101
,  // measure 97
0000
0000
0000
0200
0000
0000
0000
0320
,  // measure 98
0000
0000
0000
1030
0000
0001
0000
1000
,  // measure 99
0000
0001
0000
0010
0001
0100
0000
0110
,  // measure 100
0000
1010
0000
1000
0100
0010
0000
0101
,  // measure 101
0000
1001
0000
0001
0010
0001
0000
0101
,  // measure 102
0000
1100
0000
1000
0001
1000
0000
1010
,  // measure 103
0000
0101
0000
0001
0010
0001
0000
0101
,  // measure 104
0000
1100
0000
1000
0001
1000
0000
1010
,  // measure 105
0000
1100
0000
0000
0000
0101
0000
0000
,  // measure 106
0000
0011
0000
0000
0000
1010
0000
0000
,  // measure 107
0000
2000
0000
0000
0000
3200
0000
0000
,  // measure 108
0000
0320
0000
0000
0000
0032
0000
0000
,  // measure 109
0000
0203
0000
0000
0000
0320
0000
0000
,  // measure 110
0000
2030
0000
0000
0000
3002
0000
0000
,  // measure 111
0000
0203
0000
0000
0000
0320
0000
0000
,  // measure 112
0000
2030
0000
0000
0000
3001
0000
0000
,  // measure 113
0001
1000
0000
1000
0000
0100
0000
0100
,  // measure 114
0010
0100
0000
0010
0000
0110
0000
0000
,  // measure 115
0000
0020
0000
1000
0000
0100
0000
0031
,  // measure 116
0010
0200
0000
1000
0000
0010
0000
0301
,  // measure 117
0000
2000
0000
0100
0000
0010
0000
3001
,  // measure 118
0010
0002
0000
0100
0000
0010
0000
1003
,  // measure 119
0000
1010
0000
1001
0000
1100
0000
1000
,  // measure 120
0001
0100
0000
0101
0000
0011
0000
1010
,  // measure 121
0000
2000
0000
3200
0000
0320
0000
0032
,  // measure 122
0000
0203
0000
0320
0000
2030
0000
3002
,  // measure 123
0000
0003
0000
1001
0000
0101
0000
1100
,  // measure 124
0000
1010
0000
1001
0000
0011
0000
0100
,  // measure 125
0001
0020
0000
0000
0000
0000
0000
0030
,  // measure 126
0000
0200
0000
0000
0000
0000
0000
0300
,  // measure 127
0000
2000
0000
0100
0000
0010
0000
3100
,  // measure 128
0000
0002
0000
0010
0000
0100
0000
1003
,  // measure 129
0000
0000
0000
0100
0000
0000
0000
0010
,  // measure 130
0000
0000
0000
1000
0000
0001
0000
1000
,  // measure 131
0000
0000
0100
0000
0010
0000
0001
0010
0001
0100
0020
0000
2030
0000
3200
0000
,  // measure 132
0310
0000
0000
0000
0002
0000
0000
0000
2003
0000
0000
0000
3001
0000
0010
0000
0100
0000
1000
0000
0100
0000
0010
0000
0001
0000
1000
0010
1000
0000
0010
0000
,  // measure 133
0100
0000
0000
0000
0000
0000
0000
0000
0000
0000
0000
0000
0000
0000
0000
0000
0000
0000
0000
0000
0000
0000
0000
0000
0010
0000
0000
0000
0000
0000
0000
0000
0000
0000
0000
0000
0000
0000
0000
0000
0000
0000
0000
0000
0000
0000
0000
0000
0000
0000
0000
0000
0000
0000
0000
0000
1000
0000
0000
0000
0000
0000
0000
0000
0000
0000
0000
0000
0000
0000
0000
0000
0000
0000
0000
0000
0000
0000
0000
0000
0000
0000
0000
0000
0000
0000
0000
0000
0100
0000
0000
0000
0000
0000
0000
0000
0000
0000
0000
0000
0000
0000
0000
0000
0100
0000
0000
0000
0000
0000
0000
0000
0000
0000
0000
0000
0000
0000
0000
0000
0100
0000
0000
0000
0000
0000
0000
0000
0000
0000
0000
0000
0000
0000
0000
0000
0000
0000
0010
0000
0000
0000
0000
0000
0000
0000
0000
0000
0001
0000
0000
0000
0000
0000
0000
0000
0010
0000
0000
0000
0000
0000
0000
0000
0000
0000
0000
0000
0000
0000
0000
0000
0000
0000
0000
0000
0000
0000
0000
0000
0000
0000
0000
0000
0000
0000
0000
0000
0001
0000
0000
0000
,  // measure 134
0000
0000
0000
0000
0000
0000
0000
0100
0000
0000
0000
0000
0000
0000
0000
0100
0000
0000
0000
0000
0000
0000
0000
0000
2000
0000
0000
0000
0100
0000
0000
0000
0010
0000
0000
0000
0010
0000
0000
0000
3100
0000
0000
0000
0010
0000
0000
0000
,  // measure 135
0001
0000
0000
0000
0000
0000
0000
0000
0000
0000
0000
0000
0000
0000
0000
0000
1000
0000
0000
0000
0000
0000
0000
0000
0000
0000
0000
0000
0000
0000
0000
0000
0001
0000
0000
0000
0000
0000
0000
0000
0000
0000
0000
0000
0000
0000
0000
0000
0010
0000
0000
0000
0000
0000
0000
0000
0000
0000
0000
0000
0000
0000
0000
0000
0100
0000
0000
0000
0000
0000
0000
0000
0000
0000
0000
0000
0000
0000
0000
0000
1000
0000
0000
0000
0000
0000
0000
0000
0100
0000
0000
0000
0000
0000
0000
0000
1000
0000
0000
0000
0000
0000
0000
0000
0000
0000
0000
0000
0000
0000
0000
0000
0000
0000
0000
0000
0000
0000
0000
0000
0100
0000
0000
0000
0000
0000
1000
0000
0000
0000
0000
0000
0100
0000
0000
0000
0000
0000
1000
0000
0000
0000
0000
0000
0000
0000
0000
0000
0000
0000
0000
0000
0000
0000
0000
0000
0000
0000
0000
0000
0000
0000
0000
0000
0000
0000
0000
0000
0000
0000
0000
0000
0000
0000
0000
0000
0000
0000
0000
0000
0000
0000
0000
0000
0000
0000
0000
0000
0000
0000
0000
0000
,  // measure 136
0000
2010
0000
0000
0000
0100
0000
0000
,  // measure 137
0000
0001
0000
0000
0000
3010
0000
0000
,  // measure 138
0000
0200
0000
0000
0000
0310
0000
0000
,  // measure 139
0000
0010
0000
0001
0000
0100
0000
1000
,  // measure 140
0000
0002
0000
0000
0000
0200
0003
0000
,  // measure 141
0000
0020
0000
0300
0000
2000
0000
0030
,  // measure 142
0000
0002
0000
3000
0000
0103
0000
0010
,  // measure 143
0000
1000
0000
0100
0010
0100
0000
0001
,  // measure 144
0000
2001
0000
0000
0000
0100
0000
3000
,  // measure 145
0000
1002
0000
0000
0000
0010
0000
1003
,  // measure 146
0000
0210
0000
0000
0000
1000
0000
0300
,  // measure 147
0000
0010
0000
1000
0001
1000
0000
0100
,  // measure 148
0000
0020
0000
0000
0000
0000
0000
0200
,  // measure 149
0000
0030
0000
0000
0000
2300
0000
0002
,  // measure 150
0000
0000
0000
3003
0000
0010
0000
0010
,  // measure 151
0000
0001
0000
0100
0001
0100
0010
0100
,  // measure 152
0001
0102
0000
0000
0000
1000
0000
0000
,  // measure 153
0000
0010
0000
0000
0000
0103
0000
0000
,  // measure 154
0100
0020
0000
0000
0000
0130
0000
0000
,  // measure 155
0000
1000
0000
0010
0000
0100
0000
0001
,  // measure 156
0000
2000
0000
0000
0000
0020
3000
0000
,  // measure 157
0000
0002
0000
0030
0000
0200
0000
0003
,  // measure 158
0000
2000
0000
0300
0000
0001
0000
3010
,  // measure 159
0001
0000
0100
0000
0000
0100
1000
0000
0000
1000
0100
0000
0000
0100
0010
0000
,  // measure 160
0000
0010
0200
0000
0000
0000
0000
0000
0000
0000
0310
0000
0000
0000
0000
0000
,  // measure 161
0000
0020
0000
0000
0000
1030
0000
0010
,  // measure 162
0000
0002
0000
0000
0000
1003
0000
0001
,  // measure 163
0000
0100
0000
0010
1000
0010
0000
0100
,  // measure 164
0000
2001
0000
0001
0000
3001
0000
1000
,  // measure 165
0002
1000
0000
1000
0000
1003
0001
0200
,  // measure 166
0000
0000
0300
0020
0000
0000
0000
0230
,  // measure 167
0000
0000
0000
0310
0001
0100
0001
0100
,  // measure 168
0001
2000
0000
3000
1000
0002
0000
0003
,  // measure 169
0001
1000
0000
0100
1000
0100
0000
0101
,  // measure 170
0000
0100
0000
0010
1000
0010
0000
0100
,  // measure 171
0001
0100
0001
0100
0010
0100
0000
0110
,  // measure 172
0000
1000
0000
0010
1000
0010
0000
0100
,  // measure 173
0000
0010
0000
0001
0100
0001
1000
0001
,  // measure 174
0010
0001
0000
0010
0000
0100
0000
2000
,  // measure 175
0000
0002
0000
3003
0000
0000
0000
0000
;

//---------------dance-single - ----------------
#NOTEDATA:;
#CHARTNAME:;
#STEPSTYPE:dance-single;
#DESCRIPTION:;
#CHARTSTYLE:;
#DIFFICULTY:Medium;
#METER:12;
#RADARVALUES:0.235388,0.417130,0.134507,0.128903,0.018215,588.000000,540.000000,48.000000,46.000000,0.000000,0.000000,0.000000,0.000000,0.000000,0.235388,0.417130,0.134507,0.128903,0.018215,588.000000,540.000000,48.000000,46.000000,0.000000,0.000000,0.000000,0.000000,0.000000;
#CREDIT:;
#NOTES:
0000
0000
0000
0000
,
0000
0000
0000
0000
,
0000
0000
0000
0000
,
0000
0000
0000
0000
,
0000
0000
0000
0000
0000
0100
0010
0100
,
0000
0001
1000
0001
0000
0010
0001
0010
,
0000
1000
0100
1000
0000
0001
1000
0001
,
0000
0010
0100
0020
0000
0000
0030
0000
,
0000
0000
0000
0000
0000
1000
0001
1000
,
0000
0100
0010
0100
0000
0001
0010
0001
,
0000
1000
0001
1000
0000
0010
0100
0010
,
0000
0001
0100
0002
0000
0003
1000
0001
,
0100
0010
0000
1000
0000
2002
0000
3003
,
0000
1000
0100
0010
0001
0000
0201
0000
,
0000
0000
0310
0000
,
0000
0000
0000
0000
,
0000
0000
0000
0000
0000
1000
0100
1000
,
0000
0010
0100
0010
0000
0001
0010
0001
,
0000
0100
0010
0100
0000
1000
0100
1000
,
0000
0010
1000
0001
2000
0000
3000
0000
,
0000
0000
0000
0000
0000
0100
0010
0100
,
0000
0001
1000
0001
0000
0010
0001
0010
,
0000
0100
0010
0100
0010
0000
1000
0001
,
1000
0001
0010
0100
2000
0000
3000
0000
,
0000
0000
1000
0001
0000
0010
0001
0010
,
0000
0001
0100
0001
1000
0000
0200
0000
,
0000
0000
0310
0000
,
0000
0000
0000
0000
0000
0000
0010
0001
,
0100
0010
1000
0001
0000
1000
0000
1100
,
0000
0100
0010
0100
0010
0000
0022
0000
,
0000
0000
0000
0000
0033
0001
0010
0001
,
0000
0010
0100
0010
0000
0100
1000
0100
,
0000
1000
0001
1000
0000
0000
0000
2000
,
0000
3000
0000
0001
0000
0000
0000
0200
,
0000
0300
0000
0010
0000
0000
0000
0002
,
0000
0003
0000
1000
0000
0000
0000
0010
,
0000
0100
0000
0010
0000
0100
0000
0020
,
0000
0030
0000
0100
0000
0000
0000
2000
,
0000
3000
0000
0001
0000
0000
0000
0020
,
0000
0030
0000
0100
0000
0100
0000
0010
,
0000
0001
0000
0010
0000
1000
0000
0002
,
0000
0003
0000
1000
0000
0000
0000
0020
,
0000
0030
0000
0100
0000
0000
0000
2000
,
0000
3000
0000
0001
0000
0000
0000
0100
,
0000
0010
0000
0100
0000
0010
0000
0200
,
0000
0001
0000
0301
0000
0002
0000
1000
,
0000
1003
0000
2000
0000
0010
0000
3000
,
0000
0010
0000
0000
0000
0100
0000
0000
,
0000
0010
0000
0100
0000
0010
0000
0100
,
0000
0100
0000
0010
0001
0100
0000
1000
,
0001
1000
0100
0010
0001
0100
0010
1000
,
0001
1000
0000
0010
0100
0010
0000
0001
,
1000
0001
0000
0100
0010
0100
0010
1000
,
0001
0010
0001
0100
0010
1000
0002
0000
,
0003
0010
0000
0100
0000
1000
0000
0010
,
0100
0010
0000
1000
0001
1000
0000
0100
,
0010
0100
0000
0001
1000
0001
1000
0001
,
0100
0010
1000
0100
0100
0100
0010
0001
,
0000
1001
0000
1000
0010
0100
0001
1000
,
0000
1100
1000
0100
0010
0001
0100
0000
,
0101
0000
0000
1010
,
0000
0000
0000
0000
,
0000
1000
0001
1000
0000
0010
0100
0010
,
0000
0110
0100
0010
0100
0001
1000
0000
,
1001
0000
0000
0000
,
0110
0000
0000
0000
0000
0000
0000
0010
,
0001
0100
0010
1000
0001
1000
0000
0000
,
0000
1010
0000
0000
0000
1100
0000
0000
,
0000
0011
0000
0000
0000
0101
0000
0000
,
0000
0110
0000
0000
0000
1001
0000
0000
,
0000
0001
0000
0010
0000
0100
0000
1000
,
0000
0010
0000
0000
0000
0101
0000
0000
,
0000
0010
0000
0000
0000
1100
0000
0000
,
0000
1001
0000
0000
0000
0001
0000
0010
,
0000
0001
0000
0100
0000
0010
0000
1000
,
0000
1100
0000
0000
0000
0110
0000
0000
,
0000
0011
0000
0000
0000
1001
0000
0000
,
0000
1010
0000
0000
0000
1001
0000
0000
,
0000
0101
0000
0001
0000
0100
0000
0010
,
0000
2000
0000
0000
0000
3000
0000
0002
,
0000
0000
0000
0003
0000
0100
0000
0200
,
0000
0000
0000
0300
0000
0000
0000
0000
,
0000
0010
0000
0001
0000
0100
0000
0010
,
0000
2000
0000
0000
0000
3100
0000
0000
,
0000
0002
0000
0000
0000
0103
0000
0000
,
0000
0020
0000
0000
0000
0130
0000
0000
,
0000
0010
0000
0001
0000
0100
0000
0010
,
0000
1000
0000
0000
0000
1001
0000
0000
,
0000
0101
0000
0000
0000
0011
0000
0000
,
0000
1010
0000
0000
0000
1000
0000
0001
,
0000
0100
0000
0010
0000
1000
0000
0001
,
0000
0000
0000
0000
0000
0010
0000
0000
,
0000
0100
0000
0000
0000
1000
0000
0000
,
0000
0001
0000
0000
0000
0010
0000
0000
,
0000
0001
0000
0010
0000
0100
0000
1000
,
0000
0010
0000
0100
0000
0010
0000
0100
,
0000
0001
0000
1000
0000
0001
0000
1000
,
0000
0000
0000
1000
0000
0000
0000
1000
,
0000
0000
0000
1000
0000
0100
0000
0010
,
0000
0002
0000
0000
0000
0000
0000
0000
,
0000
0003
0000
0000
0000
0100
0000
0000
,
0000
0200
0000
0000
0000
0000
0000
0000
,
0000
0300
0000
0000
0000
0010
0000
0000
,
0000
0020
0000
0000
0000
0000
0000
0000
,
0000
0030
0000
0000
0000
1000
0000
0000
,
0000
2000
0000
0000
0000
0000
0000
0000
,
0000
3000
0000
0000
0000
0000
0000
0000
,
0000
0100
0000
0000
0000
0100
0000
0000
,
0000
0010
0000
0000
0000
0010
0000
0000
,
0000
0001
0000
0000
0000
0001
0000
0000
,
0000
1000
0000
0000
0000
1000
0000
0000
,
0000
0010
0000
0000
0000
0010
0000
0000
,
0000
0100
0000
0000
0000
0100
0000
0000
,
0000
0001
0000
0010
0000
0100
0000
1000
,
0000
0010
0000
0100
0000
0001
0000
0000
,
0000
0200
0000
0001
0000
0001
0000
0301
,
0000
2000
0000
0001
0000
0001
0000
3001
,
0000
0020
0000
0100
0000
0100
0000
0130
,
0000
0002
0000
0100
0000
0100
0000
0103
,
0000
0000
0000
0010
0000
0001
0000
0100
,
0000
0010
0000
1000
0000
0001
0000
1000
,
0000
0000
0000
0010
0000
0001
0000
0100
,
0000
0010
0000
1000
0000
0001
0000
1000
,
0000
0000
0000
0010
0000
1000
0000
0100
,
0000
0010
0000
0001
0000
1000
0000
0001
,
0000
0200
0000
0000
0000
0000
0000
0300
,
0000
0020
0000
0000
0000
0000
0000
0030
,
0000
2000
0000
0000
0000
0000
0000
3000
,
0000
0002
0000
0000
0000
0000
0000
0003
,
0000
0000
0000
0000
,
0000
0000
0000
0000
,
0000
0001
0010
0001
0100
0010
1000
0200
,
0310
0001
0010
1000
0100
0010
0001
0100
,
0010
0000
0000
0000
0000
0000
1000
0000
0000
0000
0000
0000
0000
0000
1000
0000
0000
0000
0000
0000
0000
0000
0100
0000
0000
0000
0010
0000
0000
0000
0001
0000
0000
0000
0010
0000
0000
0000
0000
0100
0000
0000
0000
0000
0000
0000
0000
0100
,
0000
0000
0000
0000
0000
0000
0000
0100
0000
0000
0000
0000
0000
0000
0000
0100
0000
0000
0000
0000
0000
0000
0000
0000
2000
0000
0000
0000
0000
0000
0000
0000
3100
0000
0000
0000
0000
0000
0000
0000
1000
0000
0000
0000
0010
0000
0000
0000
,
0100
0000
0010
0001
0100
0000
0001
0000
0000
0000
0000
0000
,
0000
0001
0000
0000
0000
0010
0000
0000
,
0000
0100
0000
0000
0000
1000
0000
0000
,
0000
0010
0000
0000
0000
0100
0000
0000
,
0000
0010
0000
0001
0000
0100
0000
0010
,
0000
1000
0000
0000
0000
1001
0000
0000
,
0000
0001
0000
0000
0000
0101
0000
0000
,
0000
0100
0000
0000
0000
0010
0000
0100
,
0000
0010
0000
1000
0000
0001
0000
0100
,
0000
0010
0000
0000
0000
1000
0000
0000
,
0000
0100
0000
0000
0000
0010
0000
0000
,
0000
0001
0000
0000
0000
0100
0000
0000
,
0000
0010
0000
0001
0000
0100
0000
0010
,
0000
2000
0000
0000
0000
0000
0000
0000
,
0000
0000
0000
0000
,
0000
0000
0000
0000
0000
0000
0000
3000
,
0000
1000
0000
0010
0000
0100
0000
0001
,
0000
0100
0000
0000
0000
0010
0000
0000
,
0000
1000
0000
0000
0000
0001
0000
0000
,
0000
0010
0000
0000
0000
0100
0000
0000
,
0000
0010
0000
0001
0000
0010
0000
1000
,
0000
0100
0000
0000
0000
0010
0000
0000
,
0000
0001
0000
0000
0000
0010
0000
0000
,
0000
0100
0000
0000
0000
1000
0000
0010
,
0000
0100
0000
0001
0000
1000
0000
0001
,
0000
0010
0000
0000
0000
0110
0000
0000
,
0000
1000
0000
0000
0000
1001
0000
0000
,
0000
0001
0000
0000
0000
0101
0000
0000
,
0000
0010
0000
0100
0000
0010
0000
0001
,
0000
1000
0000
0100
0000
0010
0000
0001
,
0000
0010
0000
0100
0000
1000
0000
0001
,
0000
0000
0000
0101
0000
0000
0000
1010
,
0000
0000
0000
1000
0000
0100
0000
0010
,
0000
0001
0000
0000
0000
0101
0000
0000
,
0000
0110
0000
0000
0000
1010
0000
0000
,
0000
1100
0000
0000
0000
1001
0000
0000
,
0000
0011
0000
0000
0000
0101
0000
0000
,
0000
0110
0000
0000
0000
1001
0000
0000
,
0000
0010
0000
0001
0000
0100
0000
0010
,
0000
2002
0000
0000
0000
0000
0000
0000
,
0000
3003
0000
0000
0000
0000
0000
0000
;

//---------------dance-single - ----------------
#NOTEDATA:;
#CHARTNAME:;
#STEPSTYPE:dance-single;
#DESCRIPTION:;
#CHARTSTYLE:;
#DIFFICULTY:Easy;
#METER:9;
#RADARVALUES:0.192554,0.392593,0.039231,0.442753,0.012610,481.000000,467.000000,14.000000,158.000000,0.000000,0.000000,0.000000,0.000000,0.000000,0.192554,0.392593,0.039231,0.442753,0.012610,481.000000,467.000000,14.000000,158.000000,0.000000,0.000000,0.000000,0.000000,0.000000;
#CREDIT:;
#NOTES:
0000
0000
0000
0000
,
0000
0000
0000
0000
,
0000
0000
0000
0000
,
0000
0000
0000
0000
,
0000
0000
0000
0000
0000
0010
0000
0010
,
0000
0100
0001
0100
0000
0100
0000
0100
,
0000
1000
0100
1000
0000
1000
0000
1000
,
0000
0001
2000
0002
0000
0000
3003
0000
,
0000
0000
0000
0000
0000
0010
0000
0001
,
0000
0100
0001
0100
0000
0010
0000
1000
,
0000
0100
1000
0100
0000
0010
0000
0100
,
0000
1000
0002
2000
0000
3003
0000
0010
,
0000
0100
0000
0001
0000
2000
0000
0100
,
0000
3020
0000
0100
0000
2030
0000
0010
,
0000
3200
0000
1000
0000
0020
0000
0000
,
0000
0000
0000
0300
0000
0100
0000
0100
,
0000
0100
0000
0130
0000
0001
0000
1000
,
0000
0001
1000
0001
0000
1000
0000
0010
,
0000
1000
0010
1000
0000
0010
0000
0100
,
0000
0100
0010
0100
0020
0000
0130
0000
,
0000
0000
0000
0000
0000
0100
0000
0100
,
0000
0010
0000
0010
0000
1000
0000
1000
,
0000
0001
0000
0002
0003
0000
0000
0100
,
0000
0100
0000
0010
0000
0010
0000
1000
,
0000
1000
0000
0002
0000
0103
0000
0020
,
0000
1030
0000
0200
0000
1300
0000
2000
,
0000
0100
0000
3002
0000
0010
0000
0100
,
0000
0010
0000
1000
0000
0103
0000
0010
,
0001
0010
0000
0100
0000
2000
0000
0100
,
0000
3020
0000
1000
0000
0230
0000
0010
,
0000
0302
0000
0010
0000
1003
0000
1000
,
0000
0100
0000
0100
0000
0010
0000
0001
,
0000
1000
0000
1001
0000
0000
0000
0200
,
0000
0300
0000
0020
0000
0030
0000
2000
,
0000
3000
0000
0200
0000
0300
0000
0020
,
0000
0030
0000
0002
0000
0003
0000
0100
,
0000
0010
0000
1000
0000
0001
0000
0020
,
0000
0030
0000
0002
0000
0003
0000
0200
,
0000
0300
0000
0020
0000
0030
0000
2000
,
0000
3000
0000
0010
0000
1000
0000
0100
,
0000
0010
0000
0001
0000
2000
0000
0000
,
0000
3000
0000
0200
0000
0300
0000
0020
,
0000
0030
0000
0002
0000
0003
0000
0200
,
0000
0300
0000
0020
0000
0030
0000
1000
,
0000
0010
0000
0100
0000
0001
0000
1001
,
0000
1000
0000
0010
0000
0100
0000
0001
,
0000
1000
0000
0100
0000
0010
0000
0020
,
0000
0000
0000
0001
0000
0000
0000
1000
,
0000
0000
0000
0001
0000
0000
0000
0130
,
0000
0100
0000
0010
0000
0010
0000
1000
,
0000
0100
0000
0010
0000
0001
0000
0010
,
0000
0001
0000
0100
0000
0010
0000
1000
,
0000
0000
0010
0000
0000
0000
0100
0000
0000
0000
0020
0000
0000
0030
0000
0000
,
0000
0100
0000
0010
0000
1000
0000
0001
,
0000
0010
0000
0001
0000
0100
0000
0010
,
0000
1000
0000
0100
0000
0010
0000
0001
,
0000
0010
0000
1000
0000
0010
0000
0001
,
0000
0100
0000
0010
0000
1000
0000
0001
,
0000
0100
0000
0110
0000
1001
0000
0002
,
0000
0010
0000
0023
0000
0100
0000
0230
,
0000
1000
0000
2300
0000
0100
0000
3200
,
0000
0010
0000
0320
0000
0001
0000
0032
,
0000
1000
0000
1003
0000
1001
0000
0002
,
0000
0100
0000
0203
0000
0010
0000
0320
,
0000
1000
0000
2030
0000
0010
0000
3020
,
0000
0100
0000
0230
0000
0001
0000
0302
,
0000
1000
0000
1003
0000
1001
0000
0000
,
0000
0020
0000
0030
0000
0002
0000
0003
,
0000
0200
0000
0300
0000
0002
0000
0003
,
0000
2000
0000
3000
0000
0200
0000
0300
,
0000
1000
0000
0010
0000
0100
0000
0001
,
0000
2000
0000
3000
0000
0200
0000
0300
,
0000
0002
0000
0003
0000
0200
0000
0300
,
0000
2000
0000
3000
0000
0010
0000
0100
,
0000
0001
0000
1000
0000
0010
0000
0002
,
0000
0000
0000
0003
0000
0020
0000
0030
,
0000
0002
0000
0003
0000
0200
0000
0300
,
0000
0020
0000
0030
0000
2000
0000
3000
,
0000
0010
0000
0100
0000
0001
0000
1000
,
0000
0200
0000
0300
0000
0000
0000
0020
,
0000
0030
0000
0000
0000
2000
0000
0002
,
0000
0000
0000
0000
0000
3003
0000
0000
,
0000
0000
0000
0000
,
0000
0200
0000
0300
0000
0002
0000
0003
,
0000
0020
0000
0030
0000
0002
0000
0003
,
0000
0200
0000
0300
0000
0020
0000
0030
,
0000
1000
0000
0010
0000
0001
0000
0100
,
0000
2000
0000
3000
0000
0020
0000
0030
,
0000
0200
0000
0300
0000
0002
0000
0003
,
0000
2000
0000
3000
0000
0010
0000
0100
,
0000
0001
0000
1000
0000
0100
0000
0002
,
0000
0000
0000
0003
0000
2000
0000
3000
,
0000
0020
0000
0030
0000
0002
0000
0003
,
0000
0020
0000
0030
0000
2000
0000
3000
,
0000
0010
0000
0100
0000
0010
0000
0100
,
0000
0002
0000
1000
0000
1000
0000
1000
,
0000
1000
0000
1000
0000
1000
0000
1003
,
0000
0000
0000
0200
0000
0000
0000
0320
,
0000
0000
0000
0100
0000
0100
0000
0130
,
0000
0200
0000
0000
0000
0000
0000
0000
,
0000
0000
0000
0000
,
0000
0300
0000
0000
0000
0000
0000
0000
,
0000
0000
0000
0000
,
0000
0020
0000
0000
0000
0000
0000
0000
,
0000
0000
0000
0000
,
0000
0030
0000
0000
0000
0000
0000
0000
,
0000
0000
0000
0000
,
0000
1000
0000
0000
0000
0001
0000
0000
,
0000
1000
0000
0000
0000
0001
0000
0000
,
0000
1000
0000
0000
0000
0001
0000
0000
,
0000
1000
0000
0000
0000
0001
0000
0000
,
0000
1000
0000
0000
0000
0001
0000
0000
,
0000
1000
0000
0000
0000
0001
0000
0000
,
0000
0100
0000
0010
0000
0100
0000
0000
,
0000
0010
0000
0100
0000
0010
0000
0000
,
0000
2000
0000
0000
0000
3100
0000
0000
,
0000
0020
0000
0000
0000
0130
0000
0000
,
0000
0002
0000
0000
0000
0013
0000
0000
,
0000
0200
0000
0000
0000
0000
0000
0310
,
0000
0000
0000
2000
0000
0000
0000
3001
,
0000
0002
0000
0000
0000
1003
0000
0000
,
0000
0020
0000
0000
0000
0130
0000
0000
,
0000
0010
0000
1000
0000
0001
0000
0100
,
0000
0000
0000
0200
0000
0000
0000
0310
,
0000
0020
0000
0000
0000
0130
0000
0000
,
0000
2002
0000
0000
0000
3003
0000
0000
,
0000
0220
0000
0000
0000
0330
0000
0000
,
0000
0202
0000
0000
0000
0000
0000
0000
,
0000
0000
0000
0000
0000
0303
0000
0000
,
0000
2200
0000
0000
0000
0000
0000
0000
,
0000
0000
0000
0000
0000
3300
0000
0000
,
0000
0100
0100
1000
1000
0001
0001
0010
,
0010
0100
0100
1000
1000
0001
0001
0200
,
0300
0000
0000
0000
0000
0000
0000
0000
0000
0000
0000
0000
0000
0000
0000
0000
0000
0000
0000
0000
0000
0000
0000
0000
0010
0000
0000
0000
0000
0000
0000
0000
0000
0000
0000
0000
0000
0000
0000
0000
0000
0000
0000
0000
0000
0000
0000
0000
0000
0000
0000
0000
0000
0000
0000
0000
0010
0000
0000
0000
0000
0000
0000
0000
0000
0000
0000
0000
0000
0000
0000
0000
0000
0000
0000
0000
0000
0000
0000
0000
0000
0000
0000
0000
0000
0000
0000
0000
0010
0000
0000
0000
0000
0000
0000
0000
0000
0000
0000
0000
0000
0000
0000
0000
0100
0000
0000
0000
0000
0000
0000
0000
0000
0000
0000
0000
0000
0000
0000
0000
0010
0000
0000
0000
0000
0000
0000
0000
0000
0000
0000
0000
0000
0000
0000
0000
0000
0000
0100
0000
0000
0000
0000
0000
0000
0000
0000
0000
0000
0000
0000
0000
0000
0000
0000
0000
0010
0000
0000
0000
0000
0000
0000
0000
0000
0000
0000
0000
0000
0000
0000
0000
0000
0000
0000
0000
0000
0000
0000
0000
0000
0000
0000
0000
0000
0000
0000
0000
0100
0000
0000
0000
,
0000
0000
0000
0000
0000
0000
0000
0000
0000
0000
0000
0000
0000
0000
0000
0000
0000
0000
0000
0000
0000
0000
0000
0000
0000
0000
0000
0000
1000
0000
0000
0000
0000
0000
0000
0000
0000
0000
0000
0000
0000
0000
0000
0000
0000
0000
0000
0000
0000
0000
0000
0000
0000
0000
0000
0000
0000
0000
0000
0000
0001
0000
0000
0000
0000
0000
0000
0000
0000
0000
0000
0000
0000
0000
0000
0000
0000
0000
0000
0000
0000
0000
0000
0000
0000
0000
0000
0000
0000
0000
0000
0000
0000
2002
0000
0000
0000
0000
0000
0000
0000
0000
0000
0000
0000
0000
0000
0000
0000
0000
0000
0000
0000
0000
0000
0000
0000
0000
0000
0000
0000
0000
0000
0000
0000
0000
0000
0000
0000
0000
0000
0000
0000
0000
0000
0000
0000
0000
0000
0000
0000
0000
0000
0000
0000
0000
0000
0000
0000
0000
0000
0000
0000
0000
0000
0000
0000
0000
0000
0000
0000
0000
0000
0000
0000
0000
0000
0000
0000
0000
0000
0000
0000
0000
0000
0000
0000
0000
0000
0000
0000
0000
0000
0000
0000
0000
0000
0000
0000
0000
0000
0000
,
0000
0000
0000
0000
0000
0000
0000
3003
,
0000
0002
0000
0003
0000
0200
0000
0300
,
0000
0020
0000
0030
0000
2000
0000
3000
,
0000
0020
0000
0030
0000
0200
0000
0300
,
0000
0001
0000
0010
0000
1000
0000
0100
,
0000
0002
0000
0003
0000
0020
0000
0030
,
0000
0200
0000
0300
0000
0002
0000
0003
,
0000
2000
0000
3000
0000
0010
0000
0001
,
0000
0100
0000
0010
0000
1000
0000
0200
,
0000
0000
0000
0300
0000
0020
0000
0030
,
0000
2000
0000
3000
0000
0200
0000
0300
,
0000
0002
0000
0003
0000
0020
0000
0030
,
0000
0001
0000
0010
0000
0100
0000
1000
,
0000
2000
0000
0000
0000
0000
0000
0001
,
0000
0000
0000
0000
0000
0001
0000
3001
,
0000
0001
0000
0010
0000
0001
0000
0000
,
0000
0100
0000
0010
0000
0100
0000
0000
,
0000
2000
0000
3000
0000
0020
0000
0030
,
0000
0002
0000
0003
0000
0200
0000
0300
,
0000
0020
0000
0030
0000
2000
0000
3000
,
0000
0010
0000
1000
0000
0001
0000
0100
,
0000
2000
0000
3000
0000
0020
0000
0030
,
0000
2000
0000
3000
0000
0200
0000
0300
,
0000
0002
0000
0003
0000
0010
0000
0001
,
0000
1000
0000
0010
0000
0100
0000
0020
,
0000
0000
0000
0030
0000
0200
0000
0300
,
0000
0002
0000
0003
0000
2000
0000
3000
,
0000
0020
0000
0030
0000
0200
0000
0300
,
0000
0001
0000
0010
0000
0100
0000
1000
,
0000
0200
0000
0010
0000
0010
0000
0010
,
0000
0010
0000
0010
0000
0010
0000
0310
,
0000
0000
0000
1100
0000
0000
0000
1100
,
0000
0000
0000
0100
0000
0010
0000
0001
,
0000
0002
0000
0000
0000
0003
0000
0000
,
0000
0020
0000
0000
0000
0030
0000
0000
,
0000
0200
0000
0000
0000
0300
0000
0000
,
0000
2000
0000
0000
0000
3000
0000
0000
,
0000
1000
0000
0000
0000
0010
0000
0000
,
0000
0001
0000
0010
0000
0100
0000
1000
,
0000
2002
0000
0000
0000
0000
0000
0000
,
0000
3003
0000
0000
0000
0000
0000
0000
;
